osu file format v14

[General]
AudioFilename: audio.mp3
AudioLeadIn: 0
PreviewTime: 60366
Countdown: 0
SampleSet: Soft
StackLeniency: 0.7
Mode: 0
LetterboxInBreaks: 0
WidescreenStoryboard: 0

[Editor]
DistanceSpacing: 1.3
BeatDivisor: 4
GridSize: 4
TimelineZoom: 1.6

[Metadata]
Title:Koi no Hime Hime Pettanko
TitleUnicode:恋のヒメヒメぺったんこ
Artist:*namirin
ArtistUnicode:*なみりん
Creator:[C u r i]
Version:Insane
Source:弱虫ペダル
Tags:Yowamushi Pedal HabiHolic Kalibe Taeyang
BeatmapID:1053519
BeatmapSetID:485056

[Difficulty]
HPDrainRate:6
CircleSize:4
OverallDifficulty:8
ApproachRate:9
SliderMultiplier:1.6
SliderTickRate:1

[Events]
//Background and Video events
0,0,"cherry_blossoms_kantoku_artist_Wallpaper HD_2560x1440_www.paperhi.com.jpg",0,0
//Break Periods
//Storyboard Layer 0 (Background)
//Storyboard Layer 1 (Fail)
//Storyboard Layer 2 (Pass)
//Storyboard Layer 3 (Foreground)
//Storyboard Sound Samples

[TimingPoints]
1799,337.078651685393,4,2,1,30,1,0
7192,-111.111111111111,4,2,2,60,0,0
12585,-100,4,2,2,60,0,0
17473,-100,4,2,2,60,0,0
17978,-111.111111111111,4,2,2,60,0,0
28428,-100,4,2,2,60,0,0
28681,-100,4,2,2,5,0,0
28765,-111.111111111111,4,2,2,60,0,0
39551,-125,4,2,2,60,0,0
50338,-100,4,2,2,60,0,0
60450,-111.111111111111,4,2,2,60,0,0
60703,-111.111111111111,4,2,2,5,0,0
60787,-111.111111111111,4,2,2,60,0,0
61124,-90.9090909090909,4,2,2,100,0,1
69214,-90.9090909090909,4,2,2,100,0,1
69888,-90.9090909090909,4,2,2,100,0,1
71827,-90.9090909090909,4,2,2,100,0,0
71911,-90.9090909090909,4,2,2,100,0,1
79664,-90.9090909090909,4,2,2,100,0,0
80001,-90.9090909090909,4,2,2,100,0,1
82529,-90.9090909090909,4,2,2,100,0,0
82866,-90.9090909090909,4,2,2,100,0,1
85394,-100,4,2,1,30,0,0
93147,-100,4,2,1,30,0,0

[Colours]
Combo1 : 255,187,255
Combo2 : 255,51,255
Combo3 : 255,128,255
Combo4 : 203,148,148

[HitObjects]
157,93,1799,6,0,L|152:193,1,80,2|0,0:0|0:0,0:0:0:0:
152,201,2051,1,0,0:0:0:0:
152,201,2136,2,0,P|199:210|234:201,1,80,2|0,0:0|0:0,0:0:0:0:
372,134,2473,2,0,P|325:125|290:134,1,80,2|0,0:0|0:0,0:0:0:0:
229,202,2810,1,10,0:0:0:0:
315,315,2978,1,0,0:0:0:0:
397,156,3147,6,0,L|391:65,1,80,2|0,0:0|0:0,0:0:0:0:
388,48,3400,1,0,0:0:0:0:
388,48,3484,1,2,0:0:0:0:
294,132,3652,1,0,0:0:0:0:
367,239,3821,2,0,P|422:242|446:232,1,80,2|0,0:0|0:0,0:0:0:0:
294,132,4158,2,0,P|239:129|215:139,1,80,10|0,0:0|0:0,0:0:0:0:
162,255,4495,5,2,0:0:0:0:
56,171,4664,1,0,0:0:0:0:
56,171,4748,1,0,0:0:0:0:
56,171,4832,2,0,L|51:61,1,80,2|0,0:0|0:0,0:0:0:0:
51,63,5085,1,0,0:0:0:0:
51,63,5169,1,2,0:0:0:0:
155,124,5338,1,0,0:0:0:0:
146,243,5506,1,10,0:0:0:0:
38,295,5675,1,0,0:0:0:0:
204,354,5843,6,0,P|248:363|290:345,1,80,2|0,0:0|0:0,0:0:0:0:
427,280,6181,2,0,P|383:271|341:289,1,80,10|0,0:0|0:0,0:0:0:0:
188,341,6518,2,0,P|171:287|192:220,1,120,2|0,0:0|0:0,0:0:0:0:
259,190,6855,6,0,P|206:225|131:209,1,120,2|0,0:1|0:0,0:0:0:0:
120,205,7192,5,4,0:0:0:0:
60,102,7529,1,0,0:0:0:0:
52,81,7866,1,0,0:0:0:0:
45,60,8203,2,0,L|42:157,1,71.9999978027344,0|2,0:0|0:0,0:0:0:0:
187,227,8540,6,0,B|254:215|254:215|330:230,1,143.999995605469,4|0,0:0|0:0,0:0:0:0:
346,299,9046,2,0,P|329:246|367:141,1,143.999995605469,0|0,0:0|0:0,0:0:0:0:
453,123,9551,1,8,0:0:0:0:
438,234,9720,1,2,0:0:0:0:
253,216,9888,5,4,0:0:0:0:
169,338,10225,1,0,0:0:0:0:
143,334,10563,1,0,0:0:0:0:
118,331,10900,2,0,L|125:258,1,71.9999978027344,0|2,0:0|0:0,0:0:0:0:
114,50,11237,6,0,P|155:108|142:176,1,143.999995605469,4|0,0:0|0:0,0:0:0:0:
125,260,11742,2,0,B|171:252|171:252|217:260|217:260|296:247,1,143.999995605469,0|8,0:0|0:0,0:0:0:0:
376,155,12248,1,2,0:0:0:0:
376,155,12332,1,2,0:0:0:0:
376,155,12416,1,2,0:0:0:0:
376,155,12501,1,2,0:0:0:0:
376,155,12585,6,0,L|390:248,1,80,4|0,0:0|0:0,0:0:0:0:
278,330,12922,2,0,L|264:237,1,80,8|0,0:0|0:0,0:0:0:0:
263,223,13175,1,0,0:0:0:0:
262,223,13259,2,0,P|211:215|167:228,1,80,2|0,0:0|0:0,0:0:0:0:
117,324,13596,1,8,0:0:0:0:
92,198,13765,1,0,0:0:0:0:
196,61,13933,6,0,L|183:226,1,160,4|8,0:0|0:0,0:0:0:0:
310,331,14439,2,0,L|321:230,1,80,0|0,0:0|0:0,0:0:0:0:
285,131,14776,1,0,0:0:0:0:
423,193,14945,1,8,0:0:0:0:
423,193,15029,1,0,0:0:0:0:
423,193,15113,1,0,0:0:0:0:
423,193,15197,1,0,0:0:0:0:
423,193,15282,6,0,L|412:92,1,80,4|0,0:0|0:0,0:0:0:0:
246,64,15619,2,0,P|213:103|210:147,1,80,8|0,0:0|0:0,0:0:0:0:
300,266,15956,1,2,0:0:0:0:
261,255,16040,1,0,0:0:0:0:
233,228,16124,1,0,0:0:0:0:
316,109,16293,1,8,0:0:0:0:
336,264,16461,1,0,0:0:0:0:
170,282,16630,6,0,B|45:297|45:297|91:263,1,160,4|0,0:0|0:0,0:0:0:0:
242,155,17136,2,0,B|269:134|269:134|150:147,1,120
144,149,17473,1,2,0:0:0:0:
16,223,17641,1,8,0:0:0:0:
16,223,17978,6,0,L|30:315,1,71.9999978027344,4|0,0:0|0:0,0:0:0:0:
144,149,18315,2,0,L|130:57,1,71.9999978027344,8|0,0:0|0:0,0:0:0:0:
51,142,18652,1,2,0:0:0:0:
140,231,18821,1,0,0:0:0:0:
231,145,18990,1,8,0:0:0:0:
231,145,19327,6,0,P|303:116|388:146,1,143.999995605469,2|2,0:0|0:0,0:0:0:0:
391,275,19832,2,0,P|319:304|234:274,1,143.999995605469,8|2,0:0|0:0,0:0:0:0:
141,231,20338,1,8,0:0:0:0:
141,231,20675,6,0,P|147:189|133:152,1,71.9999978027344,2|0,0:0|0:0,0:0:0:0:
0,161,21012,2,0,P|33:187|72:193,1,71.9999978027344,8|0,0:0|0:0,0:0:0:0:
126,75,21349,2,0,P|86:90|61:121,1,71.9999978027344,0|2,0:0|0:0,0:0:0:0:
18,268,21686,1,8,0:0:0:0:
18,268,22023,6,0,L|174:256,1,143.999995605469,2|8,0:0|0:0,0:0:0:0:
282,172,22529,2,0,L|138:160,1,143.999995605469,8|2,0:0|0:0,0:0:0:0:
49,66,23034,2,0,P|96:36|129:35,1,71.9999978027344,8|0,0:0|0:0,0:0:0:0:
243,82,23372,5,2,0:0:0:0:
243,82,23709,2,0,L|250:167,1,71.9999978027344,8|0,0:0|0:0,0:0:0:0:
144,232,24046,2,0,L|137:147,1,71.9999978027344,0|2,0:0|0:0,0:0:0:0:
257,252,24383,1,8,0:0:0:0:
257,252,24720,6,0,P|325:273|407:218,1,143.999995605469,2|8,0:0|0:0,0:0:0:0:
497,131,25225,2,0,P|429:152|347:97,1,143.999995605469,10|2,0:0|0:0,0:0:0:0:
434,61,25731,1,8,0:0:0:0:
317,183,25900,6,0,B|336:220|325:256|325:256|315:290|333:330,1,143.999995605469,4|2,0:0|0:0,0:0:0:0:
247,228,26405,2,0,P|239:290|245:319,1,71.9999978027344,2|2,0:0|0:0,0:0:0:0:
352,345,26742,1,8,0:0:0:0:
206,375,26911,1,2,0:0:0:0:
352,345,27079,1,8,0:0:0:0:
246,200,27248,6,0,L|103:217,1,143.999995605469,4|2,0:0|0:0,0:0:0:0:
0,131,27754,2,0,P|23:107|76:89,1,71.9999978027344,2|2,0:0|0:0,0:0:0:0:
187,123,28091,1,8,0:0:0:0:
103,216,28259,1,8,3:2:0:0:
103,216,28343,1,8,3:2:0:0:
103,216,28428,6,0,B|111:255|111:255|105:291|105:291|112:340,1,120,8|0,3:2|3:2,0:0:0:0:
117,359,28765,5,4,0:0:0:0:
117,359,29102,2,0,P|153:368|209:344,1,71.9999978027344,2|0,0:0|0:0,0:0:0:0:
317,229,29439,2,0,P|282:221|247:230,1,71.9999978027344,0|2,0:0|0:0,0:0:0:0:
286,343,29776,1,8,0:0:0:0:
286,343,30113,6,0,L|275:182,1,143.999995605469,2|2,0:0|0:0,0:0:0:0:
161,139,30619,2,0,L|151:282,1,143.999995605469,8|2,0:0|0:0,0:0:0:0:
286,343,31124,1,8,0:0:0:0:
286,343,31461,6,0,P|343:326|378:334,1,71.9999978027344,2|0,0:0|0:0,0:0:0:0:
492,344,31798,2,0,L|483:252,1,71.9999978027344,8|0,0:0|0:0,0:0:0:0:
338,167,32136,2,0,L|347:259,1,71.9999978027344,0|2,0:0|0:0,0:0:0:0:
500,184,32473,2,0,P|443:201|408:193,1,71.9999978027344,8|0,0:0|0:0,0:0:0:0:
277,64,32810,6,0,P|346:47|410:79,1,143.999995605469,2|8,3:2|3:2,0:0:0:0:
342,205,33315,2,0,L|191:220,1,143.999995605469,2|2,0:0|0:0,0:0:0:0:
58,156,33821,2,0,P|49:114|64:66,1,71.9999978027344,8|0,3:2|0:0,0:0:0:0:
171,113,34158,5,2,0:0:0:0:
171,113,34495,2,0,P|182:182|139:252,1,143.999995605469,8|0,0:0|0:0,0:0:0:0:
29,269,35001,1,2,0:0:0:0:
149,354,35169,1,8,0:0:0:0:
149,354,35506,6,0,L|148:199,1,143.999995605469,2|8,0:0|0:0,0:0:0:0:
277,120,36012,2,0,L|276:263,1,143.999995605469,2|0,0:0|0:0,0:0:0:0:
147,284,36518,1,8,0:0:0:0:
200,151,36686,1,2,0:0:0:0:
356,199,36855,5,2,0:0:0:0:
205,229,37023,1,2,0:0:0:0:
356,199,37192,2,0,L|449:198,1,71.9999978027344,8|0,0:0|0:0,0:0:0:0:
496,80,37529,1,0,0:0:0:0:
427,198,37697,1,2,0:0:0:0:
408,26,37866,1,8,0:0:0:0:
278,144,38034,6,0,P|264:212|306:283,1,143.999995605469,2|2,0:0|0:0,0:0:0:0:
463,258,38540,1,2,0:0:0:0:
356,199,38709,1,2,0:0:0:0:
291,300,38877,1,8,3:2:0:0:
259,316,38961,1,0,3:2:0:0:
223,321,39045,1,0,3:2:0:0:
188,313,39129,1,0,3:2:0:0:
157,295,39214,5,8,3:2:0:0:
140,290,39298,1,0,3:2:0:0:
122,288,39382,1,0,3:2:0:0:
104,290,39466,1,0,3:2:0:0:
87,296,39551,6,0,P|65:227|95:164,1,128,4|0,3:2|0:0,0:0:0:0:
183,135,40057,1,0,0:0:0:0:
183,135,40225,2,0,L|319:128,1,128,2|8,0:0|0:0,0:0:0:0:
443,184,40731,1,2,0:0:0:0:
443,184,40900,6,0,L|353:177,1,64,0|2,0:0|0:0,0:0:0:0:
349,54,41237,2,0,P|382:82|391:112,1,64,0|2,0:0|0:0,0:0:0:0:
293,188,41574,2,0,P|295:156|310:128,1,64,2|0,0:0|0:0,0:0:0:0:
379,179,41911,1,8,0:0:0:0:
379,179,42248,5,2,0:0:0:0:
425,258,42416,1,0,0:0:0:0:
371,330,42585,1,0,0:0:0:0:
293,188,42754,1,2,0:0:0:0:
293,188,42922,2,0,L|148:201,1,128,2|8,0:0|0:0,0:0:0:0:
40,282,43428,1,2,0:0:0:0:
40,282,43596,6,0,L|127:291,1,64,0|2,0:0|0:0,0:0:0:0:
230,193,43933,2,0,L|166:199,1,64,0|2,0:0|0:0,0:0:0:0:
103,288,44270,1,2,0:0:0:0:
73,187,44439,1,8,0:0:0:0:
142,113,44607,1,8,0:0:0:0:
201,307,44776,1,2,0:0:0:0:
237,140,44945,6,0,B|268:125|300:136|300:136|333:149|382:129,1,128,4|0,0:0|0:0,0:0:0:0:
450,60,45450,1,2,0:0:0:0:
450,60,45619,2,0,L|456:205,1,128,2|8,0:0|0:0,0:0:0:0:
391,303,46124,1,2,0:0:0:0:
391,303,46293,6,0,P|337:313|315:308,1,64,0|2,0:0|0:0,0:0:0:0:
306,181,46630,2,0,P|341:222|348:244,1,64,0|2,0:0|0:0,0:0:0:0:
240,314,46967,2,0,P|258:262|273:245,1,64,2|0,0:0|0:0,0:0:0:0:
391,303,47304,2,0,L|317:312,1,64,8|2,0:0|0:0,0:0:0:0:
187,235,47641,6,0,B|184:194|184:194|196:151|196:151|191:106,1,128,4|8,0:0|0:0,0:0:0:0:
86,46,48147,1,2,0:0:0:0:
86,46,48231,1,8,0:0:0:0:
86,46,48315,1,8,0:0:0:0:
102,191,48484,2,0,L|107:244,2,32,2|8|8,0:0|0:0|0:0,0:0:0:0:
165,37,48821,6,0,P|220:38|267:99,1,128,4|2,0:0|0:0,0:0:0:0:
184,220,49327,1,8,0:0:0:0:
184,220,49495,2,0,L|176:153,1,64,2|8,0:0|0:0,0:0:0:0:
227,41,49832,1,2,0:0:0:0:
227,41,49916,1,2,0:0:0:0:
227,41,50001,1,4,0:0:0:0:
352,75,50169,1,2,0:0:0:0:
176,156,50338,5,4,0:0:0:0:
328,184,50675,1,8,0:0:0:0:
176,241,51012,5,8,0:0:0:0:
328,184,51181,1,2,0:0:0:0:
176,156,51350,1,8,0:0:0:0:
228,330,51686,5,4,0:0:0:0:
254,191,51855,1,0,0:0:0:0:
228,330,52023,1,8,0:0:0:0:
176,156,52192,2,0,P|209:119|319:137,1,160,6|2,0:0|0:0,0:0:0:0:
454,192,52697,2,0,P|390:209|355:197,1,80,8|8,0:0|0:0,0:0:0:0:
350,192,52950,1,8,0:0:0:0:
350,192,53034,5,2,0:0:0:0:
297,48,53372,1,8,0:0:0:0:
254,191,53709,5,8,0:0:0:0:
297,48,53878,1,2,0:0:0:0:
350,192,54046,1,8,0:0:0:0:
178,144,54383,5,4,0:0:0:0:
308,120,54551,1,2,0:0:0:0:
266,246,54720,1,8,0:0:0:0:
229,64,54888,2,0,P|127:62|83:128,1,160,6|2,0:0|0:0,0:0:0:0:
98,195,55394,1,8,0:0:0:0:
266,246,55563,6,0,L|425:227,1,160,4|2,0:0|0:0,0:0:0:0:
486,124,56068,1,8,0:0:0:0:
486,124,56405,1,2,0:0:0:0:
505,253,56574,1,2,0:0:0:0:
397,324,56742,1,8,0:0:0:0:
374,187,56911,6,0,P|333:161|227:187,1,160,4|2,0:0|0:0,0:0:0:0:
105,270,57416,2,0,P|166:270|192:256,1,80,8|2,0:0|0:0,0:0:0:0:
128,114,57754,2,0,L|139:199,1,80,8|2,0:0|0:0,0:0:0:0:
262,260,58091,1,8,0:0:0:0:
158,352,58259,6,0,L|137:192,1,160,6|2,0:0|0:0,0:0:0:0:
193,59,58765,2,0,P|236:49|291:66,1,80,8|2,0:0|0:0,0:0:0:0:
345,179,59102,2,0,P|302:189|247:172,1,80,8|2,0:0|0:0,0:0:0:0:
244,167,59355,1,8,0:0:0:0:
244,167,59439,1,8,0:0:0:0:
374,78,59607,1,4,0:0:0:0:
374,78,59945,5,4,0:0:0:0:
395,266,60114,1,4,0:0:0:0:
267,182,60450,6,0,P|220:182|162:221,1,107.999996704102,0|0,0:0|0:0,0:0:0:0:
160,237,60787,2,0,L|150:144,1,71.9999978027344,0|0,0:0|0:0,0:0:0:0:
248,267,61124,6,0,L|238:357,1,88.000002685547,4|2,3:2|0:0,0:0:0:0:
72,310,61461,2,0,L|61:207,1,88.000002685547,8|0,3:2|0:0,0:0:0:0:
149,88,61798,2,0,P|190:78|243:95,1,88.000002685547,2|0,3:2|0:0,0:0:0:0:
248,267,62136,2,0,P|207:277|154:260,1,88.000002685547,8|0,3:2|0:0,0:0:0:0:
79,147,62473,5,2,3:2:0:0:
205,183,62641,1,0,0:0:0:0:
187,50,62810,1,8,3:2:0:0:
207,205,62978,1,0,0:0:0:0:
314,104,63147,2,0,L|431:91,1,88.000002685547,2|0,3:2|0:0,0:0:0:0:
298,219,63484,2,0,L|181:232,1,88.000002685547,8|0,3:2|0:0,0:0:0:0:
92,155,63821,6,0,P|133:113|183:100,1,88.000002685547,4|0,3:2|0:0,0:0:0:0:
298,219,64158,2,0,P|356:223|398:253,1,88.000002685547,8|0,3:2|0:0,0:0:0:0:
168,273,64495,2,0,P|162:214|184:167,1,88.000002685547,2|0,3:2|0:0,0:0:0:0:
328,49,64832,2,0,P|333:107|311:154,1,88.000002685547,8|0,3:2|0:0,0:0:0:0:
240,235,65169,5,2,3:2:0:0:
257,89,65338,1,0,0:0:0:0:
405,107,65506,1,8,3:2:0:0:
388,253,65675,1,0,0:0:0:0:
191,143,65843,2,0,L|338:133,1,132.00000402832,2|0,3:2|0:0,0:0:0:0:
367,133,66181,2,0,P|365:191|376:236,1,88.000002685547,8|0,3:2|0:0,0:0:0:0:
388,253,66433,1,8,0:0:0:0:
388,253,66518,5,2,3:2:0:0:
457,114,66686,1,0,0:0:0:0:
476,300,66855,1,8,3:2:0:0:
385,171,67023,1,0,0:0:0:0:
329,323,67192,1,2,3:2:0:0:
224,208,67360,2,0,L|318:201,1,88.000002685547,0|8,0:0|3:2,0:0:0:0:
457,114,67697,6,0,P|388:79|300:135,1,176.000005371094,0|0,0:0|0:0,0:0:0:0:
139,215,68203,2,0,P|195:220|237:197,1,88.000002685547,8|0,3:2|0:0,0:0:0:0:
377,40,68540,2,0,L|387:236,1,176.000005371094,2|8,3:2|3:2,0:0:0:0:
306,312,69046,1,0,0:0:0:0:
139,215,69214,6,0,L|146:97,1,88.000002685547,2|0,3:2|0:0,0:0:0:0:
377,40,69551,1,8,3:2:0:0:
144,127,69720,1,0,0:0:0:0:
260,57,69888,2,0,L|265:144,1,88.000002685547,2|0,3:2|0:0,0:0:0:0:
229,249,70225,1,8,3:2:0:0:
185,64,70394,6,0,P|98:72|75:155,1,176.000005371094,4|0,0:0|0:0,0:0:0:0:
229,249,70900,2,0,L|325:233,1,88.000002685547,8|0,3:2|0:0,0:0:0:0:
342,219,71152,1,0,0:0:0:0:
342,219,71237,1,2,3:2:0:0:
419,66,71405,1,8,0:0:0:0:
435,236,71574,1,8,3:2:0:0:
485,142,71742,1,0,0:0:0:0:
322,119,71911,6,0,L|214:133,1,88.000002685547,4|0,3:2|0:0,0:0:0:0:
123,247,72248,2,0,P|124:318|151:360,1,88.000002685547,8|0,3:2|0:0,0:0:0:0:
341,239,72585,2,0,L|241:251,1,88.000002685547,2|0,3:2|0:0,0:0:0:0:
114,162,72922,2,0,P|101:120|106:76,1,88.000002685547,8|0,3:2|0:0,0:0:0:0:
207,110,73259,5,2,3:2:0:0:
362,144,73428,1,0,0:0:0:0:
261,39,73596,1,8,3:2:0:0:
304,212,73765,1,0,0:0:0:0:
344,63,73933,2,0,P|397:67|434:100,1,88.000002685547,2|0,3:2|0:0,0:0:0:0:
384,235,74270,2,0,P|331:231|294:198,1,88.000002685547,8|0,3:2|0:0,0:0:0:0:
168,63,74607,6,0,P|115:67|78:100,1,88.000002685547,4|0,3:2|0:0,0:0:0:0:
128,235,74944,2,0,P|181:231|218:198,1,88.000002685547,8|0,3:2|0:0,0:0:0:0:
295,124,75282,2,0,L|306:232,1,88.000002685547,2|0,3:2|0:0,0:0:0:0:
181,322,75619,2,0,L|170:214,1,88.000002685547,8|0,3:2|0:0,0:0:0:0:
201,84,75956,5,2,3:2:0:0:
100,197,76124,1,0,0:0:0:0:
241,170,76293,1,8,3:2:0:0:
109,107,76461,1,0,0:0:0:0:
250,266,76630,2,0,P|207:259|172:234,1,88.000002685547,2|0,3:2|0:0,0:0:0:0:
201,84,76967,2,0,L|287:93,1,88.000002685547,8|0,3:2|0:0,0:0:0:0:
323,99,77220,1,8,0:0:0:0:
323,99,77304,5,2,3:2:0:0:
241,170,77473,1,0,0:0:0:0:
389,155,77641,1,8,3:2:0:0:
278,244,77810,1,0,0:0:0:0:
167,128,77978,2,0,P|162:192|177:225,1,88.000002685547,2|0,3:2|0:0,0:0:0:0:
352,284,78315,2,0,P|357:220|342:187,1,88.000002685547,8|0,3:2|0:0,0:0:0:0:
278,244,78652,5,2,3:2:0:0:
314,123,78821,1,0,0:0:0:0:
352,284,78990,1,8,3:2:0:0:
200,316,79158,1,0,0:0:0:0:
200,316,79242,1,8,0:0:0:0:
200,316,79327,2,0,L|134:312,2,44.0000013427735,2|0|0,3:2|0:0|0:0,0:0:0:0:
281,329,79664,1,0,3:2:0:0:
281,329,80001,5,2,3:2:0:0:
249,165,80169,1,8,0:0:0:0:
281,329,80338,1,8,3:2:0:0:
317,93,80675,5,2,3:2:0:0:
311,242,80843,1,8,0:0:0:0:
317,93,81012,1,8,3:2:0:0:
249,165,81181,1,2,0:0:0:0:
423,174,81349,6,0,L|521:180,1,88.000002685547,8|2,3:2|0:0,0:0:0:0:
370,299,81686,2,0,P|297:322|260:306,1,88.000002685547,8|8,3:2|0:0,0:0:0:0:
260,307,81939,1,8,0:0:0:0:
260,307,82023,1,8,3:2:0:0:
303,154,82192,2,0,L|311:245,1,88.000002685547,2|8,0:0|3:2,0:0:0:0:
152,233,82529,1,8,0:0:0:0:
152,233,82866,5,0,0:0:0:0:
147,119,83035,1,8,3:2:0:0:
234,270,83203,1,0,0:0:0:0:
232,89,83372,1,8,3:2:0:0:
363,235,83540,1,0,0:0:0:0:
236,353,83709,1,8,3:2:0:0:
75,206,83877,6,0,P|139:152|217:185,1,176.000005371094,4|2,0:0|0:0,0:0:0:0:
390,265,84383,2,0,P|309:278|280:260,1,88.000002685547,8|2,3:2|0:0,0:0:0:0:
129,65,84888,2,0,L|141:168,1,88.000002685547,8|8,0:0|3:2,0:0:0:0:
343,310,85394,6,0,L|348:210,1,80,2|0,3:2|0:0,0:0:0:0:
348,202,85646,1,0,0:0:0:0:
348,202,85731,2,0,P|301:193|266:202,1,80,2|0,0:0|0:0,0:0:0:0:
128,269,86068,2,0,P|175:278|210:269,1,80,2|0,0:0|0:0,0:0:0:0:
271,201,86405,1,10,0:0:0:0:
185,88,86573,1,0,0:0:0:0:
103,247,86742,6,0,L|109:338,1,80,2|0,3:2|0:0,0:0:0:0:
112,355,86995,1,0,0:0:0:0:
112,355,87079,1,2,0:0:0:0:
206,271,87247,1,0,0:0:0:0:
133,164,87416,2,0,P|78:161|54:171,1,80,2|0,0:0|0:0,0:0:0:0:
206,271,87753,2,0,P|261:274|285:264,1,80,10|0,0:0|0:0,0:0:0:0:
338,148,88090,5,2,3:2:0:0:
444,232,88259,1,0,0:0:0:0:
444,232,88343,1,0,0:0:0:0:
444,232,88427,2,0,L|449:342,1,80,2|0,0:0|0:0,0:0:0:0:
449,340,88680,1,0,0:0:0:0:
449,340,88764,1,2,0:0:0:0:
345,279,88933,1,0,0:0:0:0:
354,160,89101,1,10,0:0:0:0:
462,108,89270,1,0,0:0:0:0:
296,49,89439,6,0,P|252:40|210:58,1,80,2|0,3:2|0:0,0:0:0:0:
197,69,89692,1,0,0:0:0:0:
197,69,89776,1,2,0:0:0:0:
262,167,89945,1,0,0:0:0:0:
120,240,90113,2,0,P|164:249|206:231,1,80,2|0,0:0|0:0,0:0:0:0:
346,128,90450,2,0,L|358:236,1,80,10|0,0:0|0:0,0:0:0:0:
196,341,90787,5,2,3:2:0:0:
196,237,90956,1,2,0:0:0:0:
286,289,91124,1,2,0:0:0:0:
374,131,91461,5,2,3:2:0:0:
374,235,91629,1,2,0:0:0:0:
284,183,91798,1,2,0:0:0:0:
108,286,92136,6,0,L|39:298,2,53.3333333333333,2|2|2,3:2|0:0|0:0,0:0:0:0:
148,279,92473,1,2,0:0:0:0:
229,263,92641,1,2,0:0:0:0:
310,247,92810,1,2,0:0:0:0:
101,195,93147,5,4,0:0:0:0:
