osu file format v14

[General]
AudioFilename: audio.mp3
AudioLeadIn: 0
PreviewTime: 60366
Countdown: 0
SampleSet: Soft
StackLeniency: 0.7
Mode: 0
LetterboxInBreaks: 0
WidescreenStoryboard: 0

[Editor]
DistanceSpacing: 0.6
BeatDivisor: 4
GridSize: 4
TimelineZoom: 1.9

[Metadata]
Title:Koi no Hime Hime Pettanko
TitleUnicode:恋のヒメヒメぺったんこ
Artist:*namirin
ArtistUnicode:*なみりん
Creator:[C u r i]
Version:Extra
Source:弱虫ペダル
Tags:Yowamushi Pedal HabiHolic Kalibe Taeyang
BeatmapID:1034482
BeatmapSetID:485056

[Difficulty]
HPDrainRate:6.5
CircleSize:4
OverallDifficulty:8.5
ApproachRate:9.2
SliderMultiplier:1.78
SliderTickRate:1

[Events]
//Background and Video events
0,0,"cherry_blossoms_kantoku_artist_Wallpaper HD_2560x1440_www.paperhi.com.jpg",0,0
//Break Periods
//Storyboard Layer 0 (Background)
//Storyboard Layer 1 (Fail)
//Storyboard Layer 2 (Pass)
//Storyboard Layer 3 (Foreground)
//Storyboard Sound Samples

[TimingPoints]
1799,337.078651685393,4,2,1,30,1,0
7192,-100,4,2,2,60,0,0
12585,-100,4,2,2,60,0,0
17388,-100,4,2,2,5,0,0
17473,-100,4,2,2,60,0,0
17978,-100,4,2,2,60,0,0
28428,-66.6666666666667,4,2,2,60,0,0
28681,-66.6666666666667,4,2,2,5,0,0
28765,-100,4,2,2,60,0,0
39551,-125,4,2,2,60,0,0
50338,-100,4,2,2,60,0,0
60450,-125,4,2,2,60,0,0
60703,-125,4,2,2,5,0,0
60787,-125,4,2,2,60,0,0
61124,-83.3333333333333,4,2,2,100,0,1
69130,-83.3333333333333,4,2,2,5,0,1
69214,-83.3333333333333,4,2,2,100,0,1
69888,-83.3333333333333,4,2,2,100,0,1
71827,-83.3333333333333,4,2,2,100,0,0
71911,-83.3333333333333,4,2,2,100,0,1
79664,-83.3333333333333,4,2,2,100,0,0
80001,-83.3333333333333,4,2,2,100,0,1
82529,-83.3333333333333,4,2,2,100,0,0
82866,-83.3333333333333,4,2,2,100,0,1
85394,-100,4,2,1,30,0,0
93147,-100,4,2,1,30,0,0
93484,-100,4,2,1,5,0,0

[Colours]
Combo1 : 255,187,255
Combo2 : 255,51,255
Combo3 : 255,128,255
Combo4 : 203,148,148

[HitObjects]
183,118,1799,5,2,0:0:0:0:
156,273,1967,1,0,0:0:0:0:
156,273,2051,1,0,0:0:0:0:
156,273,2136,1,2,0:0:0:0:
101,91,2304,1,0,0:0:0:0:
111,339,2473,2,0,P|158:352|212:329,1,89,2|0,0:0|0:0,0:0:0:0:
302,202,2810,2,0,P|255:189|201:212,1,89,10|0,0:0|0:0,0:0:0:0:
389,326,3147,5,2,0:0:0:0:
363,142,3315,1,0,0:0:0:0:
363,142,3400,1,0,0:0:0:0:
363,142,3484,1,2,0:0:0:0:
311,356,3652,1,0,0:0:0:0:
311,77,3821,2,0,P|357:60|400:74,1,89,2|0,0:0|0:0,0:0:0:0:
217,199,4158,1,10,0:0:0:0:
239,27,4327,1,0,0:0:0:0:
296,238,4495,5,2,0:0:0:0:
112,142,4664,1,0,0:0:0:0:
112,142,4748,1,0,0:0:0:0:
112,142,4832,1,2,0:0:0:0:
255,306,5001,1,0,0:0:0:0:
255,306,5085,1,0,0:0:0:0:
255,306,5169,1,2,0:0:0:0:
191,101,5338,1,0,0:0:0:0:
168,323,5506,1,10,0:0:0:0:
191,101,5675,1,0,0:0:0:0:
86,276,5843,6,0,L|91:376,1,89,2|0,0:0|0:0,0:0:0:0:
195,189,6181,2,0,L|190:89,1,89,10|0,0:0|0:0,0:0:0:0:
294,263,6518,2,0,B|331:272|360:258|360:258|393:244|445:263,1,133.5,2|0,0:0|0:0,0:0:0:0:
467,319,6855,2,0,P|448:277|493:180,1,133.5,2|0,0:1|0:0,0:0:0:0:
498,120,7192,6,0,L|511:13,2,89,4|0|0,0:0|0:0|0:0,0:0:0:0:
472,196,7866,1,0,0:0:0:0:
508,32,8203,2,0,L|498:121,1,89,0|2,0:0|0:0,0:0:0:0:
373,238,8540,6,0,P|278:231|176:226,1,178,4|0,0:0|0:0,0:0:0:0:
54,156,9046,2,0,P|142:151|231:144,1,178,0|0,0:0|0:0,0:0:0:0:
297,61,9551,1,8,0:0:0:0:
278,231,9720,1,2,0:0:0:0:
183,73,9888,6,0,P|134:78|84:81,2,89,4|0|0,0:0|0:0|0:0,0:0:0:0:
297,61,10563,1,0,0:0:0:0:
94,80,10900,2,0,P|138:77|183:73,1,89,0|2,0:0|0:0,0:0:0:0:
490,157,11237,6,0,P|401:152|312:145,1,178,4|0,0:0|0:0,0:0:0:0:
100,242,11742,2,0,P|188:235|277:230,1,178,0|8,0:0|0:0,0:0:0:0:
375,80,12248,1,2,0:0:0:0:
375,80,12332,1,2,0:0:0:0:
375,80,12416,1,2,0:0:0:0:
375,80,12501,1,2,0:0:0:0:
375,80,12585,6,0,P|380:150|374:194,1,89,4|0,0:0|0:0,0:0:0:0:
200,280,12922,2,0,P|195:210|201:166,1,89,8|0,0:0|0:0,0:0:0:0:
266,66,13259,1,2,0:0:0:0:
284,277,13428,1,0,0:0:0:0:
266,66,13596,1,8,0:0:0:0:
108,196,13765,1,0,0:0:0:0:
108,196,13849,1,0,0:0:0:0:
108,196,13933,6,0,P|182:190|227:197,1,89,4|0,0:0|0:0,0:0:0:0:
307,291,14270,1,8,0:0:0:0:
242,115,14439,1,0,0:0:0:0:
125,318,14607,2,0,P|169:319|213:313,1,89
393,260,14945,1,8,0:0:0:0:
404,228,15029,1,0,0:0:0:0:
407,195,15113,1,0,0:0:0:0:
402,162,15197,1,0,0:0:0:0:
388,132,15282,6,0,P|385:83|394:42,1,89,4|0,0:0|0:0,0:0:0:0:
267,235,15619,2,0,P|270:185|261:144,1,89,8|0,0:0|0:0,0:0:0:0:
208,83,15872,1,0,0:0:0:0:
208,83,15956,2,0,P|166:78|153:79,1,44.5,2|0,0:0|0:0,0:0:0:0:
344,127,16124,2,0,P|386:132|399:131,1,44.5,0|0,0:0|0:0,0:0:0:0:
184,197,16293,1,8,0:0:0:0:
294,32,16461,1,0,0:0:0:0:
351,261,16630,6,0,P|307:309|194:280,1,178,4|0,0:0|0:0,0:0:0:0:
177,117,17136,2,0,P|234:83|315:99,1,133.5,0|0,0:0|0:0,0:0:0:0:
364,166,17473,5,2,0:0:0:0:
134,214,17641,1,8,0:0:0:0:
134,214,17978,6,0,P|110:264|120:326,1,89,4|0,0:0|0:0,0:0:0:0:
79,153,18315,1,8,0:0:0:0:
119,330,18484,1,0,0:0:0:0:
24,226,18652,1,2,0:0:0:0:
137,358,18821,1,0,0:0:0:0:
167,134,18990,1,8,0:0:0:0:
167,134,19327,6,0,B|208:117|254:140|254:140|297:164|358:132,1,178,2|2,0:0|0:0,0:0:0:0:
390,63,19832,2,0,P|340:162|377:228,1,178,8|2,0:0|0:0,0:0:0:0:
443,282,20338,1,8,0:0:0:0:
443,282,20675,5,2,0:0:0:0:
440,152,20843,1,0,0:0:0:0:
369,331,21013,1,8,0:0:0:0:
336,146,21181,1,0,0:0:0:0:
273,353,21349,1,0,0:0:0:0:
384,220,21518,1,2,0:0:0:0:
181,260,21686,2,0,P|102:268|46:269,1,133.5,8|0,0:0|0:0,0:0:0:0:
17,192,22023,6,0,P|97:190|205:177,1,178,2|8,0:0|0:0,0:0:0:0:
358,273,22529,2,0,P|269:262|180:259,1,178,8|2,0:0|0:0,0:0:0:0:
252,353,23034,1,8,0:0:0:0:
283,173,23203,1,0,0:0:0:0:
116,214,23372,6,0,P|103:273|124:315,1,89,2|0,0:0|0:0,0:0:0:0:
252,353,23709,1,8,0:0:0:0:
196,161,23877,1,0,0:0:0:0:
169,374,24046,1,0,0:0:0:0:
194,187,24214,1,2,0:0:0:0:
334,324,24383,2,0,B|373:323|400:306|400:306|428:319|477:313,1,133.5,8|0,0:0|0:0,0:0:0:0:
440,232,24720,5,2,0:0:0:0:
318,57,25057,1,8,0:0:0:0:
342,237,25226,1,10,0:0:0:0:
313,32,25563,1,2,0:0:0:0:
346,262,25731,1,8,0:0:0:0:
311,11,25900,6,0,P|263:91|186:58,1,178,4|2,0:0|0:0,0:0:0:0:
21,145,26405,2,0,P|63:137|108:184,1,89,2|2,0:0|0:0,0:0:0:0:
124,317,26742,1,8,0:0:0:0:
96,130,26911,1,2,0:0:0:0:
41,343,27079,1,8,0:0:0:0:
240,302,27248,6,0,P|321:255|419:281,1,178,4|2,0:0|0:0,0:0:0:0:
222,131,27754,2,0,P|210:175|216:221,1,89,2|2,0:0|0:0,0:0:0:0:
339,367,28091,1,8,0:0:0:0:
304,184,28259,1,8,3:2:0:0:
304,184,28343,1,8,3:2:0:0:
304,184,28428,6,0,P|371:193|296:229,1,200.250007638932,8|0,3:2|3:2,0:0:0:0:
214,217,28765,5,4,0:0:0:0:
214,217,29102,2,0,P|209:173|221:131,1,89,2|0,0:0|0:0,0:0:0:0:
455,176,29439,2,0,P|460:220|448:262,1,89,0|2,0:0|0:0,0:0:0:0:
288,306,29776,2,0,P|211:298|133:308,1,133.5,8|0,0:0|0:0,0:0:0:0:
77,350,30113,5,2,0:0:0:0:
137,138,30450,1,2,0:0:0:0:
155,303,30619,1,8,0:0:0:0:
133,108,30956,1,2,0:0:0:0:
156,332,31124,1,8,0:0:0:0:
131,79,31461,6,0,P|180:65|225:75,1,89,2|0,0:0|0:0,0:0:0:0:
370,209,31798,2,0,P|321:223|276:213,1,89,8|0,0:0|0:0,0:0:0:0:
461,67,32136,1,0,0:0:0:0:
316,147,32304,1,2,0:0:0:0:
460,238,32473,1,8,0:0:0:0:
363,66,32641,1,0,0:0:0:0:
278,247,32810,5,2,3:2:0:0:
276,258,32894,1,0,3:2:0:0:
275,269,32978,1,0,3:2:0:0:
274,280,33062,1,0,3:2:0:0:
273,291,33147,1,8,3:2:0:0:
110,352,33315,2,0,L|99:167,1,178,2|2,0:0|0:0,0:0:0:0:
213,63,33821,1,8,3:2:0:0:
180,258,33990,1,0,0:0:0:0:
50,114,34158,6,0,P|101:99|153:119,1,89,2|0,0:0|0:0,0:0:0:0:
264,251,34495,2,0,P|213:266|161:246,1,89,8|0,0:0|0:0,0:0:0:0:
132,62,34832,2,0,L|140:167,1,89,0|2,0:0|0:0,0:0:0:0:
153,333,35169,1,8,0:0:0:0:
52,193,35338,1,0,0:0:0:0:
225,114,35506,6,0,L|403:101,1,178,2|8,0:0|0:0,0:0:0:0:
180,188,36012,2,0,P|139:121|204:26,1,178,2|0,0:0|0:0,0:0:0:0:
389,190,36518,2,0,L|277:199,1,89,8|2,0:0|0:0,0:0:0:0:
124,276,36855,5,2,0:0:0:0:
292,355,37023,1,2,0:0:0:0:
211,184,37192,2,0,P|203:86|245:43,1,133.5,8|0,0:0|0:0,0:0:0:0:
306,43,37529,5,0,0:0:0:0:
108,70,37697,1,2,0:0:0:0:
279,127,37866,1,8,0:0:0:0:
43,187,38034,5,2,0:0:0:0:
43,187,38372,1,2,0:0:0:0:
200,86,38540,1,2,0:0:0:0:
211,287,38709,1,2,0:0:0:0:
47,102,38877,5,8,3:2:0:0:
88,116,38961,1,0,3:2:0:0:
118,148,39045,1,0,3:2:0:0:
127,191,39129,1,0,3:2:0:0:
115,233,39214,5,8,3:2:0:0:
107,254,39298,1,0,3:2:0:0:
103,276,39382,1,0,3:2:0:0:
103,298,39466,1,0,3:2:0:0:
109,320,39551,6,0,P|191:331|210:275,1,142.4,4|0,3:2|0:0,0:0:0:0:
256,208,40057,1,0,0:0:0:0:
403,320,40225,2,0,P|321:331|302:275,1,142.4,2|8,0:0|0:0,0:0:0:0:
256,208,40731,1,2,0:0:0:0:
440,159,40900,6,0,L|430:249,1,71.2,0|2,0:0|0:0,0:0:0:0:
189,155,41237,2,0,L|189:84,1,71.2,0|2,0:0|0:0,0:0:0:0:
323,84,41574,2,0,L|323:155,1,71.2,2|0,0:0|0:0,0:0:0:0:
79,229,41911,2,0,L|72:159,1,71.2,8|0,0:0|0:0,0:0:0:0:
155,300,42248,5,2,0:0:0:0:
356,300,42416,1,0,0:0:0:0:
255,334,42585,1,0,0:0:0:0:
256,183,42754,1,2,0:0:0:0:
134,321,42922,6,0,P|133:259|125:159,1,142.4,2|8,0:0|0:0,0:0:0:0:
96,58,43428,1,2,0:0:0:0:
376,141,43596,2,0,P|370:211|370:243,1,71.2,0|2,0:0|0:0,0:0:0:0:
385,318,43933,1,0,0:0:0:0:
256,183,44102,1,2,0:0:0:0:
342,66,44270,6,0,P|387:60|430:76,1,71.2,2|8,0:0|0:0,0:0:0:0:
127,178,44607,2,0,P|82:184|39:168,1,71.2,8|2,0:0|0:0,0:0:0:0:
14,108,44860,1,0,0:0:0:0:
14,108,44945,6,0,B|28:142|14:182|14:182|5:209|23:262,1,142.4,4|0,0:0|0:0,0:0:0:0:
114,342,45450,1,2,0:0:0:0:
221,240,45619,2,0,P|256:234|304:245,1,71.2,2|0,0:0|0:0,0:0:0:0:
441,338,45956,2,0,P|406:343|371:337,1,71.2,8|2,0:0|0:0,0:0:0:0:
256,215,46293,5,0,0:0:0:0:
256,215,46461,2,0,L|256:135,1,71.2,2|0,0:0|0:0,0:0:0:0:
256,35,46798,1,2,0:0:0:0:
190,290,46967,2,0,P|248:316|332:282,1,142.4,2|8,0:0|0:0,0:0:0:0:
361,201,47473,1,2,0:0:0:0:
180,357,47641,6,0,P|187:293|184:190,1,142.4,4|8,0:0|0:0,0:0:0:0:
116,89,48147,1,2,0:0:0:0:
116,89,48231,1,8,0:0:0:0:
116,89,48315,1,8,0:0:0:0:
103,263,48484,2,0,P|100:293|103:329,1,35.6,2|8,0:0|0:0,0:0:0:0:
180,357,48652,1,8,0:0:0:0:
177,178,48821,6,0,P|204:155|318:172,1,142.4,4|2,0:0|0:0,0:0:0:0:
365,306,49327,1,8,0:0:0:0:
368,112,49495,1,2,0:0:0:0:
283,285,49664,1,8,0:0:0:0:
282,63,49832,1,2,0:0:0:0:
282,63,49916,1,2,0:0:0:0:
282,63,50001,1,4,0:0:0:0:
282,262,50169,1,2,0:0:0:0:
368,112,50338,5,4,0:0:0:0:
208,210,50506,1,0,0:0:0:0:
390,141,50675,1,8,0:0:0:0:
189,177,50843,1,0,0:0:0:0:
434,246,51012,1,8,0:0:0:0:
271,98,51181,1,2,0:0:0:0:
232,313,51349,1,8,0:0:0:0:
232,313,51686,5,4,0:0:0:0:
271,98,51855,1,0,0:0:0:0:
434,246,52023,1,8,0:0:0:0:
204,233,52192,2,0,B|156:233|156:233|83:259|83:259|14:260,1,178,6|2,0:0|0:0,0:0:0:0:
232,313,52697,2,0,P|273:284|288:241,1,89,8|8,0:0|0:0,0:0:0:0:
264,170,52950,1,8,0:0:0:0:
264,170,53034,5,2,0:0:0:0:
67,132,53203,1,0,0:0:0:0:
296,152,53372,1,8,0:0:0:0:
94,205,53540,1,0,0:0:0:0:
325,141,53709,1,8,0:0:0:0:
266,357,53877,1,2,0:0:0:0:
214,101,54046,1,8,0:0:0:0:
214,101,54383,5,4,0:0:0:0:
266,357,54551,1,2,0:0:0:0:
325,141,54720,1,8,0:0:0:0:
85,115,54888,2,0,P|97:208|102:307,1,178,6|2,0:0|0:0,0:0:0:0:
173,378,55394,1,8,0:0:0:0:
180,125,55563,6,0,P|211:98|328:150,1,178,4|2,0:0|0:0,0:0:0:0:
341,327,56068,1,8,0:0:0:0:
341,327,56405,1,2,0:0:0:0:
487,195,56574,1,2,0:0:0:0:
250,171,56742,1,8,0:0:0:0:
459,273,56911,6,0,P|483:169|428:96,1,178,4|2,0:0|0:0,0:0:0:0:
180,125,57416,2,0,P|168:179|179:220,1,89,8|2,0:0|0:0,0:0:0:0:
302,327,57754,1,8,0:0:0:0:
268,80,57922,1,2,0:0:0:0:
302,327,58091,1,8,0:0:0:0:
449,111,58259,1,6,0:0:0:0:
449,111,58596,5,2,0:0:0:0:
296,166,58764,1,8,0:0:0:0:
471,100,58933,5,2,0:0:0:0:
268,80,59102,1,8,0:0:0:0:
326,251,59270,5,2,0:0:0:0:
326,251,59355,1,8,0:0:0:0:
326,251,59439,1,8,0:0:0:0:
353,23,59607,5,4,0:0:0:0:
319,278,59945,5,4,0:0:0:0:
353,23,60113,1,4,0:0:0:0:
353,23,60450,6,0,L|243:35,1,106.8,0|0,0:0|0:0,0:0:0:0:
232,51,60787,2,0,L|144:47,1,71.2,0|0,0:0|0:0,0:0:0:0:
18,167,61124,6,0,L|128:159,1,106.799996740723,4|2,3:2|0:0,0:0:0:0:
364,231,61461,2,0,L|254:239,1,106.799996740723,8|0,3:2|0:0,0:0:0:0:
70,250,61798,1,2,3:2:0:0:
159,75,61967,1,0,0:0:0:0:
183,306,62136,1,8,3:2:0:0:
71,115,62304,1,0,0:0:0:0:
334,64,62473,5,2,3:2:0:0:
332,276,62641,1,0,0:0:0:0:
194,182,62810,1,8,3:2:0:0:
401,124,62978,1,0,0:0:0:0:
173,182,63147,1,2,3:2:0:0:
428,206,63315,1,0,0:0:0:0:
210,302,63484,1,8,3:2:0:0:
245,63,63652,1,0,0:0:0:0:
314,302,63821,6,0,P|373:315|426:298,1,106.799996740723,4|0,3:2|0:0,0:0:0:0:
198,139,64158,2,0,P|139:126|86:143,1,106.799996740723,8|0,3:2|0:0,0:0:0:0:
364,233,64495,2,0,L|365:119,1,106.799996740723,2|0,3:2|0:0,0:0:0:0:
146,211,64832,2,0,L|145:325,1,106.799996740723,8|0,3:2|0:0,0:0:0:0:
262,143,65169,5,2,3:2:0:0:
231,335,65338,1,0,0:0:0:0:
240,118,65506,1,8,3:2:0:0:
314,330,65675,1,0,0:0:0:0:
286,54,65843,2,0,P|229:42|174:72,1,106.799996740723,2|0,3:2|0:0,0:0:0:0:
451,239,66181,2,0,P|394:251|339:221,1,106.799996740723,8|0,3:2|0:0,0:0:0:0:
288,170,66433,1,8,0:0:0:0:
288,170,66518,5,2,3:2:0:0:
314,330,66686,1,0,0:0:0:0:
382,152,66855,1,8,3:2:0:0:
245,258,67023,1,0,0:0:0:0:
286,54,67192,1,2,3:2:0:0:
353,234,67360,1,0,0:0:0:0:
146,222,67529,1,8,3:2:0:0:
356,157,67697,1,0,0:0:0:0:
356,157,67866,6,0,L|465:151,1,106.799996740723,2|0,3:2|0:0,0:0:0:0:
237,300,68203,2,0,L|128:306,1,106.799996740723,8|0,3:2|0:0,0:0:0:0:
262,178,68540,1,2,3:2:0:0:
310,365,68709,1,0,0:0:0:0:
70,372,68877,2,0,P|43:317|98:222,1,160.199995111084,8|0,3:2|0:0,0:0:0:0:
151,173,69214,6,0,P|156:122|129:46,1,106.799996740723,2|0,3:2|0:0,0:0:0:0:
197,257,69551,1,8,3:2:0:0:
238,86,69720,1,0,0:0:0:0:
197,257,69888,1,2,3:2:0:0:
419,175,70057,1,0,0:0:0:0:
224,168,70225,1,8,3:2:0:0:
466,106,70394,6,0,P|497:203|384:251,1,213.599993481446,4|0,0:0|0:0,0:0:0:0:
224,168,70900,2,0,P|286:166|342:214,1,106.799996740723,8|0,3:2|0:0,0:0:0:0:
389,255,71152,1,0,0:0:0:0:
389,255,71237,1,2,3:2:0:0:
159,325,71405,1,8,0:0:0:0:
411,288,71574,1,8,3:2:0:0:
138,298,71742,1,0,0:0:0:0:
396,361,71911,6,0,L|387:241,1,106.799996740723,4|0,3:2|0:0,0:0:0:0:
220,118,72248,2,0,L|229:238,1,106.799996740723,8|0,3:2|0:0,0:0:0:0:
414,320,72585,2,0,L|405:200,1,106.799996740723,2|0,3:2|0:0,0:0:0:0:
238,77,72922,2,0,L|247:197,1,106.799996740723,8|0,3:2|0:0,0:0:0:0:
437,285,73259,5,2,3:2:0:0:
370,88,73428,1,0,0:0:0:0:
323,335,73596,1,8,3:2:0:0:
366,110,73765,1,0,0:0:0:0:
203,269,73933,1,2,3:2:0:0:
433,202,74102,1,0,0:0:0:0:
148,187,74270,1,8,3:2:0:0:
378,58,74439,1,0,0:0:0:0:
381,311,74607,6,0,P|316:334|254:307,1,106.799996740723,4|0,3:2|0:0,0:0:0:0:
124,162,74945,2,0,P|171:139|224:147,1,106.799996740723,8|0,3:2|0:0,0:0:0:0:
422,320,75282,2,0,P|357:343|295:316,1,106.799996740723,2|0,3:2|0:0,0:0:0:0:
165,171,75620,2,0,P|212:148|265:156,1,106.799996740723,8|0,3:2|0:0,0:0:0:0:
463,325,75956,5,2,3:2:0:0:
213,309,76124,1,0,0:0:0:0:
460,238,76293,1,8,3:2:0:0:
254,238,76461,1,0,0:0:0:0:
486,156,76630,2,0,P|492:96|472:48,1,106.799996740723,2|0,3:2|0:0,0:0:0:0:
396,302,76967,2,0,P|345:319|293:312,1,106.799996740723,8|0,3:2|0:0,0:0:0:0:
254,238,77220,1,8,0:0:0:0:
254,238,77304,5,2,3:2:0:0:
357,87,77473,1,0,0:0:0:0:
346,320,77641,1,8,3:2:0:0:
159,200,77810,1,0,0:0:0:0:
408,226,77979,1,2,3:2:0:0:
167,281,78148,1,0,0:0:0:0:
237,54,78316,1,8,3:2:0:0:
243,316,78484,1,0,0:0:0:0:
366,139,78652,6,0,P|420:129|474:154,1,106.799996740723,2|0,3:2|0:0,0:0:0:0:
167,281,78990,2,0,P|221:291|275:266,1,106.799996740723,8|0,3:2|0:0,0:0:0:0:
320,218,79242,1,8,0:0:0:0:
320,218,79327,2,0,P|337:216|376:223,1,53.3999983703614,2|0,3:2|0:0,0:0:0:0:
415,291,79495,2,0,P|432:293|471:286,1,53.3999983703614,0|0,0:0|0:0,0:0:0:0:
512,219,79664,1,0,3:2:0:0:
234,40,80001,5,2,3:2:0:0:
222,311,80169,1,8,0:0:0:0:
234,40,80338,1,8,3:2:0:0:
111,311,80675,5,2,3:2:0:0:
400,257,80843,1,8,0:0:0:0:
111,311,81012,1,8,3:2:0:0:
306,225,81181,1,2,0:0:0:0:
124,71,81349,5,8,3:2:0:0:
111,339,81518,1,2,0:0:0:0:
201,125,81686,1,8,3:2:0:0:
206,309,81855,1,8,0:0:0:0:
206,309,81939,1,8,0:0:0:0:
206,309,82023,1,8,3:2:0:0:
291,75,82192,1,2,0:0:0:0:
401,313,82360,1,8,3:2:0:0:
55,206,82529,1,8,0:0:0:0:
420,198,82866,5,0,0:0:0:0:
199,245,83034,1,8,3:2:0:0:
420,198,83203,1,0,0:0:0:0:
174,165,83372,1,8,3:2:0:0:
446,277,83540,1,0,0:0:0:0:
166,327,83709,1,8,3:2:0:0:
479,269,83877,6,0,P|511:187|426:103,1,213.599993481446,4|2,0:0|0:0,0:0:0:0:
210,98,84383,1,8,3:2:0:0:
420,198,84551,1,2,0:0:0:0:
420,198,84636,1,0,0:0:0:0:
420,198,84720,1,0,0:0:0:0:
197,65,84888,1,8,0:0:0:0:
256,346,85057,1,8,3:2:0:0:
298,124,85394,5,2,3:2:0:0:
191,284,85563,1,0,0:0:0:0:
191,284,85647,1,0,0:0:0:0:
191,284,85731,1,2,0:0:0:0:
222,89,85900,1,0,0:0:0:0:
268,316,86068,2,0,L|374:311,1,89,2|0,0:0|0:0,0:0:0:0:
231,177,86405,2,0,L|125:182,1,89,10|0,0:0|0:0,0:0:0:0:
306,66,86742,5,2,3:2:0:0:
307,235,86911,1,0,0:0:0:0:
307,235,86995,1,0,0:0:0:0:
307,235,87079,1,2,0:0:0:0:
142,181,87248,1,0,0:0:0:0:
277,52,87416,2,0,L|281:157,1,89,2|0,0:0|0:0,0:0:0:0:
208,293,87754,1,10,0:0:0:0:
186,107,87922,1,0,0:0:0:0:
329,259,88091,6,0,P|380:266|440:245,1,89,2|0,3:2|0:0,0:0:0:0:
453,234,88343,1,0,0:0:0:0:
453,234,88428,1,2,0:0:0:0:
363,92,88596,1,0,0:0:0:0:
363,92,88681,1,0,0:0:0:0:
363,92,88765,1,2,0:0:0:0:
368,266,88933,1,0,0:0:0:0:
447,69,89102,1,10,0:0:0:0:
454,273,89270,1,0,0:0:0:0:
283,194,89439,6,0,P|226:190|175:217,1,89,2|0,3:2|0:0,0:0:0:0:
166,233,89692,1,0,0:0:0:0:
166,233,89776,2,0,P|170:176|143:125,1,89,2|0,0:0|0:0,0:0:0:0:
128,311,90113,2,0,P|185:315|236:288,1,89,2|0,0:0|0:0,0:0:0:0:
283,194,90450,1,10,0:0:0:0:
76,247,90619,1,0,0:0:0:0:
285,361,90787,5,2,3:2:0:0:
196,217,90956,1,2,0:0:0:0:
285,361,91124,1,2,0:0:0:0:
319,115,91461,5,2,3:2:0:0:
301,281,91629,1,2,0:0:0:0:
319,115,91798,1,2,0:0:0:0:
172,195,92136,6,0,L|88:204,1,59.3333333333333,2|2,3:2|0:0,0:0:0:0:
123,290,92360,2,0,L|207:281,1,59.3333333333333,2|2,0:0|0:0,0:0:0:0:
301,281,92641,1,2,0:0:0:0:
319,115,92810,1,2,0:0:0:0:
172,195,93147,6,0,B|132:194|95:212|95:212|80:199|80:199|40:224|-11:216,1,178,4|0,0:0|0:0,0:0:0:0:
