osu file format v14

[General]
AudioFilename: audio.mp3
AudioLeadIn: 0
PreviewTime: 60366
Countdown: 0
SampleSet: Soft
StackLeniency: 0.7
Mode: 0
LetterboxInBreaks: 0
WidescreenStoryboard: 0

[Editor]
DistanceSpacing: 1
BeatDivisor: 4
GridSize: 4
TimelineZoom: 1.6

[Metadata]
Title:Koi no Hime Hime Pettanko
TitleUnicode:恋のヒメヒメぺったんこ
Artist:*namirin
ArtistUnicode:*なみりん
Creator:[C u r i]
Version:Habi's Normal
Source:弱虫ペダル
Tags:Yowamushi Pedal HabiHolic Kalibe Taeyang
BeatmapID:1035192
BeatmapSetID:485056

[Difficulty]
HPDrainRate:3.5
CircleSize:3
OverallDifficulty:3.5
ApproachRate:5
SliderMultiplier:1.2
SliderTickRate:1

[Events]
//Background and Video events
0,0,"cherry_blossoms_kantoku_artist_Wallpaper HD_2560x1440_www.paperhi.com.jpg",0,0
//Break Periods
//Storyboard Layer 0 (Background)
//Storyboard Layer 1 (Fail)
//Storyboard Layer 2 (Pass)
//Storyboard Layer 3 (Foreground)
//Storyboard Sound Samples

[TimingPoints]
1799,337.078651685393,4,2,1,30,1,0
7192,-100,4,2,2,60,0,0
12585,-100,4,2,2,60,0,0
17388,-100,4,2,2,5,0,0
17473,-100,4,2,2,60,0,0
17978,-100,4,2,2,60,0,0
28428,-100,4,2,2,60,0,0
28765,-100,4,2,2,60,0,0
39551,-100,4,2,2,60,0,0
50338,-100,4,2,2,60,0,0
60450,-100,4,2,2,60,0,0
60787,-100,4,2,2,60,0,0
61124,-100,4,2,2,100,0,1
69214,-100,4,2,2,100,0,1
69888,-100,4,2,2,100,0,1
71827,-100,4,2,2,100,0,0
71911,-100,4,2,2,100,0,1
79664,-100,4,2,2,100,0,0
80001,-100,4,2,2,100,0,1
82529,-100,4,2,2,100,0,0
82866,-100,4,2,2,100,0,1
85394,-100,4,2,1,30,0,0
93147,-100,4,2,1,30,0,0

[Colours]
Combo1 : 255,187,255
Combo2 : 255,51,255
Combo3 : 255,128,255
Combo4 : 203,148,148

[HitObjects]
112,356,1799,6,0,L|96:232,1,120,2|2,0:0|0:0,0:0:0:0:
124,184,2304,1,0,0:0:0:0:
124,184,2473,2,0,L|56:176,2,60,2|0|10,0:0|0:0|0:0,0:0:0:0:
224,252,3147,6,0,P|284:264|344:232,1,120,2|2,0:0|0:0,0:0:0:0:
376,200,3652,1,0,0:0:0:0:
376,200,3821,2,0,L|392:264,2,60,2|0|10,0:0|0:0|0:0,0:0:0:0:
403,83,4495,6,0,P|345:79|294:109,1,120,2|2,0:0|0:0,0:0:0:0:
248,148,5001,1,0,0:0:0:0:
248,148,5169,2,0,L|236:20,2,120,2|10|2,0:0|0:0|0:0,0:0:0:0:
200,260,6181,6,0,L|140:252,1,60,10|0,0:0|0:0,0:0:0:0:
98,208,6518,2,0,P|105:267|91:325,2,120,2|2|4,0:0|0:1|0:0,0:0:0:0:
58,94,7529,5,0,0:0:0:0:
154,22,7866,2,0,L|274:38,1,120
333,21,8372,1,2,0:0:0:0:
333,21,8540,2,0,P|321:81|341:141,1,120,4|0,0:0|0:0,0:0:0:0:
363,190,9046,2,0,L|239:182,1,120,0|0,0:0|0:0,0:0:0:0:
200,224,9551,1,8,0:0:0:0:
100,156,9888,6,0,L|92:96,2,60,4|0|0,0:0|0:0|0:0,0:0:0:0:
4,228,10563,2,0,P|-4:288|20:344,1,120,0|0,0:0|0:0,0:0:0:0:
72,364,11068,1,2,0:0:0:0:
72,364,11237,2,0,L|192:356,1,120,4|0,0:0|0:0,0:0:0:0:
234,313,11742,2,0,P|292:305|347:328,1,120,0|8,0:0|0:0,0:0:0:0:
396,364,12248,1,2,0:0:0:0:
480,280,12585,6,0,B|496:220|496:220|480:160,1,120,4|8,0:0|0:0,0:0:0:0:
454,109,13091,1,0,0:0:0:0:
454,109,13259,2,0,P|396:116|341:94,1,120,2|8,0:0|0:0,0:0:0:0:
287,64,13765,1,0,0:0:0:0:
287,64,13933,2,0,L|299:196,1,120,4|8,0:0|0:0,0:0:0:0:
325,236,14439,2,0,P|241:212|171:263,1,180,0|8,0:0|0:0,0:0:0:0:
65,320,15282,6,0,P|49:260|65:204,1,120,4|8,0:0|0:0,0:0:0:0:
113,172,15787,1,0,0:0:0:0:
113,172,15956,2,0,L|237:184,1,120,2|8,0:0|0:0,0:0:0:0:
292,187,16461,1,0,0:0:0:0:
292,187,16630,1,4,0:0:0:0:
398,137,16967,2,0,L|408:196,1,60,0|0,0:0|0:0,0:0:0:0:
391,253,17304,2,0,L|401:312,2,60,0|2|8,0:0|0:0|0:0,0:0:0:0:
292,187,17978,6,0,P|232:175|180:207,1,120,4|8,0:0|0:0,0:0:0:0:
149,252,18484,1,0,0:0:0:0:
149,252,18652,2,0,L|81:248,2,60,2|0|8,0:0|0:0|0:0,0:0:0:0:
200,360,19327,2,0,P|260:368|312:344,1,120,2|2,0:0|0:0,0:0:0:0:
352,300,19832,2,0,L|340:176,1,120,8|2,0:0|0:0,0:0:0:0:
376,132,20338,1,8,0:0:0:0:
284,56,20675,6,0,P|224:44|172:72,1,120,2|8,0:0|0:0,0:0:0:0:
132,112,21181,1,0,0:0:0:0:
132,112,21349,2,0,L|68:104,2,60,0|2|8,0:0|0:0|0:0,0:0:0:0:
208,204,22023,2,0,L|336:192,1,120,2|8,0:0|0:0,0:0:0:0:
363,144,22529,2,0,P|352:202|371:258,1,120,8|2,0:0|0:0,0:0:0:0:
416,296,23034,1,8,0:0:0:0:
464,184,23372,6,0,P|475:125|456:69,1,120,2|8,0:0|0:0,0:0:0:0:
408,32,23877,1,0,0:0:0:0:
408,32,24046,2,0,L|348:44,1,60,0|2,0:0|0:0,0:0:0:0:
290,58,24383,1,8,0:0:0:0:
179,76,24720,2,0,P|122:92|65:76,1,120,2|8,0:0|0:0,0:0:0:0:
24,32,25225,2,0,L|36:156,1,120,10|2,0:0|0:0,0:0:0:0:
20,208,25731,1,8,0:0:0:0:
20,208,25900,6,0,P|74:188|125:216,1,120,4|2,0:0|0:0,0:0:0:0:
169,256,26405,2,0,P|219:284|274:263,1,120,2|8,0:0|0:0,0:0:0:0:
320,224,26911,2,0,L|328:160,1,60,2|8,0:0|0:0,0:0:0:0:
300,112,27248,2,0,P|360:128|420:100,1,120,4|2,0:0|0:0,0:0:0:0:
444,56,27754,2,0,L|460:184,1,120,2|8,0:0|0:0,0:0:0:0:
440,232,28259,2,0,L|380:228,1,60,8|8,3:2|3:2,0:0:0:0:
276,164,28765,6,0,P|260:224|276:284,1,120,4|2,0:0|0:0,0:0:0:0:
312,324,29270,1,0,0:0:0:0:
312,324,29439,2,0,L|384:320,2,60,0|2|8,0:0|0:0|0:0,0:0:0:0:
196,357,30113,2,0,P|134:376|72:358,1,120,2|2,0:0|0:0,0:0:0:0:
27,338,30619,2,0,L|11:214,1,120,8|2,0:0|0:0,0:0:0:0:
51,175,31124,1,8,0:0:0:0:
148,248,31461,6,0,P|208:268|264:244,1,120,2|8,0:0|0:0,0:0:0:0:
304,208,31967,1,0,0:0:0:0:
304,208,32136,2,0,L|296:140,1,60,0|2,0:0|0:0,0:0:0:0:
240,132,32473,2,0,L|248:64,1,60,8|0,0:0|0:0,0:0:0:0:
220,20,32810,2,0,P|274:44|333:40,1,120,2|8,3:2|3:2,0:0:0:0:
384,8,33315,2,0,L|364:128,1,120,2|2,0:0|0:0,0:0:0:0:
392,180,33821,1,8,3:2:0:0:
309,266,34158,6,0,P|253:282|193:262,1,120,2|8,0:0|0:0,0:0:0:0:
147,227,34664,1,0,0:0:0:0:
147,227,34832,2,0,L|139:291,2,60,0|2|8,0:0|0:0|0:0,0:0:0:0:
261,181,35506,2,0,P|272:123|262:64,1,120,2|8,0:0|0:0,0:0:0:0:
216,24,36012,2,0,L|344:36,1,120,2|0,0:0|0:0,0:0:0:0:
372,84,36518,2,0,L|432:76,1,60,8|2,0:0|0:0,0:0:0:0:
477,36,36855,6,0,P|469:96|485:156,1,120,2|8,0:0|0:0,0:0:0:0:
444,268,37529,2,0,L|508:276,2,60,0|2|8,0:0|0:0|0:0,0:0:0:0:
398,229,38034,2,0,P|338:217|278:249,1,120,2|2,0:0|0:0,0:0:0:0:
244,284,38540,2,0,L|256:348,2,60,2|2|8,0:0|0:0|3:2,0:0:0:0:
160,200,39214,1,8,3:2:0:0:
236,108,39551,6,0,L|356:120,1,120,4|0,3:2|0:0,0:0:0:0:
400,160,40057,1,0,0:0:0:0:
400,160,40225,2,0,P|392:100|400:40,2,120,2|8|0,0:0|0:0|0:0,0:0:0:0:
480,248,41237,1,0,0:0:0:0:
384,316,41574,2,0,L|264:308,1,120,2|8,0:0|0:0,0:0:0:0:
162,244,42248,6,0,L|94:252,2,60,2|0|0,0:0|0:0|0:0,0:0:0:0:
218,222,42754,2,0,P|233:165|219:108,1,120,2|0,0:0|0:0,0:0:0:0:
182,60,43259,1,8,0:0:0:0:
296,28,43596,2,0,L|360:36,1,60,0|2,0:0|0:0,0:0:0:0:
416,44,43933,1,0,0:0:0:0:
416,44,44102,2,0,P|432:104|416:160,1,120,2|8,0:0|0:0,0:0:0:0:
368,196,44607,2,0,L|300:188,1,60,8|2,0:0|0:0,0:0:0:0:
253,162,44945,6,0,P|265:222|249:282,2,120,4|0|2,0:0|0:0|0:0,0:0:0:0:
176,72,45956,2,0,L|116:80,1,60,8|2,0:0|0:0,0:0:0:0:
70,41,46293,2,0,P|82:101|62:165,1,120
24,200,46798,1,2,0:0:0:0:
24,200,46967,2,0,L|148:200,1,120,2|8,0:0|0:0,0:0:0:0:
248,144,47641,6,0,P|260:208|244:264,1,120,4|8,0:0|0:0,0:0:0:0:
208,304,48147,1,2,0:0:0:0:
208,304,48315,2,0,L|136:296,2,60,8|2|8,0:0|0:0|0:0,0:0:0:0:
245,351,48821,2,0,P|303:359|358:336,1,120,4|2,0:0|0:0,0:0:0:0:
400,292,49327,2,0,L|388:164,1,120,8|8,0:0|0:0,0:0:0:0:
309,82,50001,2,0,L|249:98,1,60,4|2,0:0|0:0,0:0:0:0:
192,112,50338,6,0,L|72:96,1,120,4|8,0:0|0:0,0:0:0:0:
24,128,50843,1,0,0:0:0:0:
24,128,51012,2,0,L|16:56,2,60,8|2|8,0:0|0:0|0:0,0:0:0:0:
124,192,51686,2,0,P|135:250|117:306,1,120,4|8,0:0|0:0,0:0:0:0:
68,344,52192,2,0,L|196:344,1,120,6|2,0:0|0:0,0:0:0:0:
248,344,52697,2,0,P|252:312|248:280,1,60,8|8,0:0|0:0,0:0:0:0:
216,232,53034,6,0,P|200:176|216:112,1,120,2|8,0:0|0:0,0:0:0:0:
304,40,53709,2,0,L|364:48,2,60,8|2|8,0:0|0:0|0:0,0:0:0:0:
213,116,54383,2,0,L|89:104,1,120,4|8,0:0|0:0,0:0:0:0:
48,64,54888,2,0,P|56:124|40:188,1,120,6|2,0:0|0:0,0:0:0:0:
72,228,55394,1,8,0:0:0:0:
72,228,55563,6,0,L|200:220,1,120,4|2,0:0|0:0,0:0:0:0:
240,252,56068,1,8,0:0:0:0:
316,160,56405,2,0,L|308:88,2,60,2|2|8,0:0|0:0|0:0,0:0:0:0:
372,180,56911,2,0,L|360:300,1,120,4|2,0:0|0:0,0:0:0:0:
316,340,57416,2,0,L|256:344,1,60,8|2,0:0|0:0,0:0:0:0:
198,363,57754,2,0,L|138:355,2,60,8|2|8,0:0|0:0|0:0,0:0:0:0:
256,192,58259,12,4,59607,0:0:0:0:
64,327,60450,6,0,P|79:270|69:211,1,120,0|0,0:0|0:0,0:0:0:0:
32,172,60956,1,0,0:0:0:0:
32,172,61124,6,0,L|152:168,1,120,4|8,3:2|3:2,0:0:0:0:
196,128,61630,1,0,0:0:0:0:
196,128,61798,2,0,P|188:184|200:248,1,120,2|8,3:2|3:2,0:0:0:0:
238,291,62304,1,0,0:0:0:0:
238,291,62473,6,0,L|306:283,1,60,2|0,3:2|0:0,0:0:0:0:
332,236,62810,2,0,L|400:248,1,60,8|0,3:2|0:0,0:0:0:0:
444,259,63147,2,0,P|456:201|446:142,1,120,2|8,3:2|3:2,0:0:0:0:
414,25,63821,6,0,L|294:41,1,120,4|8,3:2|3:2,0:0:0:0:
248,76,64327,1,0,0:0:0:0:
248,76,64495,2,0,P|264:132|244:192,1,120,2|8,3:2|3:2,0:0:0:0:
204,232,65001,1,0,0:0:0:0:
204,232,65169,6,0,L|84:216,1,120,2|8,3:2|3:2,0:0:0:0:
44,172,65675,1,0,0:0:0:0:
44,172,65843,2,0,P|56:228|40:292,1,120,2|8,3:2|3:2,0:0:0:0:
32,347,66349,1,0,0:0:0:0:
32,347,66518,6,0,L|100:339,1,60,2|0,3:2|0:0,0:0:0:0:
150,351,66855,2,0,L|218:343,1,60,8|0,3:2|0:0,0:0:0:0:
263,316,67192,2,0,L|255:248,2,60,2|0|8,3:2|0:0|3:2,0:0:0:0:
318,338,67697,1,0,0:0:0:0:
318,338,67866,6,0,P|378:342|430:306,2,120,2|8|2,3:2|3:2|3:2,0:0:0:0:
280,224,68877,2,0,L|212:232,1,60,8|0,3:2|0:0,0:0:0:0:
165,256,69214,6,0,P|142:205|141:130,1,120,2|8,3:2|3:2,0:0:0:0:
58,52,69888,2,0,L|-2:60,2,60,2|0|8,3:2|0:0|3:2,0:0:0:0:
117,44,70394,6,0,P|177:40|217:80,1,120,4|0,0:0|0:0,0:0:0:0:
252,128,70900,2,0,L|264:0,2,120,8|2|8,3:2|3:2|3:2,0:0:0:0:
280,180,71742,1,0,0:0:0:0:
280,180,71911,6,0,P|337:192|392:170,1,120,4|8,3:2|3:2,0:0:0:0:
428,124,72416,1,0,0:0:0:0:
428,124,72585,2,0,L|444:248,1,120,2|8,3:2|3:2,0:0:0:0:
404,289,73091,1,0,0:0:0:0:
404,289,73259,6,0,L|336:281,1,60,2|0,3:2|0:0,0:0:0:0:
296,318,73596,2,0,L|224:310,1,60,8|0,3:2|0:0,0:0:0:0:
188,348,73933,2,0,P|200:288|188:228,1,120,2|8,3:2|3:2,0:0:0:0:
126,128,74607,6,0,L|250:136,1,120,4|8,3:2|3:2,0:0:0:0:
287,179,75113,1,0,0:0:0:0:
287,179,75282,2,0,L|447:162,1,120,2|8,3:2|3:2,0:0:0:0:
427,110,75787,1,0,0:0:0:0:
427,110,75956,6,0,L|487:118,2,60,2|0|8,3:2|0:0|3:2,0:0:0:0:
395,59,76461,1,0,0:0:0:0:
395,59,76630,2,0,L|327:51,1,60,2|0,3:2|0:0,0:0:0:0:
275,51,76967,1,8,3:2:0:0:
159,84,77304,6,0,L|143:148,1,60,2|0,3:2|0:0,0:0:0:0:
91,170,77641,2,0,L|103:230,1,60,8|0,3:2|0:0,0:0:0:0:
69,278,77978,2,0,P|129:270|177:306,1,120,2|8,3:2|3:2,0:0:0:0:
210,351,78484,1,0,0:0:0:0:
210,351,78652,6,0,L|222:279,1,60,2|0,3:2|0:0,0:0:0:0:
269,257,78990,2,0,L|261:189,1,60,8|0,3:2|0:0,0:0:0:0:
236,143,79327,1,2,3:2:0:0:
16,40,80001,6,0,L|24:100,1,60,2|8,3:2|0:0,0:0:0:0:
32,160,80338,1,8,3:2:0:0:
124,240,80675,2,0,L|184:256,1,60,2|8,3:2|0:0,0:0:0:0:
216,304,81012,2,0,L|280:292,1,60,8|2,3:2|0:0,0:0:0:0:
320,252,81349,6,0,P|384:244|432:276,1,120,8|8,3:2|3:2,0:0:0:0:
476,312,81855,1,8,0:0:0:0:
476,312,82023,2,0,L|488:188,1,120,8|8,3:2|3:2,0:0:0:0:
444,148,82529,1,8,0:0:0:0:
444,148,82697,6,0,L|384:156,1,60,0|0,0:0|0:0,0:0:0:0:
340,196,83034,2,0,L|272:188,1,60,8|0,3:2|0:0,0:0:0:0:
232,152,83372,2,0,P|244:212|224:272,1,120,8|8,3:2|3:2,0:0:0:0:
180,304,83877,6,0,L|60:292,1,120,4|2,0:0|0:0,0:0:0:0:
8,264,84383,2,0,L|0:200,1,60,8|2,3:2|0:0,0:0:0:0:
108,152,84888,2,0,L|115:211,1,60,8|8,0:0|3:2,0:0:0:0:
203,292,85394,5,2,3:2:0:0:
309,347,85731,1,2,0:0:0:0:
340,228,86068,2,0,L|328:160,1,60,2|0,0:0|0:0,0:0:0:0:
272,148,86405,2,0,L|282:88,1,60,10|0,0:0|0:0,0:0:0:0:
296,32,86742,5,2,3:2:0:0:
178,9,87079,1,2,0:0:0:0:
115,111,87416,2,0,L|127:179,1,60,2|0,0:0|0:0,0:0:0:0:
177,201,87754,2,0,L|165:265,1,60,10|0,0:0|0:0,0:0:0:0:
156,319,88091,5,2,3:2:0:0:
268,359,88428,1,2,0:0:0:0:
336,260,88765,2,0,L|344:200,1,60,2|0,0:0|0:0,0:0:0:0:
288,180,89102,2,0,L|280:120,1,60,10|0,0:0|0:0,0:0:0:0:
264,64,89439,6,0,P|200:56|144:88,1,120,2|2,3:2|0:0,0:0:0:0:
112,124,89945,1,0,0:0:0:0:
112,124,90113,2,0,L|120:184,1,60,2|0,0:0|0:0,0:0:0:0:
179,194,90450,2,0,L|167:254,1,60,10|0,0:0|0:0,0:0:0:0:
152,312,90787,6,0,L|92:304,2,60,2|2|2,3:2|0:0|0:0,0:0:0:0:
264,368,91461,2,0,L|332:360,1,60,2|2,3:2|0:0,0:0:0:0:
384,348,91798,1,2,0:0:0:0:
472,267,92136,6,0,P|484:209|474:150,1,120,2|2,3:2|0:0,0:0:0:0:
436,104,92641,1,2,0:0:0:0:
436,104,92810,2,0,L|312:116,1,120,2|4,0:0|0:0,0:0:0:0:
