osu file format v14

[General]
AudioFilename: audio.mp3
AudioLeadIn: 0
PreviewTime: 60366
Countdown: 0
SampleSet: Soft
StackLeniency: 0.7
Mode: 0
LetterboxInBreaks: 0
WidescreenStoryboard: 0

[Editor]
DistanceSpacing: 1
BeatDivisor: 2
GridSize: 4
TimelineZoom: 1.6

[Metadata]
Title:Koi no Hime Hime Pettanko
TitleUnicode:恋のヒメヒメぺったんこ
Artist:*namirin
ArtistUnicode:*なみりん
Creator:[C u r i]
Version:Easy
Source:弱虫ペダル
Tags:Yowamushi Pedal HabiHolic Kalibe Taeyang
BeatmapID:1035059
BeatmapSetID:485056

[Difficulty]
HPDrainRate:2
CircleSize:3
OverallDifficulty:2
ApproachRate:3
SliderMultiplier:0.9
SliderTickRate:1

[Events]
//Background and Video events
0,0,"cherry_blossoms_kantoku_artist_Wallpaper HD_2560x1440_www.paperhi.com.jpg",0,0
//Break Periods
//Storyboard Layer 0 (Background)
//Storyboard Layer 1 (Fail)
//Storyboard Layer 2 (Pass)
//Storyboard Layer 3 (Foreground)
//Storyboard Sound Samples

[TimingPoints]
1799,337.078651685393,4,2,1,30,1,0
7192,-100,4,2,2,60,0,0
12585,-100,4,2,2,60,0,0
17388,-100,4,2,2,5,0,0
17473,-100,4,2,2,60,0,0
17978,-100,4,2,2,60,0,0
28428,-100,4,2,2,60,0,0
28681,-100,4,2,2,5,0,0
28765,-100,4,2,2,60,0,0
39551,-100,4,2,2,60,0,0
50338,-100,4,2,2,60,0,0
60450,-100,4,2,2,60,0,0
60787,-100,4,2,2,60,0,0
61124,-100,4,2,2,100,0,1
69214,-100,4,2,2,100,0,1
69888,-100,4,2,2,100,0,1
71827,-100,4,2,2,100,0,0
71911,-100,4,2,2,100,0,1
79664,-100,4,2,2,100,0,0
80001,-100,4,2,2,100,0,1
82529,-100,4,2,2,100,0,0
82866,-100,4,2,2,100,0,1
85394,-100,4,2,1,30,0,0
93063,-100,4,2,1,5,0,0
93147,-100,4,2,1,30,0,0
93484,-100,4,2,1,5,0,0

[Colours]
Combo1 : 255,187,255
Combo2 : 255,51,255
Combo3 : 255,128,255
Combo4 : 203,148,148

[HitObjects]
126,148,1799,6,0,P|169:112|295:149,1,180,2|2,0:0|0:0,0:0:0:0:
324,213,2810,1,10,0:0:0:0:
298,299,3147,2,0,P|255:335|129:298,1,180,2|2,0:0|0:0,0:0:0:0:
97,234,4158,1,10,0:0:0:0:
126,148,4495,6,0,P|169:112|295:149,1,180,2|2,0:0|0:0,0:0:0:0:
324,213,5506,1,10,0:0:0:0:
371,136,5843,2,0,P|369:91|368:31,2,90,2|10|2,0:0|0:0|0:0,0:0:0:0:
412,216,6855,1,2,0:1:0:0:
385,301,7192,6,0,P|286:304|185:328,1,180,4|0,0:0|0:0,0:0:0:0:
131,369,8203,1,0,0:0:0:0:
128,279,8540,2,0,P|125:180|116:129,2,135,4|0|8,0:0|0:0|0:0,0:0:0:0:
42,307,9888,6,0,P|43:215|30:117,1,180,4|0,0:0|0:0,0:0:0:0:
0,43,10900,1,0,0:0:0:0:
89,53,11237,2,0,L|242:47,2,135,4|0|2,0:0|0:0|0:0,0:0:0:0:
32,127,12585,6,0,P|42:175|41:237,1,90,4|8,0:0|0:0,0:0:0:0:
20,303,13259,2,0,P|73:303|115:273,1,90,2|8,0:0|0:0,0:0:0:0:
129,198,13933,2,0,P|194:179|276:209,2,135,4|0|8,0:0|0:0|0:0,0:0:0:0:
43,215,15282,6,0,P|41:170|32:127,1,90,4|8,0:0|0:0,0:0:0:0:
83,53,15956,2,0,P|127:51|171:41,1,90,2|8,0:0|0:0,0:0:0:0:
255,75,16630,2,0,P|326:72|405:79,2,135,4|0|8,0:0|0:0|0:0,0:0:0:0:
184,130,17978,6,0,P|185:198|209:233,1,90,4|8,0:0|0:0,0:0:0:0:
272,261,18652,2,0,P|287:302|282:347,1,90,2|8,0:0|0:0,0:0:0:0:
198,313,19327,1,2,0:0:0:0:
79,377,19832,2,0,P|59:321|90:236,1,135,8|8,0:0|0:0,0:0:0:0:
139,184,20675,6,0,P|180:168|225:173,1,90,2|8,0:0|0:0,0:0:0:0:
296,228,21349,2,0,P|340:233|382:217,1,90,0|8,0:0|0:0,0:0:0:0:
437,146,22023,1,2,0:0:0:0:
373,25,22529,2,0,P|332:78|328:145,1,135,8|8,0:0|0:0,0:0:0:0:
382,217,23372,6,0,P|395:267|390:322,1,90,2|8,0:0|0:0,0:0:0:0:
330,368,24046,2,0,P|279:381|225:376,1,90,0|8,0:0|0:0,0:0:0:0:
161,340,24720,1,2,0:0:0:0:
159,205,25225,2,0,L|155:94,1,90,10|2,0:0|0:0,0:0:0:0:
68,96,25900,6,0,L|75:265,1,135,4|2,0:0|0:0,0:0:0:0:
69,320,26742,1,8,0:0:0:0:
200,347,27248,2,0,L|205:212,1,135,4|2,0:0|0:0,0:0:0:0:
230,125,28091,2,0,P|279:119|354:102,1,90,8|8,0:0|3:2,0:0:0:0:
385,51,28765,6,0,P|409:106|329:200,1,180,4|0,0:0|0:0,0:0:0:0:
257,207,29776,1,8,0:0:0:0:
190,146,30113,2,0,P|189:77|236:12,2,135,2|8|8,0:0|0:0|0:0,0:0:0:0:
257,207,31461,6,0,P|263:280|255:324,1,90,2|8,0:0|0:0,0:0:0:0:
196,359,32136,2,0,P|123:365|79:357,1,90,0|8,0:0|0:0,0:0:0:0:
42,299,32810,1,2,3:2:0:0:
46,164,33315,2,0,P|111:155|193:162,1,135,2|8,0:0|3:2,0:0:0:0:
239,227,34158,6,0,P|283:237|341:221,1,90,2|8,0:0|0:0,0:0:0:0:
374,152,34832,2,0,P|360:108|317:66,1,90,0|8,0:0|0:0,0:0:0:0:
245,53,35506,2,0,P|193:94|179:159,2,135,2|2|8,0:0|0:0|0:0,0:0:0:0:
331,75,36855,6,0,L|443:68,1,90,2|8,0:0|0:0,0:0:0:0:
441,157,37529,2,0,L|291:169,1,135,0|2,0:0|0:0,0:0:0:0:
217,155,38372,2,0,L|137:163,1,45,2|2,0:0|0:0,0:0:0:0:
173,249,38877,2,0,B|230:244|230:244|297:263|297:263|372:257,1,180,8|4,3:2|3:2,0:0:0:0:
331,80,40225,5,2,0:0:0:0:
173,160,40900,2,0,P|163:204|172:248,2,90,0|0|2,0:0|0:0|0:0,0:0:0:0:
242,102,41911,1,8,0:0:0:0:
331,80,42248,5,2,0:0:0:0:
444,218,42922,1,2,0:0:0:0:
301,328,43596,2,0,P|232:340|140:346,2,135,0|2|8,0:0|0:0|0:0,0:0:0:0:
306,237,44945,6,0,P|213:257|111:262,1,180,4|2,0:0|0:0,0:0:0:0:
45,102,46293,2,0,P|103:89|162:90,1,90,0|0,0:0|0:0,0:0:0:0:
207,138,46967,2,0,P|251:134|295:123,1,90,2|8,0:0|0:0,0:0:0:0:
360,61,47641,5,4,0:0:0:0:
380,148,47978,2,0,L|384:292,1,135,8|2,0:0|0:0,0:0:0:0:
328,354,48821,2,0,P|277:342|218:339,1,90,4|2,0:0|0:0,0:0:0:0:
152,361,49495,2,0,L|144:208,1,135,2|4,0:0|0:0,0:0:0:0:
100,147,50338,6,0,P|147:135|194:147,2,90,4|8|8,0:0|0:0|0:0,0:0:0:0:
56,225,51349,1,8,0:0:0:0:
15,144,51686,2,0,P|46:81|131:61,2,135,4|6|8,0:0|0:0|0:0,0:0:0:0:
56,225,53034,6,0,P|61:301|57:340,1,90,2|8,0:0|0:0,0:0:0:0:
136,362,53709,2,0,P|212:357|251:361,1,90,8|8,0:0|0:0,0:0:0:0:
312,381,54383,1,4,0:0:0:0:
242,265,54888,2,0,P|231:222|251:157,1,90,6|2,0:0|0:0,0:0:0:0:
315,129,55563,6,0,L|471:121,1,135,4|8,0:0|0:0,0:0:0:0:
452,212,56405,2,0,L|298:220,1,135,2|4,0:0|0:0,0:0:0:0:
239,177,57248,2,0,P|159:142|79:196,1,180,2|2,0:0|0:0,0:0:0:0:
101,274,58259,6,0,P|173:294|246:255,1,135,6|8,0:0|0:0,0:0:0:0:
311,241,59102,2,0,B|400:248|400:248|456:223,1,135,8|4,0:0|0:0,0:0:0:0:
499,159,59945,1,4,0:0:0:0:
407,59,60450,2,0,P|396:106|408:160,1,90,0|0,0:0|0:0,0:0:0:0:
441,229,61124,6,0,L|444:331,1,90,4|8,3:2|3:2,0:0:0:0:
353,330,61798,2,0,P|298:328|249:338,1,90,2|8,3:2|3:2,0:0:0:0:
176,358,62473,2,0,P|131:364|86:361,2,90,2|8|2,3:2|3:2|3:2,0:0:0:0:
200,271,63484,1,8,3:2:0:0:
154,193,63821,6,0,P|145:141|157:97,1,90,4|8,3:2|3:2,0:0:0:0:
212,37,64495,2,0,P|264:28|308:40,1,90,2|8,3:2|3:2,0:0:0:0:
358,104,65169,2,0,P|376:179|299:257,1,180,2|2,3:2|3:2,0:0:0:0:
224,251,66181,1,8,3:2:0:0:
154,193,66518,6,0,P|101:190|48:206,1,90,2|8,3:2|3:2,0:0:0:0:
41,111,67192,2,0,P|105:99|180:106,2,135,2|0|8,3:2|0:0|3:2,0:0:0:0:
65,198,68540,2,0,P|81:254|70:312,1,90,2|8,3:2|3:2,0:0:0:0:
32,362,69214,6,0,B|79:383|120:363|120:363|166:338|233:372,1,180,2|2,3:2|3:2,0:0:0:0:
341,352,70394,2,0,P|326:302|367:132,1,225,4|2,0:0|3:2,0:0:0:0:
430,77,71574,1,8,3:2:0:0:
342,56,71911,6,0,L|232:64,1,90,4|8,3:2|3:2,0:0:0:0:
196,133,72585,2,0,L|86:125,1,90,2|8,3:2|3:2,0:0:0:0:
30,77,73259,2,0,P|17:137|33:181,2,90,2|8|2,3:2|3:2|3:2,0:0:0:0:
111,38,74270,1,8,3:2:0:0:
106,126,74607,6,0,L|195:119,1,90,4|8,3:2|3:2,0:0:0:0:
265,62,75282,2,0,L|354:68,1,90,2|8,3:2|3:2,0:0:0:0:
425,123,75956,2,0,P|438:185|346:267,1,180,2|2,3:2|3:2,0:0:0:0:
276,247,76967,1,8,3:2:0:0:
188,269,77304,6,0,P|140:275|80:274,1,90,2|8,3:2|3:2,0:0:0:0:
20,230,77978,2,0,P|10:166|46:96,2,135,2|0|8,3:2|0:0|3:2,0:0:0:0:
98,275,79327,2,0,P|143:274|188:269,1,90,2|0,3:2|3:2,0:0:0:0:
261,216,80001,5,2,3:2:0:0:
306,139,80338,1,8,3:2:0:0:
359,66,80675,2,0,P|412:58|461:72,1,90,2|8,3:2|3:2,0:0:0:0:
501,137,81349,2,0,L|505:232,1,90,8|8,3:2|3:2,0:0:0:0:
446,295,82023,2,0,P|355:305|300:259,1,135,8|8,3:2|0:0,0:0:0:0:
262,214,82866,6,0,P|266:161|260:121,2,90,0|0|0,0:0|0:0|0:0,0:0:0:0:
176,241,83877,2,0,P|212:291|327:279,1,180,4|2,0:0|0:0,0:0:0:0:
361,204,84888,2,0,L|363:135,1,45,8|8,0:0|3:2,0:0:0:0:
320,79,85394,6,0,P|235:61|175:122,1,180,2|2,3:2|0:0,0:0:0:0:
172,212,86405,1,10,0:0:0:0:
137,295,86742,2,0,B|183:313|223:288|223:288|264:264|328:291,1,180,2|2,3:2|0:0,0:0:0:0:
377,344,87754,1,10,0:0:0:0:
395,255,88091,6,0,P|389:165|399:63,1,180,2|2,3:2|0:0,0:0:0:0:
476,33,89102,1,10,0:0:0:0:
475,122,89439,2,0,P|473:184|478:232,1,90,2|2,3:2|0:0,0:0:0:0:
395,255,90113,2,0,P|333:253|285:258,1,90,2|10,0:0|0:0,0:0:0:0:
236,312,90787,6,0,P|182:335|79:250,1,180,2|2,3:2|3:2,0:0:0:0:
67,188,91798,1,2,0:0:0:0:
93,101,92136,2,0,B|134:85|134:85|176:106|176:106|230:80|300:109,1,180,2|2,3:2|0:0,0:0:0:0:
335,150,93147,1,4,0:0:0:0:
