osu file format v14

[General]
AudioFilename: audio.mp3
AudioLeadIn: 0
PreviewTime: 42819
Countdown: 0
SampleSet: Soft
StackLeniency: 0.7
Mode: 3
LetterboxInBreaks: 0
SpecialStyle: 0
WidescreenStoryboard: 0

[Editor]
DistanceSpacing: 0.8
BeatDivisor: 4
GridSize: 4
TimelineZoom: 1.4

[Metadata]
Title:Kanzen Shouri*Esper Girl
TitleUnicode:完全勝利☆エスパーガール
Artist:*namirin
ArtistUnicode:*なみりん
Creator:Tailsdk
Version:Insane
Source:osu!
Tags:Asherz007 コイシテイク・プラネット NAMI-0001 Koishiteiku Planet japanese pop featured artist fa jpop
BeatmapID:2102196
BeatmapSetID:1004416

[Difficulty]
HPDrainRate:8.7
CircleSize:4
OverallDifficulty:8.5
ApproachRate:5
SliderMultiplier:1.4
SliderTickRate:1

[Events]
//Background and Video events
0,0,"sora-sagano-8sOZJ8JF0S8-unsplash edit 1440p.jpg",0,0
//Break Periods
//Storyboard Layer 0 (Background)
//Storyboard Layer 1 (Fail)
//Storyboard Layer 2 (Pass)
//Storyboard Layer 3 (Foreground)
//Storyboard Layer 4 (Overlay)
//Storyboard Sound Samples

[TimingPoints]
1435,307.692307692308,4,2,1,100,1,0
43281,-100.0,4,2,1,100,0,1
62973,-100.0,4,2,1,100,0,0
102358,-100.0,4,2,1,100,0,1
111588,-100.0,4,2,1,100,0,0
112204,-100.0,4,2,1,100,0,1
131896,-100.0,4,2,1,100,0,0

[HitObjects]
109,192,819,1,8,0:0:0:60:soft-hitclap.wav
320,192,819,1,0,0:0:0:0:
192,192,973,1,2,0:0:0:55:soft-hitwhistle.wav
64,192,1127,1,8,0:0:0:60:soft-hitclap.wav
320,192,1127,1,4,0:0:0:80:soft-hitfinish.wav
448,192,1127,1,0,0:0:0:0:
64,192,1435,1,2,0:0:0:55:soft-hitwhistle.wav
182,192,1435,128,4,1742:0:0:0:80:soft-hitfinish.wav
448,192,1435,128,0,1742:0:0:0:0:
64,192,1742,1,8,0:0:0:60:soft-hitclap.wav
320,192,1742,128,0,1896:0:0:0:100:LR_Clap Fast Low.wav
192,192,1896,1,2,0:0:0:55:soft-hitwhistle.wav
448,192,1896,128,0,2050:0:0:0:0:
64,192,2050,1,2,0:0:0:55:soft-hitwhistle.wav
192,192,2050,128,0,2204:0:0:0:100:LR_Clap Fast Low.wav
320,192,2204,128,0,2358:0:0:0:0:
448,192,2204,1,0,0:0:0:0:
64,192,2358,128,8,2511:0:0:0:60:soft-hitclap.wav
448,192,2358,1,0,0:0:0:100:LR_Clap Fast Low.wav
192,192,2511,128,2,2819:0:0:0:55:soft-hitwhistle.wav
320,192,2511,1,0,0:0:0:0:
448,192,2511,128,0,2819:0:0:0:0:
36,192,2819,128,2,2973:0:0:0:55:soft-hitwhistle.wav
320,192,2819,1,0,0:0:0:0:
192,192,2973,128,8,3127:0:0:0:60:soft-hitclap.wav
402,192,2973,1,0,0:0:0:100:LR_Clap Fast Low.wav
320,192,3127,1,2,0:0:0:55:soft-hitwhistle.wav
448,192,3127,128,0,3281:0:0:0:0:
64,192,3281,128,2,3435:0:0:0:55:soft-hitwhistle.wav
192,192,3281,1,0,0:0:0:100:LR_Clap Fast Low.wav
320,192,3435,128,0,3588:0:0:0:0:
64,192,3588,1,8,0:0:0:60:soft-hitclap.wav
192,192,3588,128,0,3742:0:0:0:100:LR_Clap Fast Low.wav
448,192,3588,1,0,0:0:0:0:
448,192,3742,128,0,3896:0:0:0:0:
64,192,3896,128,2,4204:0:0:0:55:soft-hitwhistle.wav
192,192,3896,1,0,0:0:0:0:
320,192,3896,128,0,4050:0:0:0:0:
192,192,4050,128,0,4204:0:0:0:0:
320,192,4204,1,8,0:0:0:60:soft-hitclap.wav
448,192,4204,128,0,4358:0:0:0:100:LR_Clap Fast Low.wav
64,192,4358,1,2,0:0:0:55:soft-hitwhistle.wav
192,192,4358,128,0,4511:0:0:0:0:
320,192,4511,128,2,4665:0:0:0:55:soft-hitwhistle.wav
448,192,4511,1,0,0:0:0:100:LR_Clap Fast Low.wav
64,192,4665,128,0,4819:0:0:0:0:
192,192,4665,1,0,0:0:0:0:
320,192,4819,128,8,4973:0:0:0:60:soft-hitclap.wav
448,192,4819,1,0,0:0:0:100:LR_Clap Fast Low.wav
64,192,4973,1,2,0:0:0:55:soft-hitwhistle.wav
192,192,4973,128,0,5281:0:0:0:0:
448,192,4973,128,0,5281:0:0:0:0:
64,192,5281,1,2,0:0:0:55:soft-hitwhistle.wav
320,192,5281,128,0,5435:0:0:0:0:
64,192,5435,128,8,5588:0:0:0:60:soft-hitclap.wav
448,192,5435,1,0,0:0:0:100:LR_Clap Fast Low.wav
192,192,5588,128,2,5742:0:0:0:55:soft-hitwhistle.wav
320,192,5588,1,0,0:0:0:0:
64,192,5742,1,8,0:0:0:60:soft-hitclap.wav
320,192,5742,1,4,0:0:0:80:soft-hitfinish.wav
448,192,5742,128,0,5896:0:0:0:100:LR_Clap Fast Low.wav
192,192,5896,1,0,0:0:0:0:
64,192,6050,128,8,6204:0:0:0:60:soft-hitclap.wav
320,192,6050,1,4,0:0:0:80:soft-hitfinish.wav
448,192,6050,1,0,0:0:0:0:
320,192,6204,128,0,6358:0:0:0:0:
64,192,6358,1,0,0:0:0:0:
64,192,6511,1,2,0:0:0:55:soft-hitwhistle.wav
448,192,6511,1,0,0:0:0:0:
192,192,6665,1,8,0:0:0:60:soft-hitclap.wav
320,192,6665,1,4,0:0:0:80:soft-hitfinish.wav
448,192,6665,1,0,0:0:0:100:LR_Clap Fast Low.wav
64,192,6819,1,2,0:0:0:55:soft-hitwhistle.wav
320,192,6819,1,0,0:0:0:0:
192,192,6973,1,2,0:0:0:55:soft-hitwhistle.wav
448,192,6973,128,0,7127:0:0:0:100:LR_Clap Fast Low.wav
192,192,7127,128,2,7281:0:0:0:55:soft-hitwhistle.wav
320,192,7281,128,8,7435:0:0:0:60:soft-hitclap.wav
448,192,7281,1,0,0:0:0:100:LR_Clap Fast Low.wav
64,192,7435,1,2,0:0:0:55:soft-hitwhistle.wav
192,192,7435,128,4,7742:0:0:0:80:soft-hitfinish.wav
448,192,7435,128,0,7742:0:0:0:0:
64,192,7742,1,2,0:0:0:55:soft-hitwhistle.wav
320,192,7742,1,0,0:0:0:0:
64,192,7896,1,8,0:0:0:60:soft-hitclap.wav
192,192,7896,1,0,0:0:0:100:LR_Clap Fast Low.wav
448,192,7896,1,0,0:0:0:0:
192,192,8050,1,2,0:0:0:55:soft-hitwhistle.wav
320,192,8050,1,0,0:0:0:0:
64,192,8204,128,2,8358:0:0:0:55:soft-hitwhistle.wav
320,192,8204,1,0,0:0:0:100:LR_Clap Fast Low.wav
192,192,8358,1,0,0:0:0:0:
448,192,8358,128,0,8511:0:0:0:0:
64,192,8511,1,8,0:0:0:60:soft-hitclap.wav
192,192,8511,128,0,8665:0:0:0:100:LR_Clap Fast Low.wav
320,192,8665,128,0,8819:0:0:0:0:
64,192,8819,128,2,9127:0:0:0:55:soft-hitwhistle.wav
192,192,8819,128,4,8973:0:0:0:80:soft-hitfinish.wav
448,192,8819,1,0,0:0:0:0:
320,192,8973,128,0,9127:0:0:0:0:
192,192,9127,1,8,0:0:0:60:soft-hitclap.wav
448,192,9127,1,0,0:0:0:0:
64,192,9281,1,2,0:0:0:55:soft-hitwhistle.wav
192,192,9281,128,4,9588:0:0:0:80:soft-hitfinish.wav
448,192,9281,128,0,9588:0:0:0:0:
320,192,9588,128,0,9742:0:0:0:0:
64,192,9742,128,8,10358:0:0:0:60:soft-hitclap.wav
192,192,9742,128,4,10204:0:0:0:80:soft-hitfinish.wav
448,192,9742,1,0,0:0:0:0:
320,192,9896,1,2,0:0:0:55:soft-hitwhistle.wav
448,192,10204,128,2,10358:0:0:0:55:soft-hitwhistle.wav
192,192,10358,1,8,0:0:0:60:soft-hitclap.wav
320,192,10358,1,0,0:0:0:0:
448,192,10435,1,0,0:0:0:0:
64,192,10511,1,2,0:0:0:55:soft-hitwhistle.wav
192,192,10588,1,0,0:0:0:0:
64,192,10665,1,8,0:0:0:60:soft-hitclap.wav
320,192,10665,1,0,0:0:0:0:
448,192,10665,1,0,0:0:0:0:
64,192,10819,1,8,0:0:0:60:soft-hitclap.wav
320,192,10819,1,0,0:0:0:0:
448,192,10819,1,0,0:0:0:0:
320,192,11281,1,2,0:0:0:55:soft-hitwhistle.wav
448,192,11281,1,0,0:0:0:0:
320,192,11435,1,2,0:0:0:55:soft-hitwhistle.wav
448,192,11435,1,0,0:0:0:0:
64,192,11896,1,2,0:0:0:55:soft-hitwhistle.wav
320,192,11896,1,0,0:0:0:0:
64,192,12050,1,2,0:0:0:55:soft-hitwhistle.wav
320,192,12050,1,0,0:0:0:0:
192,192,12511,1,2,0:0:0:55:soft-hitwhistle.wav
448,192,12511,1,0,0:0:0:0:
192,192,12665,1,2,0:0:0:55:soft-hitwhistle.wav
448,192,12665,1,0,0:0:0:0:
64,192,13127,1,2,0:0:0:55:soft-hitwhistle.wav
320,192,13127,1,0,0:0:0:0:
64,192,13435,1,8,0:0:0:60:soft-hitclap.wav
192,192,13435,1,2,0:0:0:55:soft-hitwhistle.wav
448,192,13435,1,0,0:0:0:0:
64,192,13742,1,2,0:0:0:55:soft-hitwhistle.wav
192,192,13742,1,0,0:0:0:0:
64,192,13896,1,2,0:0:0:55:soft-hitwhistle.wav
192,192,13896,1,0,0:0:0:0:
320,192,14358,1,2,0:0:0:55:soft-hitwhistle.wav
448,192,14358,1,0,0:0:0:0:
320,192,14511,1,2,0:0:0:55:soft-hitwhistle.wav
448,192,14511,1,0,0:0:0:0:
192,192,14819,1,2,0:0:0:55:soft-hitwhistle.wav
320,192,14819,1,0,0:0:0:0:
64,192,14973,1,2,0:0:0:55:soft-hitwhistle.wav
320,192,14973,1,0,0:0:0:0:
64,192,15127,1,2,0:0:0:55:soft-hitwhistle.wav
448,192,15127,1,0,0:0:0:0:
64,192,15435,1,2,0:0:0:55:soft-hitwhistle.wav
448,192,15435,1,0,0:0:0:0:
320,192,15588,1,2,0:0:0:55:soft-hitwhistle.wav
448,192,15588,1,0,0:0:0:0:
64,192,15896,1,8,0:0:0:60:soft-hitclap.wav
320,192,15896,1,2,0:0:0:55:soft-hitwhistle.wav
448,192,15896,1,0,0:0:0:0:
192,192,16204,1,2,0:0:0:55:soft-hitwhistle.wav
320,192,16204,1,0,0:0:0:0:
192,192,16358,1,2,0:0:0:55:soft-hitwhistle.wav
320,192,16358,1,0,0:0:0:0:
64,192,16819,1,2,0:0:0:55:soft-hitwhistle.wav
320,192,16819,1,0,0:0:0:0:
64,192,16973,1,2,0:0:0:55:soft-hitwhistle.wav
320,192,16973,1,0,0:0:0:0:
64,192,17435,1,2,0:0:0:55:soft-hitwhistle.wav
192,192,17435,1,0,0:0:0:0:
64,192,17588,1,2,0:0:0:55:soft-hitwhistle.wav
192,192,17588,1,0,0:0:0:0:
320,192,18050,1,2,0:0:0:55:soft-hitwhistle.wav
448,192,18050,1,0,0:0:0:0:
192,192,18204,1,0,0:0:0:0:
64,192,18358,1,8,0:0:0:60:soft-hitclap.wav
320,192,18358,1,2,0:0:0:55:soft-hitwhistle.wav
448,192,18358,1,0,0:0:0:0:
64,192,18665,1,2,0:0:0:55:soft-hitwhistle.wav
320,192,18665,1,0,0:0:0:0:
64,192,18973,1,2,0:0:0:55:soft-hitwhistle.wav
320,192,18973,1,0,0:0:0:0:
320,192,19127,1,2,0:0:0:55:soft-hitwhistle.wav
448,192,19127,1,0,0:0:0:0:
320,192,19435,1,2,0:0:0:55:soft-hitwhistle.wav
448,192,19435,1,0,0:0:0:0:
64,192,19588,1,8,0:0:0:60:soft-hitclap.wav
192,192,19588,1,0,0:0:0:0:
448,192,19588,1,0,0:0:0:0:
64,192,19742,1,2,0:0:0:55:soft-hitwhistle.wav
320,192,19742,1,0,0:0:0:0:
64,192,20050,1,2,0:0:0:55:soft-hitwhistle.wav
192,192,20050,1,0,0:0:0:0:
64,192,20204,1,8,0:0:0:60:soft-hitclap.wav
320,192,20204,1,0,0:0:0:0:
448,192,20204,1,0,0:0:0:0:
192,192,20358,1,2,0:0:0:55:soft-hitwhistle.wav
320,192,20358,1,0,0:0:0:0:
64,192,20511,128,8,20665:0:0:0:60:soft-hitclap.wav
192,192,20511,1,4,0:0:0:80:soft-hitfinish.wav
448,192,20511,1,0,0:0:0:0:
320,192,20665,1,2,0:0:0:55:soft-hitwhistle.wav
448,192,20665,1,0,0:0:0:0:
64,192,20819,1,8,0:0:0:60:soft-hitclap.wav
192,192,20819,128,4,20973:0:0:0:80:soft-hitfinish.wav
320,192,20819,1,0,0:0:0:0:
64,192,21127,1,2,0:0:0:55:soft-hitwhistle.wav
320,192,21127,1,0,0:0:0:0:
64,192,21281,1,0,0:0:0:0:
320,192,21281,1,0,0:0:0:0:
64,192,21435,1,8,0:0:0:60:soft-hitclap.wav
192,192,21435,1,0,0:0:0:0:
448,192,21435,1,0,0:0:0:0:
320,192,21588,1,0,0:0:0:0:
192,192,21742,1,2,0:0:0:55:soft-hitwhistle.wav
448,192,21742,1,0,0:0:0:0:
192,192,21896,1,0,0:0:0:0:
448,192,21896,1,0,0:0:0:0:
64,192,22050,1,8,0:0:0:60:soft-hitclap.wav
320,192,22050,1,0,0:0:0:0:
448,192,22050,1,0,0:0:0:0:
192,192,22204,1,0,0:0:0:0:
320,192,22358,1,2,0:0:0:55:soft-hitwhistle.wav
448,192,22358,1,0,0:0:0:0:
320,192,22511,1,0,0:0:0:0:
448,192,22511,1,0,0:0:0:0:
64,192,22665,1,8,0:0:0:60:soft-hitclap.wav
192,192,22665,1,0,0:0:0:0:
320,192,22665,1,0,0:0:0:0:
192,192,22819,1,0,0:0:0:0:
64,192,22973,1,2,0:0:0:55:soft-hitwhistle.wav
320,192,22973,1,0,0:0:0:0:
448,192,22973,1,0,0:0:0:0:
192,192,23127,1,0,0:0:0:0:
64,192,23281,1,8,0:0:0:60:soft-hitclap.wav
320,192,23281,1,2,0:0:0:55:soft-hitwhistle.wav
448,192,23281,1,0,0:0:0:0:
192,192,23435,1,0,0:0:0:0:
64,192,23588,1,2,0:0:0:55:soft-hitwhistle.wav
448,192,23588,1,0,0:0:0:0:
64,192,23742,1,0,0:0:0:0:
448,192,23742,1,0,0:0:0:0:
192,192,23896,1,8,0:0:0:60:soft-hitclap.wav
320,192,23896,1,0,0:0:0:0:
448,192,23896,1,0,0:0:0:0:
64,192,24050,1,0,0:0:0:0:
320,192,24204,1,2,0:0:0:55:soft-hitwhistle.wav
448,192,24204,1,0,0:0:0:0:
320,192,24358,1,0,0:0:0:0:
448,192,24358,1,0,0:0:0:0:
64,192,24511,1,8,0:0:0:60:soft-hitclap.wav
192,192,24511,1,0,0:0:0:0:
448,192,24511,1,0,0:0:0:0:
192,192,24665,1,0,0:0:0:0:
320,192,24665,1,0,0:0:0:0:
64,192,24819,1,2,0:0:0:55:soft-hitwhistle.wav
320,192,24819,1,0,0:0:0:0:
64,192,24973,1,0,0:0:0:0:
448,192,24973,1,0,0:0:0:0:
192,192,25127,1,8,0:0:0:60:soft-hitclap.wav
320,192,25127,1,0,0:0:0:0:
448,192,25127,1,0,0:0:0:0:
64,192,25281,1,0,0:0:0:30:soft-hitclap.wav
320,192,25281,1,0,0:0:0:0:
64,192,25435,1,2,0:0:0:55:soft-hitwhistle.wav
448,192,25435,1,0,0:0:0:0:
64,192,25742,128,8,26050:0:0:0:60:soft-hitclap.wav
192,192,25742,1,2,0:0:0:55:soft-hitwhistle.wav
448,192,25742,1,0,0:0:0:0:
320,192,26050,1,2,0:0:0:55:soft-hitwhistle.wav
448,192,26050,1,0,0:0:0:0:
320,192,26204,1,0,0:0:0:0:
448,192,26204,1,0,0:0:0:0:
64,192,26358,1,8,0:0:0:60:soft-hitclap.wav
192,192,26358,1,0,0:0:0:0:
448,192,26358,1,0,0:0:0:0:
320,192,26511,1,0,0:0:0:0:
64,192,26665,1,2,0:0:0:55:soft-hitwhistle.wav
192,192,26665,1,0,0:0:0:0:
64,192,26819,1,0,0:0:0:0:
192,192,26819,1,0,0:0:0:0:
64,192,26973,1,8,0:0:0:60:soft-hitclap.wav
320,192,26973,1,0,0:0:0:0:
448,192,26973,1,0,0:0:0:0:
192,192,27127,1,0,0:0:0:0:
64,192,27281,1,2,0:0:0:55:soft-hitwhistle.wav
448,192,27281,1,0,0:0:0:0:
64,192,27435,1,0,0:0:0:0:
448,192,27435,1,0,0:0:0:0:
192,192,27588,1,8,0:0:0:60:soft-hitclap.wav
320,192,27588,1,0,0:0:0:0:
448,192,27588,1,0,0:0:0:0:
64,192,27742,1,0,0:0:0:0:
320,192,27896,1,2,0:0:0:55:soft-hitwhistle.wav
448,192,27896,1,0,0:0:0:0:
320,192,28050,1,0,0:0:0:0:
448,192,28050,1,0,0:0:0:0:
64,192,28204,1,8,0:0:0:60:soft-hitclap.wav
192,192,28204,1,0,0:0:0:0:
320,192,28204,1,0,0:0:0:0:
192,192,28358,1,0,0:0:0:0:
64,192,28511,1,8,0:0:0:60:soft-hitclap.wav
320,192,28511,1,2,0:0:0:55:soft-hitwhistle.wav
448,192,28511,1,0,0:0:0:0:
448,192,28665,1,0,0:0:0:0:
64,192,28819,1,8,0:0:0:60:soft-hitclap.wav
192,192,28819,1,2,0:0:0:55:soft-hitwhistle.wav
320,192,28819,1,0,0:0:0:0:
64,192,28973,1,0,0:0:0:0:
192,192,29127,1,8,0:0:0:60:soft-hitclap.wav
320,192,29127,1,2,0:0:0:55:soft-hitwhistle.wav
448,192,29127,1,0,0:0:0:0:
320,192,29281,1,0,0:0:0:0:
64,192,29435,1,8,0:0:0:60:soft-hitclap.wav
192,192,29435,1,2,0:0:0:55:soft-hitwhistle.wav
448,192,29435,1,0,0:0:0:0:
192,192,29588,1,4,0:0:0:80:soft-hitfinish.wav
320,192,29588,128,0,29896:0:0:0:70:tom03.wav
64,192,29896,1,2,0:0:0:55:soft-hitwhistle.wav
192,192,29896,1,0,0:0:0:0:
64,192,30050,1,8,0:0:0:60:soft-hitclap.wav
320,192,30050,1,0,0:0:0:0:
448,192,30050,1,0,0:0:0:0:
192,192,30204,1,2,0:0:0:55:soft-hitwhistle.wav
320,192,30204,1,0,0:0:0:0:
64,192,30358,128,8,30511:0:0:0:60:soft-hitclap.wav
192,192,30358,1,0,0:0:0:0:
448,192,30358,1,0,0:0:0:0:
320,192,30511,1,0,0:0:0:30:soft-hitclap.wav
192,192,30588,1,0,0:0:0:30:soft-hitclap.wav
64,192,30665,1,8,0:0:0:60:soft-hitclap.wav
320,192,30665,1,0,0:0:0:0:
448,192,30665,128,0,30973:0:0:0:0:
192,192,30819,1,0,0:0:0:30:soft-hitclap.wav
64,192,30973,1,2,0:0:0:55:soft-hitwhistle.wav
320,192,30973,1,4,0:0:0:80:soft-hitfinish.wav
64,192,31127,128,0,31204:0:0:0:0:
320,192,31281,1,0,0:0:0:100:LR_Clap Fast Low.wav
448,192,31281,1,0,0:0:0:0:
320,192,31435,128,0,31511:0:0:0:0:
192,192,31588,1,2,0:0:0:55:soft-hitwhistle.wav
448,192,31588,1,0,0:0:0:0:
192,192,31742,128,0,31819:0:0:0:0:
64,192,31896,1,0,0:0:0:100:LR_Clap Fast Low.wav
320,192,31896,1,0,0:0:0:0:
64,192,32050,128,0,32127:0:0:0:0:
320,192,32204,1,2,0:0:0:55:soft-hitwhistle.wav
448,192,32204,1,0,0:0:0:0:
448,192,32358,128,0,32435:0:0:0:0:
64,192,32511,1,0,0:0:0:100:LR_Clap Fast Low.wav
192,192,32511,1,0,0:0:0:0:
192,192,32665,128,0,32742:0:0:0:0:
64,192,32819,1,2,0:0:0:55:soft-hitwhistle.wav
320,192,32819,1,0,0:0:0:0:
320,192,32973,128,0,33050:0:0:0:0:
64,192,33127,1,0,0:0:0:100:LR_Clap Fast Low.wav
448,192,33127,1,0,0:0:0:0:
64,192,33281,128,0,33358:0:0:0:0:
192,192,33435,1,2,0:0:0:55:soft-hitwhistle.wav
448,192,33435,1,0,0:0:0:0:
192,192,33588,128,0,33665:0:0:0:0:
64,192,33742,1,0,0:0:0:100:LR_Clap Fast Low.wav
320,192,33742,1,0,0:0:0:0:
320,192,33896,128,0,33973:0:0:0:0:
64,192,34050,1,2,0:0:0:55:soft-hitwhistle.wav
448,192,34050,1,0,0:0:0:0:
448,192,34204,128,0,34281:0:0:0:0:
64,192,34358,1,0,0:0:0:100:LR_Clap Fast Low.wav
192,192,34358,1,0,0:0:0:0:
192,192,34511,128,0,34588:0:0:0:0:
64,192,34665,1,2,0:0:0:55:soft-hitwhistle.wav
320,192,34665,1,0,0:0:0:0:
64,192,34819,128,0,34896:0:0:0:0:
320,192,34973,1,0,0:0:0:100:LR_Clap Fast Low.wav
448,192,34973,1,0,0:0:0:0:
320,192,35127,128,0,35204:0:0:0:0:
192,192,35281,1,2,0:0:0:55:soft-hitwhistle.wav
448,192,35281,1,0,0:0:0:0:
192,192,35435,128,0,35511:0:0:0:0:
64,192,35588,1,0,0:0:0:100:LR_Clap Fast Low.wav
448,192,35588,1,0,0:0:0:0:
448,192,35742,128,0,35819:0:0:0:0:
192,192,35896,1,2,0:0:0:55:soft-hitwhistle.wav
320,192,35896,1,0,0:0:0:0:
320,192,36050,128,0,36127:0:0:0:0:
64,192,36204,1,0,0:0:0:100:LR_Clap Fast Low.wav
448,192,36204,1,0,0:0:0:0:
64,192,36358,128,0,36435:0:0:0:0:
192,192,36665,1,8,0:0:0:60:soft-hitclap.wav
320,192,36665,1,2,0:0:0:55:soft-hitwhistle.wav
448,192,36665,1,0,0:0:0:0:
192,192,36819,1,8,0:0:0:60:soft-hitclap.wav
320,192,36819,1,2,0:0:0:55:soft-hitwhistle.wav
448,192,36819,1,0,0:0:0:0:
64,192,37127,1,2,0:0:0:55:soft-hitwhistle.wav
448,192,37127,1,0,0:0:0:0:
448,192,37281,128,0,37358:0:0:0:0:
192,192,37435,1,8,0:0:0:60:soft-hitclap.wav
320,192,37435,1,0,0:0:0:100:LR_Clap Fast Low.wav
192,192,37588,128,0,37665:0:0:0:0:
64,192,37896,1,8,0:0:0:60:soft-hitclap.wav
320,192,37896,1,2,0:0:0:55:soft-hitwhistle.wav
448,192,37896,1,0,0:0:0:0:
64,192,38050,1,8,0:0:0:60:soft-hitclap.wav
320,192,38050,1,2,0:0:0:55:soft-hitwhistle.wav
448,192,38050,1,0,0:0:0:0:
64,192,38358,1,2,0:0:0:55:soft-hitwhistle.wav
320,192,38358,1,4,0:0:0:80:soft-hitfinish.wav
320,192,38511,128,0,38588:0:0:0:0:
64,192,38665,1,8,0:0:0:60:soft-hitclap.wav
192,192,38665,1,0,0:0:0:0:
448,192,38665,1,0,0:0:0:0:
192,192,38819,128,0,38896:0:0:0:0:
320,192,38973,1,0,0:0:0:0:
448,192,38973,1,0,0:0:0:0:
192,192,39127,1,2,0:0:0:55:soft-hitwhistle.wav
448,192,39127,128,0,39204:0:0:0:0:
64,192,39281,1,8,0:0:0:60:soft-hitclap.wav
192,192,39281,1,0,0:0:0:0:
320,192,39281,1,0,0:0:0:0:
320,192,39435,128,0,39511:0:0:0:0:
64,192,39588,1,2,0:0:0:55:soft-hitwhistle.wav
192,192,39588,1,0,0:0:0:0:
192,192,39742,128,0,39819:0:0:0:0:
64,192,39896,1,8,0:0:0:60:soft-hitclap.wav
320,192,39896,1,0,0:0:0:0:
448,192,39896,1,0,0:0:0:0:
320,192,40050,128,0,40127:0:0:0:0:
64,192,40204,1,0,0:0:0:0:
448,192,40204,1,0,0:0:0:0:
64,192,40358,128,2,40435:0:0:0:55:soft-hitwhistle.wav
320,192,40358,1,0,0:0:0:0:
192,192,40511,1,8,0:0:0:60:soft-hitclap.wav
320,192,40511,1,0,0:0:0:0:
448,192,40511,1,0,0:0:0:0:
192,192,40665,128,0,40742:0:0:0:0:
64,192,40819,1,8,0:0:0:60:soft-hitclap.wav
320,192,40819,1,4,0:0:0:80:soft-hitfinish.wav
448,192,40819,1,0,0:0:0:0:
192,192,40973,1,2,0:0:0:55:soft-hitwhistle.wav
320,192,40973,1,0,0:0:0:0:
64,192,41127,1,8,0:0:0:60:soft-hitclap.wav
192,192,41127,1,4,0:0:0:80:soft-hitfinish.wav
448,192,41127,1,0,0:0:0:0:
320,192,41281,1,2,0:0:0:55:soft-hitwhistle.wav
448,192,41281,1,0,0:0:0:0:
64,192,41435,1,8,0:0:0:60:soft-hitclap.wav
192,192,41435,1,4,0:0:0:80:soft-hitfinish.wav
320,192,41435,1,0,0:0:0:0:
64,192,41588,1,2,0:0:0:55:soft-hitwhistle.wav
448,192,41588,1,0,0:0:0:0:
192,192,41742,1,8,0:0:0:60:soft-hitclap.wav
320,192,41742,1,4,0:0:0:80:soft-hitfinish.wav
448,192,41742,1,0,0:0:0:0:
64,192,41896,1,2,0:0:0:55:soft-hitwhistle.wav
192,192,41896,1,0,0:0:0:0:
64,192,42050,1,8,0:0:0:60:soft-hitclap.wav
320,192,42050,128,4,42204:0:0:0:80:soft-hitfinish.wav
448,192,42050,128,0,42665:0:0:0:0:
192,192,42358,1,0,0:0:0:0:
64,192,42511,1,0,0:0:0:30:soft-hitclap.wav
320,192,42511,1,0,0:0:0:0:
64,192,42819,1,8,0:0:0:60:soft-hitclap.wav
192,192,42819,1,0,0:0:0:0:
320,192,42819,1,0,0:0:0:0:
320,192,42973,1,8,0:0:0:60:soft-hitclap.wav
448,192,42973,1,0,0:0:0:0:
64,192,43050,1,8,0:0:0:60:soft-hitclap.wav
192,192,43050,1,0,0:0:0:0:
320,192,43127,1,8,0:0:0:60:soft-hitclap.wav
448,192,43127,1,0,0:0:0:0:
192,192,43204,1,8,0:0:0:60:soft-hitclap.wav
64,192,43281,128,2,43588:0:0:0:55:soft-hitwhistle.wav
320,192,43281,1,4,0:0:0:80:soft-hitfinish.wav
448,192,43281,1,0,0:0:0:0:
192,192,43588,1,8,0:0:0:60:soft-hitclap.wav
320,192,43588,1,0,0:0:0:0:
448,192,43588,128,0,43896:0:0:0:0:
64,192,43896,1,2,0:0:0:55:soft-hitwhistle.wav
192,192,43896,1,0,0:0:0:0:
64,192,44050,1,2,0:0:0:55:soft-hitwhistle.wav
192,192,44050,1,0,0:0:0:0:
64,192,44204,1,8,0:0:0:60:soft-hitclap.wav
320,192,44204,1,0,0:0:0:0:
448,192,44204,1,0,0:0:0:0:
192,192,44358,128,2,44665:0:0:0:55:soft-hitwhistle.wav
320,192,44358,1,0,0:0:0:0:
448,192,44358,1,0,0:0:0:0:
64,192,44665,1,2,0:0:0:55:soft-hitwhistle.wav
448,192,44665,128,0,44819:0:0:0:0:
64,192,44819,1,8,0:0:0:60:soft-hitclap.wav
192,192,44819,1,0,0:0:0:0:
320,192,44819,128,0,44973:0:0:0:0:
192,192,44973,128,0,45127:0:0:0:30:soft-hitclap.wav
320,192,45127,1,2,0:0:0:55:soft-hitwhistle.wav
448,192,45127,128,0,45281:0:0:0:0:
64,192,45281,128,2,45435:0:0:0:55:soft-hitwhistle.wav
320,192,45281,1,0,0:0:0:0:
192,192,45435,1,8,0:0:0:60:soft-hitclap.wav
320,192,45435,128,0,45588:0:0:0:0:
448,192,45435,1,0,0:0:0:0:
192,192,45588,128,0,45742:0:0:0:0:
64,192,45742,128,2,45896:0:0:0:55:soft-hitwhistle.wav
320,192,45742,1,0,0:0:0:0:
448,192,45742,128,0,46050:0:0:0:0:
320,192,45896,128,0,46050:0:0:0:0:
64,192,46050,128,8,46358:0:0:0:60:soft-hitclap.wav
192,192,46050,128,0,46204:0:0:0:0:
448,192,46204,128,0,46358:0:0:0:0:
192,192,46358,1,2,0:0:0:55:soft-hitwhistle.wav
320,192,46358,128,0,46511:0:0:0:0:
192,192,46511,1,2,0:0:0:55:soft-hitwhistle.wav
448,192,46511,128,0,46665:0:0:0:0:
64,192,46665,1,8,0:0:0:60:soft-hitclap.wav
192,192,46665,128,0,46819:0:0:0:0:
320,192,46665,1,0,0:0:0:0:
64,192,46819,1,2,0:0:0:55:soft-hitwhistle.wav
320,192,46819,128,0,47127:0:0:0:0:
448,192,46819,1,0,0:0:0:0:
64,192,47127,1,2,0:0:0:55:soft-hitwhistle.wav
192,192,47127,128,0,47281:0:0:0:0:
64,192,47281,1,8,0:0:0:60:soft-hitclap.wav
320,192,47281,1,0,0:0:0:0:
448,192,47281,128,0,47435:0:0:0:0:
192,192,47435,128,0,47588:0:0:0:30:soft-hitclap.wav
64,192,47588,128,2,47742:0:0:0:55:soft-hitwhistle.wav
448,192,47588,1,0,0:0:0:0:
320,192,47742,128,2,47896:0:0:0:55:soft-hitwhistle.wav
448,192,47742,1,0,0:0:0:0:
64,192,47896,128,8,48050:0:0:0:60:soft-hitclap.wav
192,192,47896,1,4,0:0:0:80:soft-hitfinish.wav
448,192,47896,1,0,0:0:0:0:
320,192,48050,128,0,48204:0:0:0:0:
192,192,48204,1,2,0:0:0:55:soft-hitwhistle.wav
448,192,48204,1,0,0:0:0:0:
192,192,48358,128,0,48511:0:0:0:0:
64,192,48511,1,8,0:0:0:60:soft-hitclap.wav
320,192,48511,1,0,0:0:0:0:
448,192,48511,1,0,0:0:0:0:
320,192,48665,128,0,48819:0:0:0:0:
192,192,48819,1,2,0:0:0:55:soft-hitwhistle.wav
448,192,48819,1,0,0:0:0:0:
64,192,48973,128,0,49127:0:0:0:0:
192,192,49127,1,8,0:0:0:60:soft-hitclap.wav
320,192,49127,1,0,0:0:0:0:
448,192,49127,1,0,0:0:0:0:
320,192,49281,1,2,0:0:0:55:soft-hitwhistle.wav
448,192,49281,128,0,49588:0:0:0:0:
64,192,49588,1,2,0:0:0:55:soft-hitwhistle.wav
192,192,49588,128,0,49742:0:0:0:0:
64,192,49742,1,8,0:0:0:60:soft-hitclap.wav
320,192,49742,1,0,0:0:0:0:
448,192,49742,1,0,0:0:0:0:
320,192,49896,128,0,50050:0:0:0:0:
64,192,50050,1,2,0:0:0:55:soft-hitwhistle.wav
448,192,50050,1,0,0:0:0:0:
64,192,50204,128,2,50358:0:0:0:55:soft-hitwhistle.wav
448,192,50204,1,0,0:0:0:0:
192,192,50358,1,8,0:0:0:60:soft-hitclap.wav
320,192,50358,1,4,0:0:0:80:soft-hitfinish.wav
448,192,50358,1,0,0:0:0:0:
320,192,50511,128,0,50665:0:0:0:0:
192,192,50665,128,2,50819:0:0:0:55:soft-hitwhistle.wav
448,192,50665,1,0,0:0:0:0:
64,192,50973,1,8,0:0:0:60:soft-hitclap.wav
192,192,50973,128,4,51127:0:0:0:80:soft-hitfinish.wav
448,192,50973,1,0,0:0:0:0:
64,192,51281,1,8,0:0:0:60:soft-hitclap.wav
320,192,51281,128,0,51435:0:0:0:0:
192,192,51435,1,2,0:0:0:55:soft-hitwhistle.wav
64,192,51588,1,8,0:0:0:60:soft-hitclap.wav
320,192,51588,128,0,51742:0:0:0:0:
448,192,51588,1,0,0:0:0:0:
64,192,51742,128,8,52050:0:0:0:60:soft-hitclap.wav
192,192,51742,1,4,0:0:0:80:soft-hitfinish.wav
448,192,51742,1,0,0:0:0:0:
192,192,52050,1,2,0:0:0:55:soft-hitwhistle.wav
448,192,52050,128,0,52204:0:0:0:0:
64,192,52204,1,8,0:0:0:60:soft-hitclap.wav
192,192,52204,128,0,52358:0:0:0:0:
320,192,52204,1,0,0:0:0:0:
320,192,52358,128,0,52511:0:0:0:0:
64,192,52511,1,0,0:0:0:40:soft-hitclap.wav
192,192,52511,1,0,0:0:0:0:
448,192,52511,1,0,0:0:0:0:
64,192,52665,1,0,0:0:0:40:soft-hitclap.wav
192,192,52665,1,0,0:0:0:0:
320,192,52819,1,8,0:0:0:60:soft-hitclap.wav
448,192,52819,1,0,0:0:0:0:
64,192,52896,1,8,0:0:0:60:soft-hitclap.wav
192,192,52896,1,0,0:0:0:0:
320,192,52973,1,8,0:0:0:60:soft-hitclap.wav
448,192,52973,1,0,0:0:0:0:
192,192,53050,1,8,0:0:0:60:soft-hitclap.wav
64,192,53127,1,2,0:0:0:55:soft-hitwhistle.wav
320,192,53127,1,4,0:0:0:80:soft-hitfinish.wav
448,192,53127,128,0,53435:0:0:0:0:
64,192,53435,128,8,53742:0:0:0:60:soft-hitclap.wav
192,192,53435,1,0,0:0:0:0:
320,192,53435,1,0,0:0:0:0:
320,192,53742,1,2,0:0:0:55:soft-hitwhistle.wav
448,192,53742,1,0,0:0:0:0:
320,192,53896,1,2,0:0:0:55:soft-hitwhistle.wav
448,192,53896,1,0,0:0:0:0:
64,192,54050,1,8,0:0:0:60:soft-hitclap.wav
192,192,54050,1,0,0:0:0:0:
448,192,54050,1,0,0:0:0:0:
192,192,54204,1,2,0:0:0:55:soft-hitwhistle.wav
320,192,54204,128,0,54511:0:0:0:0:
64,192,54511,128,2,54665:0:0:0:55:soft-hitwhistle.wav
448,192,54511,1,0,0:0:0:0:
192,192,54665,1,8,0:0:0:60:soft-hitclap.wav
320,192,54665,128,0,54819:0:0:0:0:
448,192,54665,1,0,0:0:0:0:
192,192,54819,128,0,54973:0:0:0:0:
64,192,54973,1,2,0:0:0:55:soft-hitwhistle.wav
448,192,54973,128,0,55127:0:0:0:0:
64,192,55127,1,2,0:0:0:55:soft-hitwhistle.wav
320,192,55127,128,0,55281:0:0:0:0:
64,192,55281,128,8,55435:0:0:0:60:soft-hitclap.wav
192,192,55281,1,0,0:0:0:0:
448,192,55281,1,0,0:0:0:0:
320,192,55435,128,0,55588:0:0:0:0:
64,192,55588,128,2,55896:0:0:0:55:soft-hitwhistle.wav
192,192,55588,128,0,55742:0:0:0:0:
448,192,55742,128,0,55896:0:0:0:0:
192,192,55896,128,8,56050:0:0:0:60:soft-hitclap.wav
320,192,55896,128,0,56204:0:0:0:0:
448,192,56050,128,0,56204:0:0:0:0:
64,192,56204,1,2,0:0:0:55:soft-hitwhistle.wav
192,192,56204,128,0,56358:0:0:0:0:
64,192,56358,1,2,0:0:0:55:soft-hitwhistle.wav
320,192,56358,128,0,56511:0:0:0:0:
64,192,56511,128,8,56665:0:0:0:60:soft-hitclap.wav
192,192,56511,1,0,0:0:0:0:
448,192,56511,1,0,0:0:0:0:
192,192,56665,1,2,0:0:0:55:soft-hitwhistle.wav
320,192,56665,1,0,0:0:0:0:
448,192,56665,128,0,56973:0:0:0:0:
64,192,56973,1,2,0:0:0:55:soft-hitwhistle.wav
192,192,56973,128,0,57127:0:0:0:0:
64,192,57127,1,8,0:0:0:60:soft-hitclap.wav
320,192,57127,128,0,57281:0:0:0:0:
448,192,57127,1,0,0:0:0:0:
448,192,57281,128,0,57435:0:0:0:0:
192,192,57435,128,2,57588:0:0:0:55:soft-hitwhistle.wav
320,192,57435,1,0,0:0:0:0:
64,192,57588,128,2,57742:0:0:0:55:soft-hitwhistle.wav
320,192,57588,1,0,0:0:0:0:
192,192,57742,1,8,0:0:0:60:soft-hitclap.wav
320,192,57742,128,4,58050:0:0:0:80:soft-hitfinish.wav
448,192,57742,1,0,0:0:0:0:
64,192,58050,128,2,58204:0:0:0:55:soft-hitwhistle.wav
448,192,58050,1,0,0:0:0:0:
320,192,58204,1,0,0:0:0:0:
192,192,58358,1,8,0:0:0:60:soft-hitclap.wav
448,192,58358,1,0,0:0:0:0:
64,192,58511,128,2,58665:0:0:0:55:soft-hitwhistle.wav
320,192,58511,1,0,0:0:0:0:
448,192,58511,1,0,0:0:0:0:
192,192,58665,1,0,0:0:0:0:
64,192,58819,1,0,0:0:0:0:
320,192,58819,1,0,0:0:0:0:
64,192,58973,1,8,0:0:0:60:soft-hitclap.wav
192,192,58973,128,0,59127:0:0:0:0:
448,192,58973,1,0,0:0:0:0:
320,192,59127,1,0,0:0:0:0:
64,192,59281,1,0,0:0:0:0:
192,192,59435,128,2,59588:0:0:0:55:soft-hitwhistle.wav
320,192,59435,1,0,0:0:0:0:
448,192,59435,1,0,0:0:0:0:
64,192,59588,1,0,0:0:0:30:soft-hitclap.wav
320,192,59588,1,0,0:0:0:0:
192,192,59742,1,0,0:0:0:0:
448,192,59742,1,0,0:0:0:0:
64,192,59896,1,2,0:0:0:55:soft-hitwhistle.wav
320,192,59896,1,0,0:0:0:0:
448,192,59896,128,0,60050:0:0:0:0:
64,192,60050,1,2,0:0:0:55:soft-hitwhistle.wav
192,192,60050,1,0,0:0:0:0:
192,192,60204,1,8,0:0:0:60:soft-hitclap.wav
320,192,60204,1,4,0:0:0:80:soft-hitfinish.wav
448,192,60204,128,0,60358:0:0:0:0:
64,192,60358,1,0,0:0:0:0:
192,192,60511,1,2,0:0:0:55:soft-hitwhistle.wav
320,192,60511,128,0,60819:0:0:0:0:
448,192,60511,1,0,0:0:0:0:
64,192,60819,1,8,0:0:0:60:soft-hitclap.wav
192,192,60819,1,4,0:0:0:80:soft-hitfinish.wav
448,192,60819,1,0,0:0:0:0:
192,192,60973,1,2,0:0:0:55:soft-hitwhistle.wav
320,192,60973,1,0,0:0:0:0:
320,192,61127,1,0,0:0:0:30:soft-hitclap.wav
192,192,61281,1,2,0:0:0:55:soft-hitwhistle.wav
448,192,61281,1,0,0:0:0:0:
64,192,61435,1,8,0:0:0:60:soft-hitclap.wav
320,192,61435,1,0,0:0:0:0:
448,192,61435,1,0,0:0:0:0:
64,192,61588,1,8,0:0:0:60:soft-hitclap.wav
192,192,61588,128,4,61896:0:0:0:80:soft-hitfinish.wav
320,192,61588,1,0,0:0:0:0:
64,192,61896,1,2,0:0:0:55:soft-hitwhistle.wav
320,192,61896,1,0,0:0:0:0:
448,192,61896,1,0,0:0:0:0:
64,192,62050,1,8,0:0:0:60:soft-hitclap.wav
320,192,62050,1,0,0:0:0:0:
448,192,62050,1,0,0:0:0:0:
192,192,62127,1,0,0:0:0:0:
448,192,62204,1,0,0:0:0:0:
320,192,62281,1,0,0:0:0:0:
64,192,62358,1,8,0:0:0:60:soft-hitclap.wav
192,192,62358,1,0,0:0:0:0:
448,192,62358,1,0,0:0:0:0:
64,192,62511,1,2,0:0:0:55:soft-hitwhistle.wav
320,192,62511,1,0,0:0:0:0:
192,192,62665,1,8,0:0:0:60:soft-hitclap.wav
320,192,62665,1,4,0:0:0:80:soft-hitfinish.wav
448,192,62665,128,0,62973:0:0:0:0:
64,192,62973,1,2,0:0:0:55:soft-hitwhistle.wav
192,192,62973,1,0,0:0:0:0:
320,192,62973,1,0,0:0:0:0:
64,192,63127,1,2,0:0:0:55:soft-hitwhistle.wav
192,192,63127,1,0,0:0:0:0:
64,192,63281,1,8,0:0:0:60:soft-hitclap.wav
320,192,63281,1,0,0:0:0:0:
448,192,63281,1,0,0:0:0:0:
192,192,63435,128,2,63742:0:0:0:55:soft-hitwhistle.wav
320,192,63435,1,0,0:0:0:0:
64,192,63742,1,2,0:0:0:55:soft-hitwhistle.wav
448,192,63742,1,0,0:0:0:0:
192,192,63896,1,8,0:0:0:60:soft-hitclap.wav
320,192,63896,1,0,0:0:0:0:
448,192,63896,1,0,0:0:0:0:
64,192,64050,128,2,64358:0:0:0:55:soft-hitwhistle.wav
320,192,64050,1,0,0:0:0:0:
320,192,64358,1,2,0:0:0:55:soft-hitwhistle.wav
448,192,64358,1,0,0:0:0:0:
64,192,64511,1,8,0:0:0:60:soft-hitclap.wav
192,192,64511,1,0,0:0:0:0:
448,192,64511,1,0,0:0:0:0:
320,192,64665,128,0,64742:0:0:0:0:
192,192,64819,128,0,64896:0:0:0:0:
64,192,64973,1,2,0:0:0:55:soft-hitwhistle.wav
320,192,64973,128,0,65050:0:0:0:0:
64,192,65127,1,8,0:0:0:60:soft-hitclap.wav
192,192,65127,128,4,65204:0:0:0:80:soft-hitfinish.wav
448,192,65127,1,0,0:0:0:0:
320,192,65281,128,0,65358:0:0:0:0:
64,192,65435,1,2,0:0:0:55:soft-hitwhistle.wav
192,192,65435,1,0,0:0:0:0:
448,192,65435,1,0,0:0:0:0:
64,192,65588,1,2,0:0:0:55:soft-hitwhistle.wav
448,192,65588,1,0,0:0:0:0:
192,192,65742,1,8,0:0:0:60:soft-hitclap.wav
320,192,65742,1,0,0:0:0:0:
448,192,65742,1,0,0:0:0:0:
64,192,65896,128,2,66204:0:0:0:55:soft-hitwhistle.wav
320,192,65896,1,0,0:0:0:0:
320,192,66204,1,2,0:0:0:55:soft-hitwhistle.wav
448,192,66204,1,0,0:0:0:0:
64,192,66358,1,8,0:0:0:60:soft-hitclap.wav
192,192,66358,1,0,0:0:0:0:
448,192,66358,1,0,0:0:0:0:
192,192,66511,1,2,0:0:0:55:soft-hitwhistle.wav
320,192,66511,128,0,66819:0:0:0:0:
64,192,66819,128,2,66896:0:0:0:55:soft-hitwhistle.wav
448,192,66819,1,0,0:0:0:0:
192,192,66973,128,8,67050:0:0:0:60:soft-hitclap.wav
320,192,66973,1,0,0:0:0:0:
448,192,66973,1,0,0:0:0:0:
320,192,67127,128,0,67204:0:0:0:0:
448,192,67281,128,0,67358:0:0:0:0:
64,192,67435,1,8,0:0:0:60:soft-hitclap.wav
192,192,67435,128,2,67511:0:0:0:55:soft-hitwhistle.wav
64,192,67588,1,8,0:0:0:60:soft-hitclap.wav
320,192,67588,128,4,67665:0:0:0:80:soft-hitfinish.wav
448,192,67588,1,0,0:0:0:0:
64,192,67742,128,0,67819:0:0:0:0:
320,192,67896,1,2,0:0:0:55:soft-hitwhistle.wav
448,192,67896,1,0,0:0:0:0:
320,192,68050,1,2,0:0:0:55:soft-hitwhistle.wav
448,192,68050,1,0,0:0:0:0:
64,192,68204,1,8,0:0:0:60:soft-hitclap.wav
192,192,68204,1,0,0:0:0:0:
320,192,68204,1,0,0:0:0:0:
192,192,68358,1,2,0:0:0:55:soft-hitwhistle.wav
448,192,68358,128,0,68665:0:0:0:0:
64,192,68665,1,2,0:0:0:55:soft-hitwhistle.wav
320,192,68665,1,0,0:0:0:0:
64,192,68819,1,8,0:0:0:60:soft-hitclap.wav
192,192,68819,1,0,0:0:0:0:
448,192,68819,1,0,0:0:0:0:
192,192,68973,128,2,69281:0:0:0:55:soft-hitwhistle.wav
320,192,68973,1,0,0:0:0:0:
448,192,68973,1,0,0:0:0:0:
64,192,69281,1,2,0:0:0:55:soft-hitwhistle.wav
448,192,69281,1,0,0:0:0:0:
192,192,69435,1,8,0:0:0:60:soft-hitclap.wav
320,192,69435,1,0,0:0:0:0:
448,192,69435,1,0,0:0:0:0:
64,192,69588,128,2,69896:0:0:0:55:soft-hitwhistle.wav
192,192,69588,1,0,0:0:0:0:
320,192,69588,1,0,0:0:0:0:
320,192,69896,1,2,0:0:0:55:soft-hitwhistle.wav
448,192,69896,1,0,0:0:0:0:
64,192,70050,1,8,0:0:0:60:soft-hitclap.wav
192,192,70050,1,4,0:0:0:80:soft-hitfinish.wav
448,192,70050,128,0,70204:0:0:0:0:
64,192,70358,1,2,0:0:0:55:soft-hitwhistle.wav
320,192,70358,1,0,0:0:0:30:soft-hitclap.wav
448,192,70358,1,0,0:0:0:0:
192,192,70435,1,0,0:0:0:30:soft-hitclap.wav
448,192,70511,1,0,0:0:0:30:soft-hitclap.wav
320,192,70588,1,0,0:0:0:30:soft-hitclap.wav
64,192,70665,1,2,0:0:0:55:soft-hitwhistle.wav
192,192,70665,1,0,0:0:0:30:soft-hitclap.wav
320,192,70742,1,0,0:0:0:30:soft-hitclap.wav
448,192,70819,1,0,0:0:0:30:soft-hitclap.wav
192,192,70896,1,0,0:0:0:30:soft-hitclap.wav
64,192,70973,1,2,0:0:0:55:soft-hitwhistle.wav
320,192,70973,1,0,0:0:0:30:soft-hitclap.wav
448,192,71050,1,0,0:0:0:30:soft-hitclap.wav
192,192,71127,1,0,0:0:0:30:soft-hitclap.wav
320,192,71204,1,0,0:0:0:30:soft-hitclap.wav
192,192,71281,1,2,0:0:0:55:soft-hitwhistle.wav
448,192,71281,1,0,0:0:0:30:soft-hitclap.wav
64,192,71435,1,8,0:0:0:60:soft-hitclap.wav
192,192,71435,1,4,0:0:0:80:soft-hitfinish.wav
448,192,71435,1,0,0:0:0:0:
320,192,71511,1,0,0:0:0:0:
64,192,71588,1,2,0:0:0:55:soft-hitwhistle.wav
448,192,71588,1,0,0:0:0:0:
192,192,71665,1,0,0:0:0:30:soft-hitclap.wav
64,192,71742,1,0,0:0:0:30:soft-hitclap.wav
320,192,71742,1,0,0:0:0:0:
448,192,71819,1,0,0:0:0:30:soft-hitclap.wav
64,192,71896,1,8,0:0:0:60:soft-hitclap.wav
192,192,71896,1,2,0:0:0:55:soft-hitwhistle.wav
320,192,71973,1,0,0:0:0:0:
192,192,72050,1,0,0:0:0:0:
320,192,72127,1,2,0:0:0:55:soft-hitwhistle.wav
64,192,72204,128,8,72281:0:0:0:60:soft-hitclap.wav
448,192,72204,128,4,72281:0:0:0:80:soft-hitfinish.wav
64,192,72358,1,2,0:0:0:55:soft-hitwhistle.wav
448,192,72358,1,0,0:0:0:0:
192,192,72511,128,8,72588:0:0:0:60:soft-hitclap.wav
320,192,72511,128,4,72588:0:0:0:80:soft-hitfinish.wav
192,192,72665,1,2,0:0:0:55:soft-hitwhistle.wav
320,192,72665,1,0,0:0:0:0:
64,192,72819,128,8,72973:0:0:0:60:soft-hitclap.wav
320,192,72819,1,4,0:0:0:80:soft-hitfinish.wav
448,192,72819,128,0,72973:0:0:0:0:
64,192,73127,128,8,73281:0:0:0:60:soft-hitclap.wav
192,192,73127,1,0,0:0:0:0:
448,192,73127,128,0,73281:0:0:0:0:
64,192,73435,1,8,0:0:0:60:soft-hitclap.wav
192,192,73435,1,0,0:0:0:0:
448,192,73435,1,0,0:0:0:0:
192,192,73588,1,2,0:0:0:55:soft-hitwhistle.wav
320,192,73588,1,0,0:0:0:0:
64,192,73742,1,8,0:0:0:60:soft-hitclap.wav
320,192,73742,1,0,0:0:0:0:
448,192,73742,1,0,0:0:0:0:
192,192,73896,1,2,0:0:0:55:soft-hitwhistle.wav
320,192,73896,1,0,0:0:0:0:
64,192,74050,128,8,74204:0:0:0:60:soft-hitclap.wav
320,192,74050,128,0,74204:0:0:0:0:
448,192,74050,1,0,0:0:0:0:
64,192,74358,128,8,74511:0:0:0:60:soft-hitclap.wav
192,192,74358,1,0,0:0:0:0:
320,192,74358,128,0,74511:0:0:0:0:
64,192,74665,1,8,0:0:0:60:soft-hitclap.wav
192,192,74665,1,0,0:0:0:0:
320,192,74665,1,0,0:0:0:0:
192,192,74819,1,2,0:0:0:55:soft-hitwhistle.wav
448,192,74819,1,0,0:0:0:0:
64,192,74973,1,8,0:0:0:60:soft-hitclap.wav
320,192,74973,1,0,0:0:0:0:
448,192,74973,1,0,0:0:0:0:
192,192,75127,1,2,0:0:0:55:soft-hitwhistle.wav
448,192,75127,1,0,0:0:0:0:
192,192,75281,128,8,75435:0:0:0:60:soft-hitclap.wav
320,192,75281,128,0,75435:0:0:0:0:
448,192,75281,1,0,0:0:0:0:
64,192,75588,1,8,0:0:0:60:soft-hitclap.wav
192,192,75588,128,0,75742:0:0:0:0:
320,192,75588,128,0,75742:0:0:0:0:
64,192,75896,1,8,0:0:0:60:soft-hitclap.wav
192,192,75896,1,0,0:0:0:0:
320,192,75896,1,0,0:0:0:0:
64,192,76050,1,2,0:0:0:55:soft-hitwhistle.wav
448,192,76050,1,0,0:0:0:0:
192,192,76204,1,8,0:0:0:60:soft-hitclap.wav
320,192,76204,1,0,0:0:0:0:
448,192,76204,1,0,0:0:0:0:
64,192,76358,1,2,0:0:0:55:soft-hitwhistle.wav
448,192,76358,1,0,0:0:0:0:
64,192,76511,1,8,0:0:0:60:soft-hitclap.wav
192,192,76511,128,0,76665:0:0:0:0:
448,192,76511,128,0,76665:0:0:0:0:
192,192,76819,128,8,76973:0:0:0:60:soft-hitclap.wav
320,192,76819,1,0,0:0:0:0:
448,192,76819,128,0,76973:0:0:0:0:
192,192,77127,1,8,0:0:0:60:soft-hitclap.wav
320,192,77127,1,0,0:0:0:0:
448,192,77127,1,0,0:0:0:0:
64,192,77281,1,2,0:0:0:55:soft-hitwhistle.wav
320,192,77281,1,0,0:0:0:0:
64,192,77435,1,8,0:0:0:60:soft-hitclap.wav
192,192,77435,1,4,0:0:0:80:soft-hitfinish.wav
448,192,77435,1,0,0:0:0:0:
64,192,77588,1,2,0:0:0:55:soft-hitwhistle.wav
320,192,77588,1,0,0:0:0:0:
192,192,77742,1,8,0:0:0:60:soft-hitclap.wav
320,192,77742,128,4,77896:0:0:0:80:soft-hitfinish.wav
448,192,77742,128,0,77896:0:0:0:0:
64,192,78050,1,8,0:0:0:60:soft-hitclap.wav
320,192,78050,128,0,78204:0:0:0:0:
448,192,78050,128,0,78204:0:0:0:0:
64,192,78358,1,8,0:0:0:60:soft-hitclap.wav
192,192,78358,1,0,0:0:0:0:
448,192,78358,1,0,0:0:0:0:
192,192,78511,1,2,0:0:0:55:soft-hitwhistle.wav
320,192,78511,1,0,0:0:0:0:
64,192,78665,1,8,0:0:0:60:soft-hitclap.wav
320,192,78665,1,0,0:0:0:0:
448,192,78665,1,0,0:0:0:0:
192,192,78819,1,2,0:0:0:55:soft-hitwhistle.wav
320,192,78819,1,0,0:0:0:0:
64,192,78973,128,8,79127:0:0:0:60:soft-hitclap.wav
192,192,78973,128,0,79127:0:0:0:0:
448,192,78973,1,0,0:0:0:0:
64,192,79281,128,8,79435:0:0:0:60:soft-hitclap.wav
192,192,79281,128,0,79435:0:0:0:0:
320,192,79281,1,0,0:0:0:0:
64,192,79588,1,8,0:0:0:60:soft-hitclap.wav
320,192,79588,128,0,79742:0:0:0:0:
448,192,79588,128,0,79742:0:0:0:0:
192,192,79742,1,2,0:0:0:55:soft-hitwhistle.wav
192,192,79896,1,8,0:0:0:60:soft-hitclap.wav
320,192,79896,128,0,80050:0:0:0:0:
448,192,79896,128,0,80050:0:0:0:0:
64,192,80050,1,2,0:0:0:55:soft-hitwhistle.wav
64,192,80204,128,8,80358:0:0:0:60:soft-hitclap.wav
192,192,80204,1,0,0:0:0:0:
448,192,80204,128,0,80358:0:0:0:0:
64,192,80511,1,8,0:0:0:60:soft-hitclap.wav
320,192,80511,1,0,0:0:0:0:
448,192,80511,1,0,0:0:0:0:
64,192,80665,128,0,80819:0:0:0:0:
448,192,80665,128,0,80819:0:0:0:0:
192,192,80819,1,8,0:0:0:60:soft-hitclap.wav
320,192,80819,1,0,0:0:0:0:
64,192,80973,1,2,0:0:0:55:soft-hitwhistle.wav
320,192,80973,1,0,0:0:0:0:
192,192,81127,1,8,0:0:0:60:soft-hitclap.wav
320,192,81127,1,0,0:0:0:0:
448,192,81127,1,0,0:0:0:0:
64,192,81281,1,2,0:0:0:55:soft-hitwhistle.wav
320,192,81281,1,0,0:0:0:0:
64,192,81435,1,8,0:0:0:60:soft-hitclap.wav
192,192,81435,128,0,81588:0:0:0:0:
448,192,81435,128,0,81588:0:0:0:0:
192,192,81742,1,8,0:0:0:60:soft-hitclap.wav
320,192,81742,1,0,0:0:0:0:
448,192,81742,1,0,0:0:0:0:
192,192,81896,128,0,82050:0:0:0:0:
448,192,81896,128,0,82050:0:0:0:0:
64,192,82050,1,8,0:0:0:60:soft-hitclap.wav
320,192,82050,1,0,0:0:0:0:
192,192,82204,1,2,0:0:0:55:soft-hitwhistle.wav
448,192,82204,1,0,0:0:0:0:
64,192,82358,1,8,0:0:0:60:soft-hitclap.wav
192,192,82358,1,0,0:0:0:0:
320,192,82358,1,0,0:0:0:0:
192,192,82511,1,2,0:0:0:55:soft-hitwhistle.wav
448,192,82511,1,0,0:0:0:0:
64,192,82665,1,2,0:0:0:55:soft-hitwhistle.wav
320,192,82665,1,4,0:0:0:80:soft-hitfinish.wav
448,192,82665,1,0,0:0:0:0:
64,192,82819,1,0,0:0:0:0:
64,192,82973,1,8,0:0:0:60:soft-hitclap.wav
192,192,82973,1,0,0:0:0:0:
448,192,82973,1,0,0:0:0:0:
64,192,83127,1,0,0:0:0:0:
64,192,83281,1,2,0:0:0:55:soft-hitwhistle.wav
320,192,83281,1,0,0:0:0:0:
64,192,83435,1,2,0:0:0:55:soft-hitwhistle.wav
320,192,83435,1,0,0:0:0:0:
64,192,83588,1,8,0:0:0:60:soft-hitclap.wav
192,192,83588,1,0,0:0:0:0:
448,192,83588,1,0,0:0:0:0:
64,192,83742,1,0,0:0:0:0:
64,192,83896,1,2,0:0:0:55:soft-hitwhistle.wav
192,192,83896,1,0,0:0:0:0:
448,192,83896,1,0,0:0:0:0:
448,192,84050,1,0,0:0:0:0:
64,192,84204,1,8,0:0:0:60:soft-hitclap.wav
192,192,84204,1,0,0:0:0:0:
448,192,84204,1,0,0:0:0:0:
448,192,84358,1,0,0:0:0:0:
192,192,84511,1,2,0:0:0:55:soft-hitwhistle.wav
448,192,84511,1,0,0:0:0:0:
192,192,84665,1,2,0:0:0:55:soft-hitwhistle.wav
448,192,84665,1,0,0:0:0:0:
64,192,84819,1,8,0:0:0:60:soft-hitclap.wav
320,192,84819,1,0,0:0:0:0:
448,192,84819,1,0,0:0:0:0:
448,192,84973,1,0,0:0:0:0:
64,192,85127,1,2,0:0:0:55:soft-hitwhistle.wav
192,192,85127,1,0,0:0:0:0:
448,192,85127,1,0,0:0:0:0:
192,192,85281,1,0,0:0:0:0:
192,192,85435,1,8,0:0:0:60:soft-hitclap.wav
320,192,85435,1,0,0:0:0:0:
448,192,85435,1,0,0:0:0:0:
192,192,85588,1,0,0:0:0:0:
192,192,85742,1,2,0:0:0:55:soft-hitwhistle.wav
448,192,85742,1,0,0:0:0:0:
192,192,85896,1,2,0:0:0:55:soft-hitwhistle.wav
448,192,85896,1,0,0:0:0:0:
64,192,86050,1,8,0:0:0:60:soft-hitclap.wav
192,192,86050,1,0,0:0:0:0:
320,192,86050,1,0,0:0:0:0:
192,192,86204,1,0,0:0:0:0:
192,192,86358,1,2,0:0:0:55:soft-hitwhistle.wav
320,192,86358,1,0,0:0:0:0:
448,192,86358,1,0,0:0:0:0:
320,192,86511,1,0,0:0:0:0:
64,192,86665,1,8,0:0:0:60:soft-hitclap.wav
320,192,86665,1,0,0:0:0:0:
448,192,86665,1,0,0:0:0:0:
320,192,86819,1,0,0:0:0:0:
64,192,86973,1,2,0:0:0:55:soft-hitwhistle.wav
320,192,86973,1,0,0:0:0:0:
64,192,87127,1,2,0:0:0:55:soft-hitwhistle.wav
320,192,87127,1,0,0:0:0:0:
192,192,87281,1,8,0:0:0:60:soft-hitclap.wav
320,192,87281,1,4,0:0:0:80:soft-hitfinish.wav
448,192,87281,1,0,0:0:0:0:
320,192,87435,1,0,0:0:0:0:
64,192,87588,1,8,0:0:0:60:soft-hitclap.wav
320,192,87588,1,4,0:0:0:80:soft-hitfinish.wav
448,192,87588,1,0,0:0:0:0:
64,192,87742,1,2,0:0:0:55:soft-hitwhistle.wav
192,192,87742,1,0,0:0:0:0:
192,192,87896,1,8,0:0:0:60:soft-hitclap.wav
320,192,87896,1,0,0:0:0:0:
448,192,87896,1,0,0:0:0:0:
64,192,88050,1,2,0:0:0:55:soft-hitwhistle.wav
448,192,88050,1,0,0:0:0:0:
64,192,88204,1,8,0:0:0:60:soft-hitclap.wav
192,192,88204,1,0,0:0:0:0:
320,192,88204,1,0,0:0:0:0:
192,192,88358,1,2,0:0:0:55:soft-hitwhistle.wav
448,192,88358,1,0,0:0:0:0:
64,192,88511,1,8,0:0:0:60:soft-hitclap.wav
320,192,88511,1,0,0:0:0:0:
448,192,88511,1,0,0:0:0:0:
192,192,88665,1,2,0:0:0:55:soft-hitwhistle.wav
320,192,88665,1,0,0:0:0:0:
64,192,88819,1,8,0:0:0:60:soft-hitclap.wav
192,192,88819,1,0,0:0:0:0:
448,192,88819,1,0,0:0:0:0:
320,192,88973,1,2,0:0:0:55:soft-hitwhistle.wav
448,192,88973,1,0,0:0:0:0:
64,192,89127,1,8,0:0:0:60:soft-hitclap.wav
192,192,89127,1,0,0:0:0:0:
320,192,89127,1,0,0:0:0:0:
192,192,89281,1,2,0:0:0:55:soft-hitwhistle.wav
448,192,89281,1,0,0:0:0:0:
64,192,89435,1,8,0:0:0:60:soft-hitclap.wav
320,192,89435,1,0,0:0:0:0:
448,192,89435,1,0,0:0:0:0:
192,192,89588,1,2,0:0:0:55:soft-hitwhistle.wav
320,192,89588,1,0,0:0:0:0:
64,192,89742,1,8,0:0:0:60:soft-hitclap.wav
192,192,89742,1,4,0:0:0:80:soft-hitfinish.wav
448,192,89742,1,0,0:0:0:0:
64,192,89896,1,2,0:0:0:55:soft-hitwhistle.wav
320,192,89896,1,0,0:0:0:0:
192,192,90050,1,8,0:0:0:60:soft-hitclap.wav
320,192,90050,1,4,0:0:0:80:soft-hitfinish.wav
448,192,90050,1,0,0:0:0:0:
192,192,90204,1,8,0:0:0:60:soft-hitclap.wav
320,192,90204,1,0,0:0:0:0:
448,192,90204,1,0,0:0:0:0:
64,192,90511,1,8,0:0:0:60:soft-hitclap.wav
192,192,90511,1,0,0:0:0:0:
320,192,90511,1,0,0:0:0:0:
64,192,90819,1,8,0:0:0:60:soft-hitclap.wav
192,192,90819,1,0,0:0:0:0:
320,192,90819,1,0,0:0:0:0:
64,192,91127,1,8,0:0:0:60:soft-hitclap.wav
192,192,91127,1,0,0:0:0:0:
448,192,91127,1,0,0:0:0:0:
64,192,91281,128,8,92511:0:0:0:60:soft-hitclap.wav
192,192,91281,1,0,0:0:0:0:
448,192,91281,1,0,0:0:0:0:
192,192,91742,1,0,0:0:0:0:
448,192,91896,1,0,0:0:0:0:
320,192,92511,128,0,92588:0:0:0:0:
448,192,92665,1,0,0:0:0:0:
192,192,92819,128,8,92896:0:0:0:60:soft-hitclap.wav
320,192,92973,1,0,0:0:0:0:
64,192,93127,128,0,93204:0:0:0:0:
192,192,93281,1,0,0:0:0:0:
64,192,93435,1,8,0:0:0:60:soft-hitclap.wav
320,192,93435,1,0,0:0:0:0:
448,192,93588,128,0,93665:0:0:0:0:
192,192,93742,1,0,0:0:0:0:
320,192,93896,128,0,93973:0:0:0:0:
64,192,94050,1,8,0:0:0:60:soft-hitclap.wav
448,192,94050,1,0,0:0:0:0:
192,192,94204,128,0,94281:0:0:0:0:
320,192,94358,1,0,0:0:0:0:
448,192,94511,1,0,0:0:0:0:
64,192,94665,1,8,0:0:0:60:soft-hitclap.wav
192,192,94665,1,0,0:0:0:0:
448,192,94819,1,0,0:0:0:0:
192,192,94973,128,0,95050:0:0:0:0:
64,192,95127,1,0,0:0:0:0:
320,192,95281,128,8,95358:0:0:0:60:soft-hitclap.wav
192,192,95435,1,0,0:0:0:0:
448,192,95588,128,0,95665:0:0:0:0:
320,192,95742,1,0,0:0:0:0:
192,192,95896,1,8,0:0:0:60:soft-hitclap.wav
448,192,95896,1,0,0:0:0:0:
64,192,96050,128,0,96127:0:0:0:0:
320,192,96204,1,0,0:0:0:0:
192,192,96358,128,0,96435:0:0:0:0:
64,192,96511,128,8,96588:0:0:0:60:soft-hitclap.wav
448,192,96511,1,0,0:0:0:0:
320,192,96665,128,0,96742:0:0:0:0:
192,192,96819,128,0,96896:0:0:0:0:
448,192,96973,1,0,0:0:0:0:
64,192,97127,1,8,0:0:0:60:soft-hitclap.wav
192,192,97127,128,0,97435:0:0:0:0:
64,192,97435,1,2,0:0:0:55:soft-hitwhistle.wav
448,192,97435,1,0,0:0:0:0:
320,192,97588,128,0,97742:0:0:0:0:
64,192,97742,1,2,0:0:0:55:soft-hitwhistle.wav
448,192,97742,128,0,97896:0:0:0:0:
320,192,97896,1,0,0:0:0:0:
192,192,98050,128,2,98204:0:0:0:55:soft-hitwhistle.wav
448,192,98050,1,0,0:0:0:0:
64,192,98204,128,0,98358:0:0:0:0:
192,192,98358,1,2,0:0:0:55:soft-hitwhistle.wav
448,192,98358,1,0,0:0:0:0:
64,192,98511,128,0,98819:0:0:0:0:
320,192,98665,1,2,0:0:0:55:soft-hitwhistle.wav
448,192,98665,1,0,0:0:0:0:
192,192,98819,1,0,0:0:0:0:
192,192,98973,128,2,99127:0:0:0:55:soft-hitwhistle.wav
448,192,98973,1,0,0:0:0:0:
448,192,99127,128,0,99281:0:0:0:0:
64,192,99281,128,2,99435:0:0:0:55:soft-hitwhistle.wav
192,192,99281,1,0,0:0:0:0:
320,192,99435,128,8,99588:0:0:0:60:soft-hitclap.wav
448,192,99435,1,0,0:0:0:0:
64,192,99588,1,8,0:0:0:60:soft-hitclap.wav
192,192,99588,1,0,0:0:0:0:
320,192,99665,1,8,0:0:0:60:soft-hitclap.wav
448,192,99665,1,0,0:0:0:0:
64,192,99742,1,8,0:0:0:60:soft-hitclap.wav
192,192,99742,1,0,0:0:0:0:
320,192,99819,1,8,0:0:0:60:soft-hitclap.wav
64,192,99896,128,2,100050:0:0:0:55:soft-hitwhistle.wav
192,192,99896,1,4,0:0:0:80:soft-hitfinish.wav
448,192,99896,1,0,0:0:0:0:
320,192,100050,1,0,0:0:0:0:
64,192,100204,1,8,0:0:0:60:soft-hitclap.wav
192,192,100204,128,0,100358:0:0:0:0:
448,192,100204,1,0,0:0:0:0:
320,192,100358,1,2,0:0:0:55:soft-hitwhistle.wav
448,192,100358,128,0,100511:0:0:0:0:
64,192,100511,1,8,0:0:0:60:soft-hitclap.wav
192,192,100511,1,0,0:0:0:0:
320,192,100511,1,0,0:0:0:0:
64,192,100665,128,2,100819:0:0:0:55:soft-hitwhistle.wav
448,192,100665,1,0,0:0:0:0:
192,192,100819,1,8,0:0:0:60:soft-hitclap.wav
320,192,100819,1,0,0:0:0:0:
448,192,100819,1,0,0:0:0:0:
64,192,100973,1,8,0:0:0:60:soft-hitclap.wav
192,192,100973,128,4,101281:0:0:0:80:soft-hitfinish.wav
448,192,100973,1,0,0:0:0:0:
64,192,101281,1,2,0:0:0:55:soft-hitwhistle.wav
320,192,101281,128,0,101435:0:0:0:0:
64,192,101435,1,8,0:0:0:60:soft-hitclap.wav
192,192,101435,1,0,0:0:0:0:
448,192,101435,128,0,101588:0:0:0:0:
192,192,101588,1,0,0:0:0:30:soft-hitclap.wav
320,192,101665,1,0,0:0:0:30:soft-hitclap.wav
64,192,101742,1,2,0:0:0:55:soft-hitwhistle.wav
192,192,101742,1,0,0:0:0:0:
448,192,101742,1,0,0:0:0:0:
192,192,101896,1,8,0:0:0:60:soft-hitclap.wav
448,192,101896,1,0,0:0:0:0:
320,192,102050,1,8,0:0:0:60:soft-hitclap.wav
448,192,102050,1,0,0:0:0:0:
64,192,102127,1,8,0:0:0:60:soft-hitclap.wav
192,192,102127,1,0,0:0:0:0:
320,192,102204,1,8,0:0:0:60:soft-hitclap.wav
448,192,102204,1,0,0:0:0:0:
192,192,102281,1,8,0:0:0:60:soft-hitclap.wav
64,192,102358,128,2,102665:0:0:0:55:soft-hitwhistle.wav
320,192,102358,1,4,0:0:0:80:soft-hitfinish.wav
448,192,102358,1,0,0:0:0:0:
192,192,102665,1,8,0:0:0:60:soft-hitclap.wav
320,192,102665,1,0,0:0:0:0:
448,192,102665,128,0,102973:0:0:0:0:
64,192,102973,1,2,0:0:0:55:soft-hitwhistle.wav
192,192,102973,1,0,0:0:0:0:
64,192,103127,1,2,0:0:0:55:soft-hitwhistle.wav
192,192,103127,1,0,0:0:0:0:
64,192,103281,1,8,0:0:0:60:soft-hitclap.wav
320,192,103281,1,0,0:0:0:0:
448,192,103281,1,0,0:0:0:0:
64,192,103435,128,2,103742:0:0:0:55:soft-hitwhistle.wav
192,192,103435,1,0,0:0:0:0:
320,192,103435,128,0,103742:0:0:0:0:
192,192,103742,128,2,103896:0:0:0:55:soft-hitwhistle.wav
448,192,103742,1,0,0:0:0:0:
64,192,103896,128,8,104050:0:0:0:60:soft-hitclap.wav
320,192,103896,1,0,0:0:0:0:
448,192,103896,1,0,0:0:0:0:
448,192,104050,128,0,104204:0:0:0:0:
64,192,104204,1,2,0:0:0:55:soft-hitwhistle.wav
320,192,104204,128,0,104358:0:0:0:0:
64,192,104358,1,2,0:0:0:55:soft-hitwhistle.wav
448,192,104358,128,0,104511:0:0:0:0:
64,192,104511,128,8,104665:0:0:0:60:soft-hitclap.wav
192,192,104511,1,0,0:0:0:0:
320,192,104511,1,0,0:0:0:0:
320,192,104665,128,0,104819:0:0:0:0:
64,192,104819,128,2,105127:0:0:0:55:soft-hitwhistle.wav
192,192,104819,1,0,0:0:0:0:
448,192,104819,128,0,104973:0:0:0:0:
192,192,104973,128,0,105127:0:0:0:0:
320,192,105127,128,8,105281:0:0:0:60:soft-hitclap.wav
448,192,105127,128,0,105435:0:0:0:0:
64,192,105281,128,0,105435:0:0:0:0:
192,192,105435,128,2,105588:0:0:0:55:soft-hitwhistle.wav
320,192,105435,1,0,0:0:0:0:
64,192,105588,128,2,105742:0:0:0:55:soft-hitwhistle.wav
320,192,105588,1,0,0:0:0:0:
192,192,105742,1,8,0:0:0:60:soft-hitclap.wav
320,192,105742,128,0,105896:0:0:0:0:
448,192,105742,1,0,0:0:0:0:
64,192,105896,1,2,0:0:0:55:soft-hitwhistle.wav
192,192,105896,128,0,106204:0:0:0:0:
448,192,105896,1,0,0:0:0:0:
320,192,106204,128,2,106358:0:0:0:55:soft-hitwhistle.wav
448,192,106204,1,0,0:0:0:0:
64,192,106358,1,8,0:0:0:60:soft-hitclap.wav
192,192,106358,128,0,106511:0:0:0:0:
448,192,106358,1,0,0:0:0:0:
320,192,106511,128,0,106665:0:0:0:0:
64,192,106665,128,2,106819:0:0:0:55:soft-hitwhistle.wav
448,192,106665,1,0,0:0:0:0:
192,192,106819,128,2,106973:0:0:0:55:soft-hitwhistle.wav
448,192,106819,1,0,0:0:0:0:
64,192,106973,1,8,0:0:0:60:soft-hitclap.wav
320,192,106973,1,4,0:0:0:80:soft-hitfinish.wav
448,192,106973,128,0,107127:0:0:0:0:
192,192,107127,128,0,107281:0:0:0:0:
64,192,107281,1,2,0:0:0:55:soft-hitwhistle.wav
320,192,107281,1,0,0:0:0:0:
448,192,107281,128,0,107435:0:0:0:0:
192,192,107435,1,0,0:0:0:0:
64,192,107588,1,8,0:0:0:60:soft-hitclap.wav
448,192,107588,1,0,0:0:0:0:
64,192,107742,128,2,107896:0:0:0:55:soft-hitwhistle.wav
192,192,107742,1,0,0:0:0:0:
320,192,107742,1,0,0:0:0:0:
448,192,107896,1,0,0:0:0:0:
64,192,108050,1,0,0:0:0:0:
192,192,108050,1,0,0:0:0:0:
64,192,108204,1,8,0:0:0:60:soft-hitclap.wav
320,192,108204,128,0,108358:0:0:0:0:
448,192,108204,1,0,0:0:0:0:
192,192,108358,1,0,0:0:0:0:
320,192,108511,1,0,0:0:0:0:
64,192,108665,128,2,108819:0:0:0:55:soft-hitwhistle.wav
192,192,108665,1,0,0:0:0:0:
448,192,108665,1,0,0:0:0:0:
320,192,108819,1,0,0:0:0:30:soft-hitclap.wav
64,192,108973,1,0,0:0:0:0:
320,192,108973,1,0,0:0:0:0:
64,192,109127,1,2,0:0:0:55:soft-hitwhistle.wav
192,192,109127,1,0,0:0:0:0:
448,192,109127,1,0,0:0:0:0:
192,192,109281,1,0,0:0:0:0:
448,192,109281,1,0,0:0:0:0:
64,192,109435,1,8,0:0:0:60:soft-hitclap.wav
320,192,109435,1,4,0:0:0:80:soft-hitfinish.wav
448,192,109435,128,0,109588:0:0:0:0:
64,192,109742,128,2,109896:0:0:0:55:soft-hitwhistle.wav
192,192,109742,1,0,0:0:0:0:
320,192,109742,1,0,0:0:0:0:
448,192,109896,1,0,0:0:0:0:
64,192,110050,128,8,110204:0:0:0:60:soft-hitclap.wav
192,192,110050,1,4,0:0:0:80:soft-hitfinish.wav
320,192,110050,1,0,0:0:0:0:
320,192,110204,1,2,0:0:0:55:soft-hitwhistle.wav
64,192,110358,128,0,110511:0:0:0:30:soft-hitclap.wav
448,192,110358,1,0,0:0:0:0:
448,192,110511,1,2,0:0:0:55:soft-hitwhistle.wav
64,192,110665,1,8,0:0:0:60:soft-hitclap.wav
192,192,110665,1,0,0:0:0:0:
320,192,110665,1,0,0:0:0:0:
192,192,110819,1,8,0:0:0:60:soft-hitclap.wav
320,192,110819,1,4,0:0:0:80:soft-hitfinish.wav
448,192,110819,128,0,111127:0:0:0:0:
64,192,111127,1,8,0:0:0:60:soft-hitclap.wav
192,192,111127,1,0,0:0:0:0:
320,192,111127,1,0,0:0:0:0:
64,192,111281,1,8,0:0:0:60:soft-hitclap.wav
192,192,111281,1,0,0:0:0:0:
320,192,111281,1,0,0:0:0:0:
320,192,111435,1,0,0:0:0:0:
64,192,111588,1,8,0:0:0:60:soft-hitclap.wav
192,192,111588,1,0,0:0:0:0:
448,192,111588,1,0,0:0:0:0:
192,192,111742,1,2,0:0:0:55:soft-hitwhistle.wav
320,192,111742,1,0,0:0:0:0:
64,192,111896,1,8,0:0:0:60:soft-hitclap.wav
192,192,111896,128,4,112050:0:0:0:80:soft-hitfinish.wav
448,192,111896,1,0,0:0:0:0:
64,192,112204,128,2,112511:0:0:0:55:soft-hitwhistle.wav
320,192,112204,1,4,0:0:0:80:soft-hitfinish.wav
448,192,112204,128,0,112358:0:0:0:0:
320,192,112358,128,0,112511:0:0:0:0:
192,192,112511,128,8,112665:0:0:0:60:soft-hitclap.wav
448,192,112511,128,0,112819:0:0:0:0:
320,192,112665,128,0,112819:0:0:0:0:
64,192,112819,128,2,112973:0:0:0:55:soft-hitwhistle.wav
192,192,112819,128,0,112973:0:0:0:0:
320,192,112973,128,2,113127:0:0:0:55:soft-hitwhistle.wav
448,192,112973,1,0,0:0:0:0:
64,192,113127,1,8,0:0:0:60:soft-hitclap.wav
192,192,113127,1,0,0:0:0:0:
448,192,113127,128,0,113281:0:0:0:0:
64,192,113281,128,2,113588:0:0:0:55:soft-hitwhistle.wav
192,192,113281,1,0,0:0:0:0:
320,192,113281,128,0,113588:0:0:0:0:
448,192,113435,1,0,0:0:0:0:
192,192,113588,1,2,0:0:0:55:soft-hitwhistle.wav
448,192,113588,128,0,113742:0:0:0:0:
64,192,113742,128,8,113896:0:0:0:60:soft-hitclap.wav
192,192,113742,128,0,114050:0:0:0:0:
320,192,113742,1,0,0:0:0:0:
448,192,113896,128,0,114050:0:0:0:0:
64,192,114050,128,2,114204:0:0:0:55:soft-hitwhistle.wav
320,192,114050,128,0,114204:0:0:0:0:
192,192,114204,1,2,0:0:0:55:soft-hitwhistle.wav
448,192,114204,128,0,114358:0:0:0:0:
64,192,114358,1,8,0:0:0:60:soft-hitclap.wav
192,192,114358,128,0,114511:0:0:0:0:
320,192,114358,1,0,0:0:0:0:
320,192,114511,128,0,114665:0:0:0:0:
64,192,114665,128,2,114819:0:0:0:55:soft-hitwhistle.wav
192,192,114665,1,0,0:0:0:0:
448,192,114665,128,0,114973:0:0:0:0:
192,192,114819,128,0,114973:0:0:0:0:
64,192,114973,128,8,115281:0:0:0:60:soft-hitclap.wav
320,192,114973,128,0,115127:0:0:0:0:
192,192,115127,128,0,115281:0:0:0:0:
320,192,115281,128,2,115435:0:0:0:55:soft-hitwhistle.wav
448,192,115281,128,0,115435:0:0:0:0:
64,192,115435,1,2,0:0:0:55:soft-hitwhistle.wav
192,192,115435,128,0,115588:0:0:0:0:
64,192,115588,128,8,115742:0:0:0:60:soft-hitclap.wav
320,192,115588,1,0,0:0:0:0:
448,192,115588,1,0,0:0:0:0:
192,192,115742,128,2,116050:0:0:0:55:soft-hitwhistle.wav
320,192,115742,1,0,0:0:0:0:
448,192,115742,128,0,116050:0:0:0:0:
64,192,115896,1,0,0:0:0:0:
64,192,116050,128,2,116204:0:0:0:55:soft-hitwhistle.wav
320,192,116050,1,0,0:0:0:0:
192,192,116204,128,8,116358:0:0:0:60:soft-hitclap.wav
320,192,116204,1,0,0:0:0:0:
448,192,116204,128,0,116511:0:0:0:0:
64,192,116358,128,0,116511:0:0:0:0:
192,192,116511,128,2,116665:0:0:0:55:soft-hitwhistle.wav
320,192,116511,128,0,116665:0:0:0:0:
64,192,116665,1,2,0:0:0:55:soft-hitwhistle.wav
448,192,116665,128,0,116819:0:0:0:0:
64,192,116819,1,8,0:0:0:60:soft-hitclap.wav
192,192,116819,128,4,116973:0:0:0:80:soft-hitfinish.wav
320,192,116819,1,0,0:0:0:0:
320,192,116973,128,0,117127:0:0:0:0:
64,192,117127,1,2,0:0:0:55:soft-hitwhistle.wav
448,192,117127,1,0,0:0:0:0:
192,192,117281,128,0,117435:0:0:0:0:
64,192,117435,1,8,0:0:0:60:soft-hitclap.wav
320,192,117435,1,0,0:0:0:0:
448,192,117435,1,0,0:0:0:0:
320,192,117588,128,0,117742:0:0:0:0:
64,192,117742,1,2,0:0:0:55:soft-hitwhistle.wav
448,192,117742,1,0,0:0:0:0:
192,192,117896,128,0,118050:0:0:0:0:
64,192,118050,1,8,0:0:0:60:soft-hitclap.wav
320,192,118050,1,0,0:0:0:0:
448,192,118050,1,0,0:0:0:0:
192,192,118204,1,2,0:0:0:55:soft-hitwhistle.wav
320,192,118204,1,0,0:0:0:0:
448,192,118204,128,0,118511:0:0:0:0:
64,192,118511,128,2,118665:0:0:0:55:soft-hitwhistle.wav
320,192,118511,1,0,0:0:0:0:
192,192,118665,1,8,0:0:0:60:soft-hitclap.wav
320,192,118665,1,0,0:0:0:0:
448,192,118665,1,0,0:0:0:0:
448,192,118819,128,0,118973:0:0:0:0:
192,192,118973,1,2,0:0:0:55:soft-hitwhistle.wav
320,192,118973,1,0,0:0:0:0:
64,192,119127,128,2,119281:0:0:0:55:soft-hitwhistle.wav
192,192,119281,1,8,0:0:0:60:soft-hitclap.wav
320,192,119281,1,4,0:0:0:80:soft-hitfinish.wav
448,192,119281,1,0,0:0:0:0:
320,192,119435,1,0,0:0:0:0:
64,192,119588,1,2,0:0:0:55:soft-hitwhistle.wav
192,192,119588,1,0,0:0:0:0:
448,192,119588,1,0,0:0:0:0:
192,192,119742,1,0,0:0:0:0:
64,192,119896,1,8,0:0:0:60:soft-hitclap.wav
320,192,119896,1,4,0:0:0:80:soft-hitfinish.wav
448,192,119896,1,0,0:0:0:0:
448,192,120050,1,2,0:0:0:55:soft-hitwhistle.wav
64,192,120204,1,8,0:0:0:60:soft-hitclap.wav
192,192,120204,1,0,0:0:0:0:
320,192,120204,1,0,0:0:0:0:
64,192,120358,1,2,0:0:0:55:soft-hitwhistle.wav
320,192,120358,1,0,0:0:0:0:
64,192,120511,1,8,0:0:0:60:soft-hitclap.wav
192,192,120511,1,0,0:0:0:0:
448,192,120511,1,0,0:0:0:0:
192,192,120665,1,8,0:0:0:60:soft-hitclap.wav
320,192,120665,1,4,0:0:0:80:soft-hitfinish.wav
448,192,120665,128,0,120973:0:0:0:0:
64,192,120973,1,2,0:0:0:55:soft-hitwhistle.wav
192,192,120973,1,0,0:0:0:0:
64,192,121127,1,8,0:0:0:60:soft-hitclap.wav
320,192,121127,1,0,0:0:0:0:
448,192,121127,1,0,0:0:0:0:
192,192,121281,1,0,0:0:0:0:
320,192,121358,1,0,0:0:0:0:
64,192,121435,1,2,0:0:0:55:soft-hitwhistle.wav
192,192,121435,1,0,0:0:0:30:soft-hitclap.wav
448,192,121435,1,0,0:0:0:0:
64,192,121588,1,0,0:0:0:30:soft-hitclap.wav
448,192,121588,1,0,0:0:0:0:
64,192,121742,1,8,0:0:0:60:soft-hitclap.wav
192,192,121742,1,0,0:0:0:0:
320,192,121819,1,8,0:0:0:60:soft-hitclap.wav
448,192,121819,1,0,0:0:0:0:
64,192,121896,1,8,0:0:0:60:soft-hitclap.wav
192,192,121896,1,0,0:0:0:0:
320,192,121973,1,8,0:0:0:60:soft-hitclap.wav
64,192,122050,128,2,122358:0:0:0:55:soft-hitwhistle.wav
192,192,122050,128,4,122204:0:0:0:80:soft-hitfinish.wav
448,192,122050,1,0,0:0:0:0:
320,192,122204,128,0,122358:0:0:0:0:
192,192,122358,128,8,122511:0:0:0:60:soft-hitclap.wav
448,192,122358,128,0,122665:0:0:0:0:
64,192,122511,128,0,122665:0:0:0:0:
192,192,122665,128,2,122819:0:0:0:55:soft-hitwhistle.wav
320,192,122665,128,0,122819:0:0:0:0:
64,192,122819,128,2,122973:0:0:0:55:soft-hitwhistle.wav
448,192,122819,1,0,0:0:0:0:
192,192,122973,1,8,0:0:0:60:soft-hitclap.wav
320,192,122973,1,0,0:0:0:0:
448,192,122973,128,0,123127:0:0:0:0:
64,192,123127,128,2,123435:0:0:0:55:soft-hitwhistle.wav
192,192,123127,1,0,0:0:0:0:
320,192,123127,128,0,123435:0:0:0:0:
448,192,123281,1,0,0:0:0:0:
192,192,123435,1,2,0:0:0:55:soft-hitwhistle.wav
448,192,123435,128,0,123588:0:0:0:0:
64,192,123588,1,8,0:0:0:60:soft-hitclap.wav
192,192,123588,128,0,123896:0:0:0:0:
320,192,123588,128,0,123742:0:0:0:0:
448,192,123742,128,0,123896:0:0:0:0:
64,192,123896,128,2,124050:0:0:0:55:soft-hitwhistle.wav
320,192,123896,128,0,124050:0:0:0:0:
192,192,124050,1,2,0:0:0:55:soft-hitwhistle.wav
448,192,124050,128,0,124204:0:0:0:0:
64,192,124204,1,8,0:0:0:60:soft-hitclap.wav
192,192,124204,128,0,124358:0:0:0:0:
320,192,124204,1,0,0:0:0:0:
64,192,124358,128,0,124511:0:0:0:0:
192,192,124511,1,2,0:0:0:55:soft-hitwhistle.wav
320,192,124511,128,0,124665:0:0:0:0:
448,192,124511,128,0,124819:0:0:0:0:
192,192,124665,128,0,124819:0:0:0:0:
64,192,124819,128,8,125127:0:0:0:60:soft-hitclap.wav
320,192,124819,128,0,124973:0:0:0:0:
448,192,124973,128,0,125127:0:0:0:0:
192,192,125127,128,2,125281:0:0:0:55:soft-hitwhistle.wav
320,192,125127,128,0,125281:0:0:0:0:
64,192,125281,1,2,0:0:0:55:soft-hitwhistle.wav
448,192,125281,128,0,125435:0:0:0:0:
64,192,125435,128,8,125588:0:0:0:60:soft-hitclap.wav
192,192,125435,1,0,0:0:0:0:
320,192,125435,1,0,0:0:0:0:
192,192,125588,128,2,125896:0:0:0:55:soft-hitwhistle.wav
320,192,125588,1,0,0:0:0:0:
448,192,125588,128,0,125896:0:0:0:0:
64,192,125742,1,0,0:0:0:0:
64,192,125896,128,2,126050:0:0:0:55:soft-hitwhistle.wav
320,192,125896,1,0,0:0:0:0:
192,192,126050,1,8,0:0:0:60:soft-hitclap.wav
320,192,126050,128,0,126358:0:0:0:0:
448,192,126050,128,0,126204:0:0:0:0:
64,192,126204,128,0,126358:0:0:0:0:
192,192,126358,128,2,126511:0:0:0:55:soft-hitwhistle.wav
448,192,126358,128,0,126511:0:0:0:0:
64,192,126511,1,2,0:0:0:55:soft-hitwhistle.wav
320,192,126511,128,0,126665:0:0:0:0:
64,192,126665,128,8,126819:0:0:0:60:soft-hitclap.wav
192,192,126665,1,4,0:0:0:80:soft-hitfinish.wav
448,192,126665,128,0,126819:0:0:0:0:
320,192,126819,128,0,126973:0:0:0:0:
64,192,126973,1,2,0:0:0:55:soft-hitwhistle.wav
192,192,126973,128,0,127127:0:0:0:0:
448,192,126973,1,0,0:0:0:0:
320,192,127127,1,0,0:0:0:0:
64,192,127281,1,8,0:0:0:60:soft-hitclap.wav
448,192,127281,1,0,0:0:0:0:
192,192,127435,1,2,0:0:0:55:soft-hitwhistle.wav
320,192,127435,128,0,127588:0:0:0:0:
448,192,127435,1,0,0:0:0:0:
64,192,127588,1,0,0:0:0:0:
192,192,127742,1,0,0:0:0:0:
320,192,127742,1,0,0:0:0:0:
64,192,127896,1,8,0:0:0:60:soft-hitclap.wav
192,192,127896,1,0,0:0:0:0:
448,192,127896,128,0,128050:0:0:0:0:
320,192,128050,1,0,0:0:0:0:
64,192,128204,1,0,0:0:0:0:
192,192,128204,1,0,0:0:0:0:
64,192,128358,128,2,128511:0:0:0:55:soft-hitwhistle.wav
320,192,128358,1,0,0:0:0:0:
448,192,128358,1,0,0:0:0:0:
192,192,128511,1,0,0:0:0:30:soft-hitclap.wav
448,192,128511,1,0,0:0:0:0:
320,192,128665,1,0,0:0:0:0:
64,192,128819,1,2,0:0:0:55:soft-hitwhistle.wav
192,192,128819,1,0,0:0:0:0:
448,192,128819,1,0,0:0:0:0:
192,192,128973,1,2,0:0:0:55:soft-hitwhistle.wav
64,192,129127,1,8,0:0:0:60:soft-hitclap.wav
320,192,129127,128,4,129281:0:0:0:80:soft-hitfinish.wav
448,192,129127,1,0,0:0:0:0:
64,192,129435,1,2,0:0:0:55:soft-hitwhistle.wav
192,192,129435,1,0,0:0:0:0:
448,192,129435,1,0,0:0:0:0:
192,192,129588,1,0,0:0:0:0:
64,192,129742,1,8,0:0:0:60:soft-hitclap.wav
320,192,129742,1,4,0:0:0:80:soft-hitfinish.wav
448,192,129742,1,0,0:0:0:0:
64,192,129896,1,2,0:0:0:55:soft-hitwhistle.wav
320,192,129896,1,0,0:0:0:0:
192,192,130050,1,0,0:0:0:30:soft-hitclap.wav
320,192,130204,1,2,0:0:0:55:soft-hitwhistle.wav
448,192,130204,1,0,0:0:0:0:
64,192,130358,1,8,0:0:0:60:soft-hitclap.wav
192,192,130358,1,0,0:0:0:0:
448,192,130358,1,0,0:0:0:0:
64,192,130511,128,8,130819:0:0:0:60:soft-hitclap.wav
192,192,130511,1,4,0:0:0:80:soft-hitfinish.wav
320,192,130511,1,0,0:0:0:0:
192,192,130819,1,8,0:0:0:60:soft-hitclap.wav
320,192,130819,1,0,0:0:0:0:
448,192,130819,1,0,0:0:0:0:
192,192,130973,1,8,0:0:0:60:soft-hitclap.wav
320,192,130973,1,0,0:0:0:0:
448,192,130973,1,0,0:0:0:0:
64,192,131127,1,0,0:0:0:0:
320,192,131281,1,8,0:0:0:60:soft-hitclap.wav
448,192,131281,1,0,0:0:0:0:
64,192,131435,1,2,0:0:0:55:soft-hitwhistle.wav
320,192,131435,1,0,0:0:0:0:
64,192,131588,1,8,0:0:0:60:soft-hitclap.wav
192,192,131588,1,4,0:0:0:80:soft-hitfinish.wav
448,192,131588,128,0,131896:0:0:0:0:
64,192,131896,128,2,132050:0:0:0:55:soft-hitwhistle.wav
192,192,131896,1,4,0:0:0:80:soft-hitfinish.wav
320,192,131896,128,0,132050:0:0:0:0:
448,192,132050,128,0,132204:0:0:0:0:
64,192,132204,1,8,0:0:0:60:soft-hitclap.wav
192,192,132204,128,0,132358:0:0:0:100:LR_Clap Fast Low.wav
320,192,132204,1,0,0:0:0:0:
64,192,132358,128,2,132511:0:0:0:55:soft-hitwhistle.wav
448,192,132358,1,0,0:0:0:0:
320,192,132511,128,2,132665:0:0:0:55:soft-hitwhistle.wav
448,192,132511,1,0,0:0:0:100:LR_Clap Fast Low.wav
192,192,132665,128,0,132819:0:0:0:0:
64,192,132819,1,8,0:0:0:60:soft-hitclap.wav
320,192,132819,1,0,0:0:0:100:LR_Clap Fast Low.wav
448,192,132819,128,0,132973:0:0:0:0:
64,192,132973,128,2,133281:0:0:0:55:soft-hitwhistle.wav
192,192,132973,1,0,0:0:0:0:
320,192,132973,128,0,133281:0:0:0:0:
448,192,133127,1,0,0:0:0:100:LR_Clap Fast Low.wav
192,192,133281,1,2,0:0:0:55:soft-hitwhistle.wav
448,192,133281,128,0,133435:0:0:0:0:
64,192,133435,1,8,0:0:0:60:soft-hitclap.wav
192,192,133435,128,0,133588:0:0:0:100:LR_Clap Fast Low.wav
320,192,133435,1,0,0:0:0:0:
64,192,133588,128,2,133742:0:0:0:55:soft-hitwhistle.wav
448,192,133588,1,0,0:0:0:0:
320,192,133742,128,2,133896:0:0:0:55:soft-hitwhistle.wav
448,192,133742,128,0,133896:0:0:0:100:LR_Clap Fast Low.wav
192,192,133896,128,0,134050:0:0:0:0:
64,192,134050,128,8,134204:0:0:0:60:soft-hitclap.wav
320,192,134050,1,0,0:0:0:100:LR_Clap Fast Low.wav
448,192,134050,128,0,134204:0:0:0:0:
320,192,134204,128,0,134358:0:0:0:0:
64,192,134358,128,2,134665:0:0:0:55:soft-hitwhistle.wav
192,192,134358,128,0,134511:0:0:0:0:
448,192,134358,1,0,0:0:0:0:
448,192,134511,128,0,134665:0:0:0:0:
192,192,134665,1,8,0:0:0:60:soft-hitclap.wav
320,192,134665,128,0,134819:0:0:0:100:LR_Clap Fast Low.wav
64,192,134819,1,2,0:0:0:55:soft-hitwhistle.wav
448,192,134819,128,0,134973:0:0:0:0:
64,192,134973,1,2,0:0:0:55:soft-hitwhistle.wav
192,192,134973,128,0,135127:0:0:0:100:LR_Clap Fast Low.wav
320,192,135127,128,0,135281:0:0:0:0:
64,192,135281,1,8,0:0:0:60:soft-hitclap.wav
192,192,135281,128,0,135435:0:0:0:100:LR_Clap Fast Low.wav
448,192,135281,1,0,0:0:0:0:
64,192,135435,128,2,135742:0:0:0:55:soft-hitwhistle.wav
320,192,135435,1,0,0:0:0:0:
448,192,135435,128,0,135742:0:0:0:0:
192,192,135588,1,0,0:0:0:100:LR_Clap Fast Low.wav
192,192,135742,128,2,135896:0:0:0:55:soft-hitwhistle.wav
320,192,135742,1,0,0:0:0:0:
64,192,135896,128,8,136050:0:0:0:60:soft-hitclap.wav
448,192,135896,1,0,0:0:0:100:LR_Clap Fast Low.wav
320,192,136050,128,2,136204:0:0:0:55:soft-hitwhistle.wav
448,192,136050,1,0,0:0:0:0:
64,192,136204,128,8,136358:0:0:0:60:soft-hitclap.wav
192,192,136204,1,4,0:0:0:80:soft-hitfinish.wav
448,192,136204,128,0,136358:0:0:0:100:LR_Clap Fast Low.wav
320,192,136358,1,2,0:0:0:55:soft-hitwhistle.wav
64,192,136511,128,8,136819:0:0:0:60:soft-hitclap.wav
192,192,136511,1,4,0:0:0:80:soft-hitfinish.wav
448,192,136511,128,0,136665:0:0:0:0:
192,192,136665,128,0,136819:0:0:0:0:
448,192,136819,1,0,0:0:0:0:
64,192,136973,1,2,0:0:0:55:soft-hitwhistle.wav
448,192,136973,1,0,0:0:0:0:
64,192,137127,1,8,0:0:0:60:soft-hitclap.wav
192,192,137127,1,4,0:0:0:80:soft-hitfinish.wav
320,192,137127,1,0,0:0:0:100:LR_Clap Fast Low.wav
192,192,137281,1,2,0:0:0:55:soft-hitwhistle.wav
448,192,137281,1,0,0:0:0:0:
64,192,137435,128,2,137588:0:0:0:55:soft-hitwhistle.wav
320,192,137435,1,0,0:0:0:100:LR_Clap Fast Low.wav
320,192,137588,128,2,137742:0:0:0:55:soft-hitwhistle.wav
64,192,137742,1,8,0:0:0:60:soft-hitclap.wav
192,192,137742,128,0,137896:0:0:0:100:LR_Clap Fast Low.wav
64,192,137896,128,2,138204:0:0:0:55:soft-hitwhistle.wav
320,192,137896,128,4,138204:0:0:0:80:soft-hitfinish.wav
448,192,137896,1,0,0:0:0:0:
192,192,138050,1,0,0:0:0:100:LR_Clap Fast Low.wav
192,192,138204,1,2,0:0:0:55:soft-hitwhistle.wav
448,192,138204,1,0,0:0:0:0:
64,192,138358,1,8,0:0:0:60:soft-hitclap.wav
320,192,138358,1,0,0:0:0:100:LR_Clap Fast Low.wav
448,192,138358,1,0,0:0:0:0:
192,192,138511,1,2,0:0:0:55:soft-hitwhistle.wav
320,192,138511,1,0,0:0:0:0:
192,192,138665,1,2,0:0:0:55:soft-hitwhistle.wav
448,192,138665,128,0,138819:0:0:0:100:LR_Clap Fast Low.wav
64,192,138819,128,0,138973:0:0:0:0:
320,192,138819,1,0,0:0:0:0:
320,192,138973,128,8,139127:0:0:0:60:soft-hitclap.wav
448,192,138973,128,0,139127:0:0:0:100:LR_Clap Fast Low.wav
192,192,139127,128,0,139281:0:0:0:0:
64,192,139281,1,2,0:0:0:55:soft-hitwhistle.wav
320,192,139281,128,4,139435:0:0:0:80:soft-hitfinish.wav
448,192,139281,128,0,139588:0:0:0:0:
192,192,139435,128,0,139588:0:0:0:0:
64,192,139588,1,8,0:0:0:60:soft-hitclap.wav
320,192,139588,1,0,0:0:0:0:
64,192,139742,128,2,140050:0:0:0:55:soft-hitwhistle.wav
320,192,139742,128,4,140050:0:0:0:80:soft-hitfinish.wav
448,192,139742,1,0,0:0:0:0:
192,192,139896,1,0,0:0:0:100:LR_Clap Fast Low.wav
192,192,140050,128,0,140204:0:0:0:0:
64,192,140204,1,8,0:0:0:60:soft-hitclap.wav
320,192,140204,128,4,140665:0:0:0:80:soft-hitfinish.wav
448,192,140204,128,0,140819:0:0:0:0:
192,192,140358,1,2,0:0:0:55:soft-hitwhistle.wav
64,192,140665,1,0,0:0:0:0:
192,192,140665,1,0,0:0:0:0:
64,192,140819,1,8,0:0:0:60:soft-hitclap.wav
192,192,140819,1,0,0:0:0:0:
320,192,140819,1,0,0:0:0:0:
448,192,140896,1,0,0:0:0:0:
64,192,140973,1,2,0:0:0:55:soft-hitwhistle.wav
192,192,141050,1,0,0:0:0:0:
64,192,141127,1,8,0:0:0:60:soft-hitclap.wav
320,192,141127,1,0,0:0:0:0:
448,192,141127,1,0,0:0:0:0:
64,192,141281,1,8,0:0:0:60:soft-hitclap.wav
320,192,141281,1,0,0:0:0:0:
448,192,141281,1,0,0:0:0:0:
