osu file format v14

[General]
AudioFilename: audio.mp3
AudioLeadIn: 0
PreviewTime: 42819
Countdown: 0
SampleSet: Soft
StackLeniency: 0.7
Mode: 3
LetterboxInBreaks: 0
SpecialStyle: 0
WidescreenStoryboard: 1

[Editor]
Bookmarks: 11281,21127,30973,43281,53127,62973,72819,82665,92511,102358,112204,122050,131896,141281
DistanceSpacing: 0.8
BeatDivisor: 4
GridSize: 4
TimelineZoom: 1.4

[Metadata]
Title:Kanzen Shouri*Esper Girl
TitleUnicode:完全勝利☆エスパーガール
Artist:*namirin
ArtistUnicode:*なみりん
Creator:Tailsdk
Version:Ash's Insane
Source:osu!
Tags:Asherz007 コイシテイク・プラネット NAMI-0001 Koishiteiku Planet japanese pop featured artist fa jpop
BeatmapID:2102194
BeatmapSetID:1004416

[Difficulty]
HPDrainRate:8.5
CircleSize:4
OverallDifficulty:9
ApproachRate:5
SliderMultiplier:1.4
SliderTickRate:1

[Events]
//Background and Video events
0,0,"sora-sagano-8sOZJ8JF0S8-unsplash edit 1440p.jpg",0,0
//Break Periods
//Storyboard Layer 0 (Background)
//Storyboard Layer 1 (Fail)
//Storyboard Layer 2 (Pass)
//Storyboard Layer 3 (Foreground)
//Storyboard Layer 4 (Overlay)
//Storyboard Sound Samples

[TimingPoints]
1435,307.692307692308,4,2,1,100,1,0
43281,-100,4,2,1,100,0,1
62973,-100,4,2,1,100,0,0
102358,-100,4,2,1,100,0,1
111588,-100,4,2,1,100,0,0
112204,-100,4,2,1,100,0,1
131896,-100,4,2,1,100,0,0
131897,-100,4,2,1,100,0,0

[HitObjects]
64,192,819,5,8,0:0:0:60:soft-hitclap.wav
192,192,819,1,0,0:0:0:0:
448,192,819,1,0,0:0:0:0:
192,192,973,1,2,0:0:0:55:soft-hitwhistle.wav
320,192,973,1,0,0:0:0:0:
64,192,1127,128,8,1435:0:0:0:60:soft-hitclap.wav
320,192,1127,1,4,0:0:0:80:soft-hitfinish.wav
448,192,1127,1,0,0:0:0:0:
192,192,1435,1,2,0:0:0:55:soft-hitwhistle.wav
320,192,1435,128,4,1588:0:0:0:80:soft-hitfinish.wav
448,192,1435,1,0,0:0:0:0:
192,192,1588,1,0,0:0:0:0:
64,192,1742,1,8,0:0:0:60:soft-hitclap.wav
320,192,1742,1,0,0:0:0:100:LR_Clap Fast Low.wav
448,192,1742,1,0,0:0:0:0:
192,192,1896,1,2,0:0:0:55:soft-hitwhistle.wav
320,192,1896,1,0,0:0:0:0:
64,192,2050,1,2,0:0:0:55:soft-hitwhistle.wav
448,192,2050,1,0,0:0:0:100:LR_Clap Fast Low.wav
320,192,2204,1,0,0:0:0:0:
64,192,2358,1,8,0:0:0:60:soft-hitclap.wav
192,192,2358,1,0,0:0:0:100:LR_Clap Fast Low.wav
448,192,2358,1,0,0:0:0:0:
320,192,2511,128,2,2819:0:0:0:55:soft-hitwhistle.wav
448,192,2511,1,0,0:0:0:0:
192,192,2665,1,0,0:0:0:100:LR_Clap Fast Low.wav
64,192,2819,1,2,0:0:0:55:soft-hitwhistle.wav
448,192,2819,1,0,0:0:0:0:
64,192,2973,1,8,0:0:0:60:soft-hitclap.wav
192,192,2973,1,0,0:0:0:100:LR_Clap Fast Low.wav
320,192,2973,1,0,0:0:0:0:
320,192,3127,1,2,0:0:0:55:soft-hitwhistle.wav
448,192,3127,1,0,0:0:0:0:
64,192,3281,1,2,0:0:0:55:soft-hitwhistle.wav
192,192,3281,1,0,0:0:0:100:LR_Clap Fast Low.wav
448,192,3435,1,0,0:0:0:0:
64,192,3588,1,8,0:0:0:60:soft-hitclap.wav
192,192,3588,1,0,0:0:0:100:LR_Clap Fast Low.wav
320,192,3588,1,0,0:0:0:0:
448,192,3742,1,0,0:0:0:0:
192,192,3896,1,2,0:0:0:55:soft-hitwhistle.wav
320,192,3896,128,0,4050:0:0:0:0:
64,192,4050,1,0,0:0:0:0:
192,192,4204,1,8,0:0:0:60:soft-hitclap.wav
320,192,4204,1,0,0:0:0:100:LR_Clap Fast Low.wav
448,192,4204,1,0,0:0:0:0:
64,192,4358,1,2,0:0:0:55:soft-hitwhistle.wav
320,192,4358,1,0,0:0:0:0:
192,192,4511,1,2,0:0:0:55:soft-hitwhistle.wav
448,192,4511,1,0,0:0:0:100:LR_Clap Fast Low.wav
320,192,4665,1,0,0:0:0:0:
64,192,4819,1,8,0:0:0:60:soft-hitclap.wav
192,192,4819,1,0,0:0:0:100:LR_Clap Fast Low.wav
448,192,4819,1,0,0:0:0:0:
64,192,4973,1,2,0:0:0:55:soft-hitwhistle.wav
320,192,4973,128,0,5281:0:0:0:0:
192,192,5127,1,0,0:0:0:100:LR_Clap Fast Low.wav
64,192,5281,1,2,0:0:0:55:soft-hitwhistle.wav
448,192,5281,1,0,0:0:0:0:
192,192,5435,1,8,0:0:0:60:soft-hitclap.wav
320,192,5435,1,0,0:0:0:100:LR_Clap Fast Low.wav
448,192,5435,1,0,0:0:0:0:
64,192,5588,1,2,0:0:0:55:soft-hitwhistle.wav
192,192,5588,1,0,0:0:0:0:
64,192,5742,1,8,0:0:0:60:soft-hitclap.wav
320,192,5742,1,4,0:0:0:80:soft-hitfinish.wav
448,192,5742,1,0,0:0:0:100:LR_Clap Fast Low.wav
192,192,5896,1,0,0:0:0:0:
320,192,5896,1,0,0:0:0:0:
64,192,6050,1,8,0:0:0:60:soft-hitclap.wav
192,192,6050,1,4,0:0:0:80:soft-hitfinish.wav
448,192,6050,1,0,0:0:0:0:
320,192,6204,128,0,6358:0:0:0:0:
192,192,6358,1,0,0:0:0:0:
192,192,6511,1,2,0:0:0:55:soft-hitwhistle.wav
320,192,6511,1,0,0:0:0:0:
64,192,6665,1,8,0:0:0:60:soft-hitclap.wav
320,192,6665,1,4,0:0:0:80:soft-hitfinish.wav
448,192,6665,1,0,0:0:0:100:LR_Clap Fast Low.wav
64,192,6819,1,2,0:0:0:55:soft-hitwhistle.wav
192,192,6819,1,0,0:0:0:0:
320,192,6973,1,2,0:0:0:55:soft-hitwhistle.wav
448,192,6973,1,0,0:0:0:100:LR_Clap Fast Low.wav
192,192,7127,1,2,0:0:0:55:soft-hitwhistle.wav
320,192,7127,1,0,0:0:0:0:
64,192,7281,1,8,0:0:0:60:soft-hitclap.wav
192,192,7281,1,0,0:0:0:100:LR_Clap Fast Low.wav
448,192,7281,1,0,0:0:0:0:
64,192,7435,1,2,0:0:0:55:soft-hitwhistle.wav
320,192,7435,128,4,7742:0:0:0:80:soft-hitfinish.wav
448,192,7435,1,0,0:0:0:0:
192,192,7588,1,0,0:0:0:100:LR_Clap Fast Low.wav
64,192,7742,1,2,0:0:0:55:soft-hitwhistle.wav
448,192,7742,1,0,0:0:0:0:
192,192,7896,1,8,0:0:0:60:soft-hitclap.wav
320,192,7896,1,0,0:0:0:100:LR_Clap Fast Low.wav
448,192,7896,1,0,0:0:0:0:
64,192,8050,1,2,0:0:0:55:soft-hitwhistle.wav
192,192,8050,1,0,0:0:0:0:
320,192,8204,1,2,0:0:0:55:soft-hitwhistle.wav
448,192,8204,1,0,0:0:0:100:LR_Clap Fast Low.wav
64,192,8358,1,0,0:0:0:0:
192,192,8511,1,8,0:0:0:60:soft-hitclap.wav
320,192,8511,1,0,0:0:0:100:LR_Clap Fast Low.wav
448,192,8511,1,0,0:0:0:0:
64,192,8665,1,0,0:0:0:0:
192,192,8819,1,2,0:0:0:55:soft-hitwhistle.wav
320,192,8819,128,4,8973:0:0:0:80:soft-hitfinish.wav
448,192,8819,1,0,0:0:0:0:
64,192,8973,128,0,9127:0:0:0:0:
192,192,9127,128,8,9281:0:0:0:60:soft-hitclap.wav
320,192,9127,1,0,0:0:0:0:
448,192,9127,1,0,0:0:0:0:
64,192,9281,128,2,9588:0:0:0:55:soft-hitwhistle.wav
320,192,9281,1,4,0:0:0:80:soft-hitfinish.wav
448,192,9281,1,0,0:0:0:0:
320,192,9435,1,2,0:0:0:55:soft-hitwhistle.wav
448,192,9435,1,0,0:0:0:100:LR_Clap Fast Low.wav
192,192,9588,128,0,9742:0:0:0:0:
64,192,9742,1,8,0:0:0:60:soft-hitclap.wav
320,192,9742,128,4,10358:0:0:0:80:soft-hitfinish.wav
448,192,9742,1,0,0:0:0:0:
64,192,9896,1,2,0:0:0:55:soft-hitwhistle.wav
192,192,9896,1,0,0:0:0:0:
448,192,10050,1,0,0:0:0:100:LR_Clap Fast Low.wav
64,192,10204,1,2,0:0:0:55:soft-hitwhistle.wav
192,192,10204,1,0,0:0:0:0:
64,192,10358,1,8,0:0:0:60:soft-hitclap.wav
192,192,10358,1,0,0:0:0:0:
448,192,10358,1,0,0:0:0:0:
320,192,10435,1,0,0:0:0:0:
192,192,10511,1,2,0:0:0:55:soft-hitwhistle.wav
320,192,10588,1,0,0:0:0:0:
64,192,10665,1,8,0:0:0:60:soft-hitclap.wav
192,192,10665,1,0,0:0:0:0:
448,192,10665,1,0,0:0:0:0:
64,192,10819,1,8,0:0:0:60:soft-hitclap.wav
448,192,10819,1,0,0:0:0:0:
64,192,11281,1,2,0:0:0:55:soft-hitwhistle.wav
192,192,11281,1,0,0:0:0:0:
64,192,11435,1,2,0:0:0:55:soft-hitwhistle.wav
192,192,11435,1,0,0:0:0:0:
320,192,11896,1,2,0:0:0:55:soft-hitwhistle.wav
448,192,11896,1,0,0:0:0:0:
320,192,12050,1,2,0:0:0:55:soft-hitwhistle.wav
448,192,12050,1,0,0:0:0:0:
192,192,12511,1,2,0:0:0:55:soft-hitwhistle.wav
320,192,12511,1,0,0:0:0:0:
192,192,12665,1,2,0:0:0:55:soft-hitwhistle.wav
320,192,12665,1,0,0:0:0:0:
192,192,13127,1,2,0:0:0:55:soft-hitwhistle.wav
448,192,13127,1,0,0:0:0:0:
192,192,13435,1,8,0:0:0:60:soft-hitclap.wav
320,192,13435,1,2,0:0:0:55:soft-hitwhistle.wav
448,192,13435,1,0,0:0:0:0:
64,192,13742,1,2,0:0:0:55:soft-hitwhistle.wav
448,192,13742,1,0,0:0:0:0:
64,192,13896,1,2,0:0:0:55:soft-hitwhistle.wav
448,192,13896,1,0,0:0:0:0:
192,192,14358,1,2,0:0:0:55:soft-hitwhistle.wav
320,192,14358,1,0,0:0:0:0:
192,192,14511,1,2,0:0:0:55:soft-hitwhistle.wav
320,192,14511,1,0,0:0:0:0:
192,192,14819,1,2,0:0:0:55:soft-hitwhistle.wav
320,192,14819,1,0,0:0:0:0:
64,192,14973,1,2,0:0:0:55:soft-hitwhistle.wav
192,192,14973,1,0,0:0:0:0:
192,192,15127,1,2,0:0:0:55:soft-hitwhistle.wav
320,192,15127,1,0,0:0:0:0:
192,192,15435,1,2,0:0:0:55:soft-hitwhistle.wav
320,192,15435,1,0,0:0:0:0:
64,192,15588,1,2,0:0:0:55:soft-hitwhistle.wav
192,192,15588,1,0,0:0:0:0:
320,192,15742,1,0,0:0:0:0:
64,192,15896,1,8,0:0:0:60:soft-hitclap.wav
192,192,15896,1,2,0:0:0:55:soft-hitwhistle.wav
320,192,15896,1,0,0:0:0:0:
64,192,16204,1,2,0:0:0:55:soft-hitwhistle.wav
192,192,16204,1,0,0:0:0:0:
64,192,16358,1,2,0:0:0:55:soft-hitwhistle.wav
192,192,16358,1,0,0:0:0:0:
320,192,16819,1,2,0:0:0:55:soft-hitwhistle.wav
448,192,16819,1,0,0:0:0:0:
320,192,16973,1,2,0:0:0:55:soft-hitwhistle.wav
448,192,16973,1,0,0:0:0:0:
192,192,17435,1,2,0:0:0:55:soft-hitwhistle.wav
320,192,17435,1,0,0:0:0:0:
192,192,17588,1,2,0:0:0:55:soft-hitwhistle.wav
320,192,17588,1,0,0:0:0:0:
192,192,18050,1,2,0:0:0:55:soft-hitwhistle.wav
320,192,18050,1,0,0:0:0:0:
192,192,18358,1,8,0:0:0:60:soft-hitclap.wav
320,192,18358,1,2,0:0:0:55:soft-hitwhistle.wav
448,192,18358,1,0,0:0:0:0:
192,192,18665,1,2,0:0:0:55:soft-hitwhistle.wav
448,192,18665,1,0,0:0:0:0:
320,192,18973,1,2,0:0:0:55:soft-hitwhistle.wav
448,192,18973,1,0,0:0:0:0:
192,192,19127,1,2,0:0:0:55:soft-hitwhistle.wav
320,192,19127,1,0,0:0:0:0:
64,192,19281,1,0,0:0:0:0:
320,192,19435,1,2,0:0:0:55:soft-hitwhistle.wav
448,192,19435,1,0,0:0:0:0:
64,192,19588,1,8,0:0:0:60:soft-hitclap.wav
192,192,19588,1,0,0:0:0:0:
448,192,19588,1,0,0:0:0:0:
192,192,19742,1,2,0:0:0:55:soft-hitwhistle.wav
320,192,19742,1,0,0:0:0:0:
64,192,19896,1,0,0:0:0:0:
192,192,20050,1,2,0:0:0:55:soft-hitwhistle.wav
448,192,20050,1,0,0:0:0:0:
64,192,20204,1,8,0:0:0:60:soft-hitclap.wav
320,192,20204,1,0,0:0:0:0:
448,192,20204,1,0,0:0:0:0:
64,192,20358,1,2,0:0:0:55:soft-hitwhistle.wav
192,192,20358,1,0,0:0:0:0:
320,192,20435,1,0,0:0:0:0:
64,192,20511,1,8,0:0:0:60:soft-hitclap.wav
192,192,20511,1,4,0:0:0:80:soft-hitfinish.wav
448,192,20511,1,0,0:0:0:0:
192,192,20665,1,2,0:0:0:55:soft-hitwhistle.wav
320,192,20665,1,0,0:0:0:0:
64,192,20819,128,8,21127:0:0:0:60:soft-hitclap.wav
320,192,20819,1,4,0:0:0:80:soft-hitfinish.wav
448,192,20819,1,0,0:0:0:0:
192,192,21127,1,2,0:0:0:55:soft-hitwhistle.wav
448,192,21127,1,0,0:0:0:0:
448,192,21281,1,0,0:0:0:0:
64,192,21435,1,8,0:0:0:60:soft-hitclap.wav
192,192,21435,1,0,0:0:0:0:
320,192,21435,1,0,0:0:0:0:
448,192,21588,1,0,0:0:0:0:
192,192,21742,1,2,0:0:0:55:soft-hitwhistle.wav
320,192,21742,1,0,0:0:0:0:
320,192,21896,1,0,0:0:0:0:
64,192,22050,1,8,0:0:0:60:soft-hitclap.wav
192,192,22050,1,0,0:0:0:0:
448,192,22050,1,0,0:0:0:0:
320,192,22204,1,0,0:0:0:0:
192,192,22358,1,2,0:0:0:55:soft-hitwhistle.wav
448,192,22358,1,0,0:0:0:0:
192,192,22511,1,0,0:0:0:0:
64,192,22665,1,8,0:0:0:60:soft-hitclap.wav
320,192,22665,1,0,0:0:0:0:
448,192,22665,1,0,0:0:0:0:
192,192,22819,1,0,0:0:0:0:
320,192,22973,128,2,23127:0:0:0:55:soft-hitwhistle.wav
448,192,22973,1,0,0:0:0:0:
192,192,23127,1,0,0:0:0:0:
64,192,23281,1,8,0:0:0:60:soft-hitclap.wav
320,192,23281,128,2,23435:0:0:0:55:soft-hitwhistle.wav
448,192,23281,1,0,0:0:0:0:
192,192,23435,1,0,0:0:0:0:
64,192,23588,1,2,0:0:0:55:soft-hitwhistle.wav
448,192,23588,1,0,0:0:0:0:
64,192,23742,1,0,0:0:0:0:
192,192,23896,1,8,0:0:0:60:soft-hitclap.wav
320,192,23896,1,0,0:0:0:0:
448,192,23896,1,0,0:0:0:0:
64,192,24050,1,0,0:0:0:0:
192,192,24204,1,2,0:0:0:55:soft-hitwhistle.wav
320,192,24204,1,0,0:0:0:0:
320,192,24358,1,0,0:0:0:0:
64,192,24511,1,8,0:0:0:60:soft-hitclap.wav
192,192,24511,1,0,0:0:0:0:
448,192,24511,1,0,0:0:0:0:
320,192,24665,1,0,0:0:0:0:
64,192,24819,1,2,0:0:0:55:soft-hitwhistle.wav
192,192,24819,1,0,0:0:0:0:
320,192,24973,1,0,0:0:0:0:
64,192,25127,1,8,0:0:0:60:soft-hitclap.wav
192,192,25127,1,0,0:0:0:0:
448,192,25127,1,0,0:0:0:0:
320,192,25281,1,0,0:0:0:30:soft-hitclap.wav
64,192,25358,1,0,0:0:0:30:soft-hitclap.wav
192,192,25435,1,2,0:0:0:55:soft-hitwhistle.wav
448,192,25435,1,0,0:0:0:0:
320,192,25588,1,0,0:0:0:0:
64,192,25742,128,8,26050:0:0:0:60:soft-hitclap.wav
192,192,25742,1,2,0:0:0:55:soft-hitwhistle.wav
448,192,25742,1,0,0:0:0:0:
192,192,26050,1,2,0:0:0:55:soft-hitwhistle.wav
320,192,26050,1,0,0:0:0:0:
192,192,26204,1,0,0:0:0:0:
64,192,26358,1,8,0:0:0:60:soft-hitclap.wav
320,192,26358,1,0,0:0:0:0:
448,192,26358,1,0,0:0:0:0:
192,192,26511,1,0,0:0:0:0:
64,192,26665,1,2,0:0:0:55:soft-hitwhistle.wav
448,192,26665,1,0,0:0:0:0:
448,192,26819,1,0,0:0:0:0:
64,192,26973,1,8,0:0:0:60:soft-hitclap.wav
192,192,26973,1,0,0:0:0:0:
320,192,26973,1,0,0:0:0:0:
448,192,27127,1,0,0:0:0:0:
64,192,27281,1,2,0:0:0:55:soft-hitwhistle.wav
320,192,27281,1,0,0:0:0:0:
320,192,27435,1,0,0:0:0:0:
64,192,27588,1,8,0:0:0:60:soft-hitclap.wav
192,192,27588,1,0,0:0:0:0:
448,192,27588,1,0,0:0:0:0:
320,192,27742,1,0,0:0:0:0:
192,192,27896,1,2,0:0:0:55:soft-hitwhistle.wav
448,192,27896,1,0,0:0:0:0:
192,192,28050,1,0,0:0:0:0:
64,192,28204,1,8,0:0:0:60:soft-hitclap.wav
320,192,28204,1,0,0:0:0:0:
448,192,28204,1,0,0:0:0:0:
192,192,28358,1,0,0:0:0:0:
64,192,28511,1,8,0:0:0:60:soft-hitclap.wav
320,192,28511,1,2,0:0:0:55:soft-hitwhistle.wav
448,192,28511,1,0,0:0:0:0:
192,192,28665,1,0,0:0:0:0:
320,192,28665,1,0,0:0:0:0:
64,192,28819,1,8,0:0:0:60:soft-hitclap.wav
192,192,28819,1,2,0:0:0:55:soft-hitwhistle.wav
448,192,28819,1,0,0:0:0:0:
448,192,28973,1,0,0:0:0:0:
64,192,29127,1,8,0:0:0:60:soft-hitclap.wav
192,192,29127,1,2,0:0:0:55:soft-hitwhistle.wav
320,192,29127,1,0,0:0:0:0:
64,192,29281,1,0,0:0:0:0:
192,192,29435,1,8,0:0:0:60:soft-hitclap.wav
320,192,29435,1,2,0:0:0:55:soft-hitwhistle.wav
448,192,29435,1,0,0:0:0:0:
64,192,29588,128,4,29896:0:0:0:80:soft-hitfinish.wav
192,192,29588,1,0,0:0:0:70:tom03.wav
320,192,29588,1,0,0:0:0:0:
192,192,29896,1,2,0:0:0:55:soft-hitwhistle.wav
448,192,29896,1,0,0:0:0:0:
64,192,30050,1,8,0:0:0:60:soft-hitclap.wav
320,192,30050,1,0,0:0:0:0:
448,192,30050,1,0,0:0:0:0:
192,192,30204,1,2,0:0:0:55:soft-hitwhistle.wav
320,192,30281,1,0,0:0:0:0:
64,192,30358,1,8,0:0:0:60:soft-hitclap.wav
192,192,30358,1,0,0:0:0:0:
448,192,30358,1,0,0:0:0:0:
320,192,30511,1,0,0:0:0:30:soft-hitclap.wav
192,192,30588,1,0,0:0:0:30:soft-hitclap.wav
64,192,30665,1,8,0:0:0:60:soft-hitclap.wav
320,192,30665,1,0,0:0:0:0:
448,192,30665,1,0,0:0:0:0:
192,192,30819,1,0,0:0:0:30:soft-hitclap.wav
448,192,30819,1,0,0:0:0:0:
64,192,30973,1,2,0:0:0:55:soft-hitwhistle.wav
192,192,30973,1,4,0:0:0:80:soft-hitfinish.wav
320,192,30973,1,0,0:0:0:0:
448,192,31127,128,0,31281:0:0:0:0:
192,192,31281,1,0,0:0:0:100:LR_Clap Fast Low.wav
320,192,31281,1,0,0:0:0:0:
448,192,31435,128,0,31588:0:0:0:0:
64,192,31588,1,2,0:0:0:55:soft-hitwhistle.wav
192,192,31588,1,0,0:0:0:0:
320,192,31742,128,0,31896:0:0:0:0:
192,192,31896,1,0,0:0:0:100:LR_Clap Fast Low.wav
448,192,31896,1,0,0:0:0:0:
320,192,32050,128,0,32204:0:0:0:0:
64,192,32204,1,2,0:0:0:55:soft-hitwhistle.wav
448,192,32204,1,0,0:0:0:0:
192,192,32358,128,0,32511:0:0:0:0:
64,192,32511,1,0,0:0:0:100:LR_Clap Fast Low.wav
320,192,32511,1,0,0:0:0:0:
192,192,32665,128,0,32819:0:0:0:0:
320,192,32819,1,2,0:0:0:55:soft-hitwhistle.wav
448,192,32819,1,0,0:0:0:0:
64,192,32973,128,0,33127:0:0:0:0:
192,192,33127,1,0,0:0:0:100:LR_Clap Fast Low.wav
448,192,33127,1,0,0:0:0:0:
64,192,33281,128,0,33435:0:0:0:0:
192,192,33435,1,2,0:0:0:55:soft-hitwhistle.wav
320,192,33435,1,0,0:0:0:0:
448,192,33588,128,0,33742:0:0:0:0:
64,192,33742,1,0,0:0:0:100:LR_Clap Fast Low.wav
320,192,33742,1,0,0:0:0:0:
320,192,33896,1,0,0:0:0:0:
448,192,33896,128,0,34050:0:0:0:0:
64,192,34050,1,2,0:0:0:55:soft-hitwhistle.wav
192,192,34050,1,0,0:0:0:0:
320,192,34204,128,0,34358:0:0:0:0:
192,192,34358,1,0,0:0:0:100:LR_Clap Fast Low.wav
448,192,34358,1,0,0:0:0:0:
320,192,34511,128,0,34665:0:0:0:0:
64,192,34665,1,2,0:0:0:55:soft-hitwhistle.wav
448,192,34665,1,0,0:0:0:0:
192,192,34819,128,0,34973:0:0:0:0:
64,192,34973,1,0,0:0:0:100:LR_Clap Fast Low.wav
320,192,34973,1,0,0:0:0:0:
64,192,35127,1,0,0:0:0:0:
192,192,35127,128,0,35281:0:0:0:0:
320,192,35281,1,2,0:0:0:55:soft-hitwhistle.wav
448,192,35281,1,0,0:0:0:0:
64,192,35435,128,0,35588:0:0:0:0:
192,192,35588,1,0,0:0:0:100:LR_Clap Fast Low.wav
448,192,35588,1,0,0:0:0:0:
64,192,35742,128,0,35896:0:0:0:0:
192,192,35896,1,2,0:0:0:55:soft-hitwhistle.wav
320,192,35896,1,0,0:0:0:0:
64,192,36050,128,0,36204:0:0:0:0:
192,192,36204,1,0,0:0:0:100:LR_Clap Fast Low.wav
448,192,36204,1,0,0:0:0:0:
64,192,36358,128,0,36511:0:0:0:0:
192,192,36665,1,8,0:0:0:60:soft-hitclap.wav
320,192,36665,1,2,0:0:0:55:soft-hitwhistle.wav
448,192,36665,1,0,0:0:0:0:
64,192,36819,1,8,0:0:0:60:soft-hitclap.wav
320,192,36819,1,2,0:0:0:55:soft-hitwhistle.wav
448,192,36819,1,0,0:0:0:0:
192,192,37127,1,2,0:0:0:55:soft-hitwhistle.wav
448,192,37127,1,0,0:0:0:0:
64,192,37281,128,0,37435:0:0:0:0:
192,192,37435,1,8,0:0:0:60:soft-hitclap.wav
320,192,37435,1,0,0:0:0:100:LR_Clap Fast Low.wav
64,192,37588,128,0,37742:0:0:0:0:
192,192,37896,1,8,0:0:0:60:soft-hitclap.wav
320,192,37896,1,2,0:0:0:55:soft-hitwhistle.wav
448,192,37896,1,0,0:0:0:0:
64,192,38050,1,8,0:0:0:60:soft-hitclap.wav
192,192,38050,1,2,0:0:0:55:soft-hitwhistle.wav
448,192,38050,1,0,0:0:0:0:
320,192,38204,1,0,0:0:0:0:
64,192,38358,1,2,0:0:0:55:soft-hitwhistle.wav
192,192,38358,1,4,0:0:0:80:soft-hitfinish.wav
448,192,38358,1,0,0:0:0:0:
192,192,38511,1,0,0:0:0:0:
64,192,38665,1,8,0:0:0:60:soft-hitclap.wav
320,192,38665,1,0,0:0:0:0:
448,192,38665,1,0,0:0:0:0:
192,192,38819,1,0,0:0:0:0:
448,192,38973,1,0,0:0:0:0:
64,192,39127,1,2,0:0:0:55:soft-hitwhistle.wav
320,192,39127,1,0,0:0:0:0:
64,192,39281,1,8,0:0:0:60:soft-hitclap.wav
192,192,39281,1,0,0:0:0:0:
448,192,39281,1,0,0:0:0:0:
320,192,39435,1,0,0:0:0:0:
192,192,39588,1,2,0:0:0:55:soft-hitwhistle.wav
448,192,39588,1,0,0:0:0:0:
64,192,39742,1,0,0:0:0:0:
192,192,39896,1,8,0:0:0:60:soft-hitclap.wav
320,192,39896,1,0,0:0:0:0:
448,192,39896,1,0,0:0:0:0:
64,192,40050,1,0,0:0:0:0:
320,192,40204,1,0,0:0:0:0:
192,192,40358,1,2,0:0:0:55:soft-hitwhistle.wav
448,192,40358,1,0,0:0:0:0:
64,192,40511,1,8,0:0:0:60:soft-hitclap.wav
320,192,40511,1,0,0:0:0:0:
448,192,40511,1,0,0:0:0:0:
192,192,40665,1,0,0:0:0:0:
64,192,40819,1,8,0:0:0:60:soft-hitclap.wav
320,192,40819,1,4,0:0:0:80:soft-hitfinish.wav
448,192,40819,1,0,0:0:0:0:
192,192,40973,1,2,0:0:0:55:soft-hitwhistle.wav
448,192,40973,1,0,0:0:0:0:
64,192,41127,1,8,0:0:0:60:soft-hitclap.wav
192,192,41127,1,4,0:0:0:80:soft-hitfinish.wav
320,192,41127,1,0,0:0:0:0:
64,192,41281,1,2,0:0:0:55:soft-hitwhistle.wav
448,192,41281,1,0,0:0:0:0:
192,192,41435,1,8,0:0:0:60:soft-hitclap.wav
320,192,41435,1,4,0:0:0:80:soft-hitfinish.wav
448,192,41435,1,0,0:0:0:0:
64,192,41588,1,2,0:0:0:55:soft-hitwhistle.wav
192,192,41588,1,0,0:0:0:0:
320,192,41665,1,2,0:0:0:55:soft-hitwhistle.wav
64,192,41742,1,8,0:0:0:60:soft-hitclap.wav
192,192,41742,1,4,0:0:0:80:soft-hitfinish.wav
448,192,41742,1,0,0:0:0:0:
320,192,41896,1,2,0:0:0:55:soft-hitwhistle.wav
448,192,41896,1,0,0:0:0:0:
192,192,41973,1,0,0:0:0:30:soft-hitwhistle.wav
64,192,42050,1,8,0:0:0:60:soft-hitclap.wav
320,192,42050,1,4,0:0:0:80:soft-hitfinish.wav
448,192,42050,128,0,42511:0:0:0:0:
320,192,42511,1,0,0:0:0:30:soft-hitclap.wav
64,192,42665,1,0,0:0:0:0:
192,192,42819,1,8,0:0:0:60:soft-hitclap.wav
320,192,42819,1,0,0:0:0:0:
320,192,42973,1,8,0:0:0:60:soft-hitclap.wav
448,192,42973,1,0,0:0:0:0:
64,192,43050,1,8,0:0:0:60:soft-hitclap.wav
192,192,43050,1,0,0:0:0:0:
320,192,43127,1,8,0:0:0:60:soft-hitclap.wav
448,192,43127,1,0,0:0:0:0:
192,192,43204,1,8,0:0:0:60:soft-hitclap.wav
64,192,43281,1,2,0:0:0:55:soft-hitwhistle.wav
320,192,43281,1,4,0:0:0:80:soft-hitfinish.wav
448,192,43281,1,0,0:0:0:0:
64,192,43435,1,0,0:0:0:0:
64,192,43588,1,8,0:0:0:60:soft-hitclap.wav
192,192,43588,1,0,0:0:0:0:
448,192,43588,1,0,0:0:0:0:
64,192,43742,1,0,0:0:0:0:
192,192,43896,1,2,0:0:0:55:soft-hitwhistle.wav
320,192,43896,1,0,0:0:0:0:
64,192,44050,1,2,0:0:0:55:soft-hitwhistle.wav
320,192,44050,1,0,0:0:0:0:
64,192,44204,1,8,0:0:0:60:soft-hitclap.wav
192,192,44204,1,0,0:0:0:0:
448,192,44204,1,0,0:0:0:0:
320,192,44358,1,2,0:0:0:55:soft-hitwhistle.wav
448,192,44358,1,0,0:0:0:0:
192,192,44511,1,0,0:0:0:0:
64,192,44665,1,2,0:0:0:55:soft-hitwhistle.wav
320,192,44665,1,0,0:0:0:0:
64,192,44819,1,8,0:0:0:60:soft-hitclap.wav
192,192,44819,1,0,0:0:0:0:
448,192,44819,1,0,0:0:0:0:
320,192,44973,1,0,0:0:0:30:soft-hitclap.wav
192,192,45050,1,0,0:0:0:30:soft-hitclap.wav
64,192,45127,1,2,0:0:0:55:soft-hitwhistle.wav
448,192,45127,1,0,0:0:0:0:
192,192,45281,1,2,0:0:0:55:soft-hitwhistle.wav
448,192,45281,1,0,0:0:0:0:
64,192,45435,1,8,0:0:0:60:soft-hitclap.wav
192,192,45435,1,0,0:0:0:0:
320,192,45435,1,0,0:0:0:0:
448,192,45588,1,0,0:0:0:0:
64,192,45742,1,2,0:0:0:55:soft-hitwhistle.wav
192,192,45742,1,0,0:0:0:0:
64,192,45896,1,0,0:0:0:0:
64,192,46050,1,8,0:0:0:60:soft-hitclap.wav
320,192,46050,1,0,0:0:0:0:
448,192,46050,1,0,0:0:0:0:
64,192,46204,1,0,0:0:0:0:
192,192,46358,1,2,0:0:0:55:soft-hitwhistle.wav
448,192,46358,1,0,0:0:0:0:
192,192,46511,1,2,0:0:0:55:soft-hitwhistle.wav
320,192,46511,1,0,0:0:0:0:
64,192,46665,1,8,0:0:0:60:soft-hitclap.wav
320,192,46665,1,0,0:0:0:0:
448,192,46665,1,0,0:0:0:0:
64,192,46819,1,2,0:0:0:55:soft-hitwhistle.wav
192,192,46819,1,0,0:0:0:0:
320,192,46973,1,0,0:0:0:0:
64,192,47127,1,2,0:0:0:55:soft-hitwhistle.wav
448,192,47127,1,0,0:0:0:0:
192,192,47281,1,8,0:0:0:60:soft-hitclap.wav
320,192,47281,1,0,0:0:0:0:
448,192,47281,1,0,0:0:0:0:
64,192,47435,1,0,0:0:0:30:soft-hitclap.wav
320,192,47511,1,0,0:0:0:30:soft-hitclap.wav
192,192,47588,1,2,0:0:0:55:soft-hitwhistle.wav
448,192,47588,1,0,0:0:0:0:
192,192,47742,1,2,0:0:0:55:soft-hitwhistle.wav
320,192,47742,1,0,0:0:0:0:
64,192,47896,1,8,0:0:0:60:soft-hitclap.wav
320,192,47896,1,4,0:0:0:80:soft-hitfinish.wav
448,192,47896,1,0,0:0:0:0:
448,192,48050,1,0,0:0:0:0:
64,192,48204,1,2,0:0:0:55:soft-hitwhistle.wav
192,192,48204,1,0,0:0:0:0:
320,192,48204,1,0,0:0:0:0:
192,192,48358,1,0,0:0:0:0:
64,192,48511,1,8,0:0:0:60:soft-hitclap.wav
320,192,48511,1,0,0:0:0:0:
448,192,48511,1,0,0:0:0:0:
192,192,48665,1,0,0:0:0:0:
64,192,48819,1,2,0:0:0:55:soft-hitwhistle.wav
448,192,48819,1,0,0:0:0:0:
320,192,48973,1,0,0:0:0:0:
64,192,49127,1,8,0:0:0:60:soft-hitclap.wav
192,192,49127,1,0,0:0:0:0:
448,192,49127,1,0,0:0:0:0:
192,192,49281,1,2,0:0:0:55:soft-hitwhistle.wav
320,192,49281,1,0,0:0:0:0:
448,192,49435,1,0,0:0:0:0:
64,192,49588,1,2,0:0:0:55:soft-hitwhistle.wav
192,192,49588,1,0,0:0:0:0:
64,192,49742,1,8,0:0:0:60:soft-hitclap.wav
320,192,49742,1,0,0:0:0:0:
448,192,49742,1,0,0:0:0:0:
192,192,49896,1,0,0:0:0:0:
64,192,50050,1,2,0:0:0:55:soft-hitwhistle.wav
320,192,50050,1,0,0:0:0:0:
192,192,50204,1,2,0:0:0:55:soft-hitwhistle.wav
320,192,50204,1,0,0:0:0:0:
64,192,50358,1,8,0:0:0:60:soft-hitclap.wav
192,192,50358,1,4,0:0:0:80:soft-hitfinish.wav
448,192,50358,1,0,0:0:0:0:
448,192,50511,1,0,0:0:0:0:
64,192,50665,1,2,0:0:0:55:soft-hitwhistle.wav
192,192,50665,1,0,0:0:0:0:
320,192,50665,1,0,0:0:0:0:
64,192,50819,1,0,0:0:0:0:
192,192,50973,1,8,0:0:0:60:soft-hitclap.wav
320,192,50973,1,4,0:0:0:80:soft-hitfinish.wav
448,192,50973,1,0,0:0:0:0:
64,192,51127,1,2,0:0:0:55:soft-hitwhistle.wav
320,192,51127,1,0,0:0:0:0:
192,192,51281,1,8,0:0:0:60:soft-hitclap.wav
320,192,51435,1,2,0:0:0:55:soft-hitwhistle.wav
448,192,51435,1,0,0:0:0:0:
64,192,51588,1,8,0:0:0:60:soft-hitclap.wav
192,192,51588,1,0,0:0:0:0:
448,192,51588,1,0,0:0:0:0:
64,192,51742,1,8,0:0:0:60:soft-hitclap.wav
192,192,51742,1,4,0:0:0:80:soft-hitfinish.wav
320,192,51742,1,0,0:0:0:0:
448,192,51896,1,0,0:0:0:0:
64,192,52050,1,2,0:0:0:55:soft-hitwhistle.wav
192,192,52050,1,0,0:0:0:0:
64,192,52204,1,8,0:0:0:60:soft-hitclap.wav
320,192,52204,1,0,0:0:0:0:
448,192,52204,1,0,0:0:0:0:
192,192,52358,1,0,0:0:0:0:
448,192,52435,1,0,0:0:0:0:
64,192,52511,1,0,0:0:0:40:soft-hitclap.wav
320,192,52511,1,0,0:0:0:0:
192,192,52665,1,0,0:0:0:40:soft-hitclap.wav
320,192,52665,1,0,0:0:0:0:
64,192,52819,1,8,0:0:0:60:soft-hitclap.wav
192,192,52819,1,0,0:0:0:0:
320,192,52896,1,8,0:0:0:60:soft-hitclap.wav
448,192,52896,1,0,0:0:0:0:
64,192,52973,1,8,0:0:0:60:soft-hitclap.wav
192,192,52973,1,0,0:0:0:0:
320,192,53050,1,8,0:0:0:60:soft-hitclap.wav
64,192,53127,1,2,0:0:0:55:soft-hitwhistle.wav
192,192,53127,1,4,0:0:0:80:soft-hitfinish.wav
448,192,53127,1,0,0:0:0:0:
448,192,53281,1,0,0:0:0:0:
64,192,53435,1,8,0:0:0:60:soft-hitclap.wav
320,192,53435,1,0,0:0:0:0:
448,192,53435,1,0,0:0:0:0:
448,192,53588,1,0,0:0:0:0:
192,192,53742,1,2,0:0:0:55:soft-hitwhistle.wav
320,192,53742,1,0,0:0:0:0:
192,192,53896,1,2,0:0:0:55:soft-hitwhistle.wav
448,192,53896,1,0,0:0:0:0:
64,192,54050,1,8,0:0:0:60:soft-hitclap.wav
320,192,54050,1,0,0:0:0:0:
448,192,54050,1,0,0:0:0:0:
64,192,54204,1,2,0:0:0:55:soft-hitwhistle.wav
192,192,54204,1,0,0:0:0:0:
320,192,54358,1,0,0:0:0:0:
192,192,54511,1,2,0:0:0:55:soft-hitwhistle.wav
448,192,54511,1,0,0:0:0:0:
64,192,54665,1,8,0:0:0:60:soft-hitclap.wav
320,192,54665,1,0,0:0:0:0:
448,192,54665,1,0,0:0:0:0:
192,192,54819,1,0,0:0:0:0:
64,192,54973,1,2,0:0:0:55:soft-hitwhistle.wav
320,192,54973,1,0,0:0:0:0:
192,192,55127,1,2,0:0:0:55:soft-hitwhistle.wav
320,192,55127,1,0,0:0:0:0:
64,192,55281,1,8,0:0:0:60:soft-hitclap.wav
192,192,55281,1,0,0:0:0:0:
448,192,55281,1,0,0:0:0:0:
320,192,55435,1,0,0:0:0:0:
192,192,55588,1,2,0:0:0:55:soft-hitwhistle.wav
448,192,55588,1,0,0:0:0:0:
448,192,55742,1,0,0:0:0:0:
64,192,55896,1,8,0:0:0:60:soft-hitclap.wav
192,192,55896,1,0,0:0:0:0:
448,192,55896,1,0,0:0:0:0:
448,192,56050,1,0,0:0:0:0:
64,192,56204,1,2,0:0:0:55:soft-hitwhistle.wav
320,192,56204,1,0,0:0:0:0:
192,192,56358,1,2,0:0:0:55:soft-hitwhistle.wav
320,192,56358,1,0,0:0:0:0:
64,192,56511,1,8,0:0:0:60:soft-hitclap.wav
192,192,56511,1,0,0:0:0:0:
448,192,56511,1,0,0:0:0:0:
320,192,56665,1,2,0:0:0:55:soft-hitwhistle.wav
448,192,56665,1,0,0:0:0:0:
192,192,56819,1,0,0:0:0:0:
64,192,56973,1,2,0:0:0:55:soft-hitwhistle.wav
448,192,56973,1,0,0:0:0:0:
64,192,57127,1,8,0:0:0:60:soft-hitclap.wav
192,192,57127,1,0,0:0:0:0:
320,192,57127,1,0,0:0:0:0:
448,192,57281,1,0,0:0:0:0:
192,192,57358,1,0,0:0:0:0:
64,192,57435,1,2,0:0:0:55:soft-hitwhistle.wav
320,192,57435,1,0,0:0:0:0:
192,192,57588,1,2,0:0:0:55:soft-hitwhistle.wav
320,192,57588,1,0,0:0:0:0:
64,192,57742,1,8,0:0:0:60:soft-hitclap.wav
192,192,57742,1,4,0:0:0:80:soft-hitfinish.wav
448,192,57742,1,0,0:0:0:0:
64,192,57896,1,0,0:0:0:0:
192,192,58050,1,2,0:0:0:55:soft-hitwhistle.wav
320,192,58050,1,0,0:0:0:0:
448,192,58050,1,0,0:0:0:0:
320,192,58204,1,0,0:0:0:0:
64,192,58358,1,8,0:0:0:60:soft-hitclap.wav
192,192,58358,1,0,0:0:0:0:
448,192,58358,1,0,0:0:0:0:
64,192,58511,1,2,0:0:0:55:soft-hitwhistle.wav
320,192,58511,1,0,0:0:0:0:
192,192,58665,1,0,0:0:0:0:
320,192,58819,1,0,0:0:0:0:
448,192,58819,1,0,0:0:0:0:
64,192,58973,1,8,0:0:0:60:soft-hitclap.wav
192,192,58973,1,0,0:0:0:0:
448,192,58973,1,0,0:0:0:0:
320,192,59127,1,0,0:0:0:0:
192,192,59204,1,0,0:0:0:0:
64,192,59281,1,0,0:0:0:0:
192,192,59435,1,2,0:0:0:55:soft-hitwhistle.wav
320,192,59435,1,0,0:0:0:0:
64,192,59588,1,0,0:0:0:30:soft-hitclap.wav
320,192,59588,1,0,0:0:0:0:
448,192,59588,1,0,0:0:0:0:
192,192,59742,1,0,0:0:0:0:
320,192,59896,1,2,0:0:0:55:soft-hitwhistle.wav
448,192,59896,1,0,0:0:0:0:
192,192,60050,1,2,0:0:0:55:soft-hitwhistle.wav
320,192,60050,1,0,0:0:0:0:
64,192,60204,1,8,0:0:0:60:soft-hitclap.wav
192,192,60204,1,4,0:0:0:80:soft-hitfinish.wav
448,192,60204,1,0,0:0:0:0:
448,192,60358,1,0,0:0:0:0:
64,192,60511,1,2,0:0:0:55:soft-hitwhistle.wav
192,192,60511,1,0,0:0:0:0:
320,192,60511,1,0,0:0:0:0:
64,192,60665,1,0,0:0:0:0:
192,192,60819,1,8,0:0:0:60:soft-hitclap.wav
320,192,60819,1,4,0:0:0:80:soft-hitfinish.wav
448,192,60819,1,0,0:0:0:0:
64,192,60973,1,2,0:0:0:55:soft-hitwhistle.wav
448,192,60973,1,0,0:0:0:0:
320,192,61127,1,0,0:0:0:30:soft-hitclap.wav
64,192,61281,1,2,0:0:0:55:soft-hitwhistle.wav
192,192,61281,1,0,0:0:0:0:
192,192,61435,1,8,0:0:0:60:soft-hitclap.wav
320,192,61435,1,0,0:0:0:0:
448,192,61435,1,0,0:0:0:0:
64,192,61588,128,8,61819:0:0:0:60:soft-hitclap.wav
320,192,61588,1,4,0:0:0:80:soft-hitfinish.wav
448,192,61588,128,0,61819:0:0:0:0:
64,192,61896,1,2,0:0:0:55:soft-hitwhistle.wav
448,192,61896,1,0,0:0:0:0:
64,192,62050,1,8,0:0:0:60:soft-hitclap.wav
448,192,62050,1,0,0:0:0:0:
192,192,62127,1,0,0:0:0:0:
320,192,62204,1,0,0:0:0:0:
192,192,62281,1,0,0:0:0:0:
64,192,62358,1,8,0:0:0:60:soft-hitclap.wav
320,192,62358,1,0,0:0:0:0:
448,192,62358,1,0,0:0:0:0:
192,192,62511,1,2,0:0:0:55:soft-hitwhistle.wav
448,192,62511,1,0,0:0:0:0:
64,192,62665,128,8,62973:0:0:0:60:soft-hitclap.wav
192,192,62665,1,4,0:0:0:80:soft-hitfinish.wav
320,192,62665,1,0,0:0:0:0:
192,192,62973,1,2,0:0:0:55:soft-hitwhistle.wav
320,192,62973,1,0,0:0:0:0:
448,192,62973,1,0,0:0:0:0:
320,192,63127,1,2,0:0:0:55:soft-hitwhistle.wav
448,192,63127,1,0,0:0:0:0:
64,192,63281,1,8,0:0:0:60:soft-hitclap.wav
192,192,63281,1,0,0:0:0:0:
448,192,63281,1,0,0:0:0:0:
64,192,63435,1,2,0:0:0:55:soft-hitwhistle.wav
320,192,63435,1,0,0:0:0:0:
192,192,63588,1,0,0:0:0:0:
64,192,63742,1,2,0:0:0:55:soft-hitwhistle.wav
320,192,63742,1,0,0:0:0:0:
192,192,63896,1,8,0:0:0:60:soft-hitclap.wav
320,192,63896,1,0,0:0:0:0:
448,192,63896,1,0,0:0:0:0:
64,192,64050,128,2,64281:0:0:0:55:soft-hitwhistle.wav
448,192,64050,128,0,64281:0:0:0:0:
64,192,64358,1,2,0:0:0:55:soft-hitwhistle.wav
448,192,64358,1,0,0:0:0:0:
64,192,64511,1,8,0:0:0:60:soft-hitclap.wav
192,192,64511,1,0,0:0:0:0:
320,192,64511,1,0,0:0:0:0:
448,192,64665,1,0,0:0:0:0:
64,192,64819,1,0,0:0:0:0:
192,192,64973,1,2,0:0:0:55:soft-hitwhistle.wav
320,192,64973,1,0,0:0:0:0:
64,192,65127,1,8,0:0:0:60:soft-hitclap.wav
192,192,65127,1,4,0:0:0:80:soft-hitfinish.wav
448,192,65127,1,0,0:0:0:0:
448,192,65281,1,0,0:0:0:0:
64,192,65435,1,2,0:0:0:55:soft-hitwhistle.wav
192,192,65435,1,0,0:0:0:0:
320,192,65435,1,0,0:0:0:0:
64,192,65588,1,2,0:0:0:55:soft-hitwhistle.wav
192,192,65588,1,0,0:0:0:0:
64,192,65742,1,8,0:0:0:60:soft-hitclap.wav
320,192,65742,1,0,0:0:0:0:
448,192,65742,1,0,0:0:0:0:
192,192,65896,1,2,0:0:0:55:soft-hitwhistle.wav
320,192,65896,1,0,0:0:0:0:
64,192,66050,1,0,0:0:0:0:
192,192,66204,1,2,0:0:0:55:soft-hitwhistle.wav
320,192,66204,1,0,0:0:0:0:
64,192,66358,1,8,0:0:0:60:soft-hitclap.wav
320,192,66358,1,0,0:0:0:0:
448,192,66358,1,0,0:0:0:0:
192,192,66511,128,2,66742:0:0:0:55:soft-hitwhistle.wav
448,192,66511,128,0,66742:0:0:0:0:
192,192,66819,1,2,0:0:0:55:soft-hitwhistle.wav
448,192,66819,1,0,0:0:0:0:
64,192,66973,1,8,0:0:0:60:soft-hitclap.wav
192,192,66973,1,0,0:0:0:0:
320,192,66973,1,0,0:0:0:0:
448,192,67127,1,0,0:0:0:0:
448,192,67281,1,0,0:0:0:0:
192,192,67435,1,8,0:0:0:60:soft-hitclap.wav
320,192,67435,1,2,0:0:0:55:soft-hitwhistle.wav
64,192,67588,1,8,0:0:0:60:soft-hitclap.wav
320,192,67588,1,4,0:0:0:80:soft-hitfinish.wav
448,192,67588,1,0,0:0:0:0:
64,192,67742,1,0,0:0:0:0:
192,192,67896,1,2,0:0:0:55:soft-hitwhistle.wav
320,192,67896,1,0,0:0:0:0:
448,192,67896,1,0,0:0:0:0:
192,192,68050,1,2,0:0:0:55:soft-hitwhistle.wav
320,192,68050,1,0,0:0:0:0:
64,192,68204,1,8,0:0:0:60:soft-hitclap.wav
192,192,68204,1,0,0:0:0:0:
448,192,68204,1,0,0:0:0:0:
320,192,68358,1,2,0:0:0:55:soft-hitwhistle.wav
448,192,68358,1,0,0:0:0:0:
64,192,68511,1,0,0:0:0:0:
320,192,68665,1,2,0:0:0:55:soft-hitwhistle.wav
448,192,68665,1,0,0:0:0:0:
64,192,68819,1,8,0:0:0:60:soft-hitclap.wav
192,192,68819,1,0,0:0:0:0:
320,192,68819,1,0,0:0:0:0:
64,192,68973,1,2,0:0:0:55:soft-hitwhistle.wav
448,192,68973,1,0,0:0:0:0:
192,192,69127,1,0,0:0:0:0:
64,192,69281,1,2,0:0:0:55:soft-hitwhistle.wav
448,192,69281,1,0,0:0:0:0:
192,192,69435,1,8,0:0:0:60:soft-hitclap.wav
320,192,69435,1,0,0:0:0:0:
448,192,69435,1,0,0:0:0:0:
64,192,69588,1,2,0:0:0:55:soft-hitwhistle.wav
192,192,69588,1,0,0:0:0:0:
320,192,69742,1,0,0:0:0:0:
64,192,69896,1,2,0:0:0:55:soft-hitwhistle.wav
192,192,69896,1,0,0:0:0:0:
64,192,70050,1,8,0:0:0:60:soft-hitclap.wav
192,192,70050,1,4,0:0:0:80:soft-hitfinish.wav
448,192,70050,1,0,0:0:0:0:
320,192,70204,1,0,0:0:0:0:
192,192,70281,1,0,0:0:0:0:
64,192,70358,1,2,0:0:0:55:soft-hitwhistle.wav
320,192,70358,1,0,0:0:0:30:soft-hitclap.wav
448,192,70358,1,0,0:0:0:0:
192,192,70435,1,0,0:0:0:30:soft-hitclap.wav
448,192,70511,1,0,0:0:0:30:soft-hitclap.wav
320,192,70588,1,0,0:0:0:30:soft-hitclap.wav
64,192,70665,1,2,0:0:0:55:soft-hitwhistle.wav
192,192,70665,1,0,0:0:0:30:soft-hitclap.wav
448,192,70742,1,0,0:0:0:30:soft-hitclap.wav
320,192,70819,1,0,0:0:0:30:soft-hitclap.wav
192,192,70896,1,0,0:0:0:30:soft-hitclap.wav
64,192,70973,1,2,0:0:0:55:soft-hitwhistle.wav
320,192,70973,1,0,0:0:0:30:soft-hitclap.wav
448,192,71050,1,0,0:0:0:30:soft-hitclap.wav
192,192,71127,1,0,0:0:0:30:soft-hitclap.wav
64,192,71204,1,0,0:0:0:30:soft-hitclap.wav
320,192,71281,1,2,0:0:0:55:soft-hitwhistle.wav
448,192,71281,1,0,0:0:0:30:soft-hitclap.wav
192,192,71358,1,0,0:0:0:30:soft-hitclap.wav
64,192,71435,1,8,0:0:0:60:soft-hitclap.wav
320,192,71435,1,4,0:0:0:80:soft-hitfinish.wav
448,192,71435,1,0,0:0:0:0:
192,192,71511,1,0,0:0:0:0:
320,192,71588,1,2,0:0:0:55:soft-hitwhistle.wav
448,192,71588,1,0,0:0:0:0:
64,192,71665,1,0,0:0:0:30:soft-hitclap.wav
192,192,71742,1,0,0:0:0:30:soft-hitclap.wav
320,192,71819,1,0,0:0:0:30:soft-hitclap.wav
64,192,71896,1,8,0:0:0:60:soft-hitclap.wav
448,192,71896,1,2,0:0:0:55:soft-hitwhistle.wav
192,192,71973,1,0,0:0:0:0:
320,192,72050,1,0,0:0:0:0:
64,192,72127,1,2,0:0:0:55:soft-hitwhistle.wav
192,192,72204,1,8,0:0:0:60:soft-hitclap.wav
320,192,72204,1,4,0:0:0:80:soft-hitfinish.wav
448,192,72204,1,0,0:0:0:0:
64,192,72358,1,2,0:0:0:55:soft-hitwhistle.wav
448,192,72358,1,0,0:0:0:0:
64,192,72511,1,8,0:0:0:60:soft-hitclap.wav
192,192,72511,1,4,0:0:0:80:soft-hitfinish.wav
320,192,72511,1,0,0:0:0:0:
192,192,72665,1,2,0:0:0:55:soft-hitwhistle.wav
448,192,72665,1,0,0:0:0:0:
64,192,72819,1,8,0:0:0:60:soft-hitclap.wav
320,192,72819,1,4,0:0:0:80:soft-hitfinish.wav
448,192,72819,1,0,0:0:0:0:
64,192,72973,1,0,0:0:0:0:
192,192,73127,1,8,0:0:0:60:soft-hitclap.wav
320,192,73127,1,0,0:0:0:0:
448,192,73127,1,0,0:0:0:0:
320,192,73281,1,0,0:0:0:0:
64,192,73435,1,8,0:0:0:60:soft-hitclap.wav
192,192,73435,1,0,0:0:0:0:
448,192,73435,1,0,0:0:0:0:
192,192,73588,1,2,0:0:0:55:soft-hitwhistle.wav
320,192,73588,1,0,0:0:0:0:
64,192,73742,1,8,0:0:0:60:soft-hitclap.wav
320,192,73742,1,0,0:0:0:0:
448,192,73742,1,0,0:0:0:0:
192,192,73896,1,2,0:0:0:55:soft-hitwhistle.wav
448,192,73896,1,0,0:0:0:0:
64,192,74050,1,8,0:0:0:60:soft-hitclap.wav
192,192,74050,1,0,0:0:0:0:
320,192,74050,1,0,0:0:0:0:
64,192,74204,1,0,0:0:0:0:
192,192,74358,1,8,0:0:0:60:soft-hitclap.wav
320,192,74358,1,0,0:0:0:0:
448,192,74358,1,0,0:0:0:0:
448,192,74511,1,0,0:0:0:0:
64,192,74665,1,8,0:0:0:60:soft-hitclap.wav
192,192,74665,1,0,0:0:0:0:
320,192,74665,1,0,0:0:0:0:
192,192,74819,1,2,0:0:0:55:soft-hitwhistle.wav
448,192,74819,1,0,0:0:0:0:
64,192,74973,1,8,0:0:0:60:soft-hitclap.wav
320,192,74973,1,0,0:0:0:0:
448,192,74973,1,0,0:0:0:0:
64,192,75127,1,2,0:0:0:55:soft-hitwhistle.wav
192,192,75127,1,0,0:0:0:0:
192,192,75281,1,8,0:0:0:60:soft-hitclap.wav
320,192,75281,1,0,0:0:0:0:
448,192,75281,1,0,0:0:0:0:
320,192,75435,1,0,0:0:0:0:
64,192,75588,1,8,0:0:0:60:soft-hitclap.wav
192,192,75588,1,0,0:0:0:0:
448,192,75588,1,0,0:0:0:0:
64,192,75742,1,0,0:0:0:0:
192,192,75896,1,8,0:0:0:60:soft-hitclap.wav
320,192,75896,1,0,0:0:0:0:
448,192,75896,1,0,0:0:0:0:
64,192,76050,1,2,0:0:0:55:soft-hitwhistle.wav
320,192,76050,1,0,0:0:0:0:
64,192,76204,1,8,0:0:0:60:soft-hitclap.wav
192,192,76204,1,0,0:0:0:0:
448,192,76204,1,0,0:0:0:0:
192,192,76358,1,2,0:0:0:55:soft-hitwhistle.wav
320,192,76358,1,0,0:0:0:0:
64,192,76511,1,8,0:0:0:60:soft-hitclap.wav
320,192,76511,1,0,0:0:0:0:
448,192,76511,1,0,0:0:0:0:
64,192,76665,1,0,0:0:0:0:
192,192,76819,1,8,0:0:0:60:soft-hitclap.wav
320,192,76819,1,0,0:0:0:0:
448,192,76819,1,0,0:0:0:0:
448,192,76973,1,0,0:0:0:0:
64,192,77127,1,8,0:0:0:60:soft-hitclap.wav
192,192,77127,1,0,0:0:0:0:
320,192,77127,1,0,0:0:0:0:
192,192,77281,1,2,0:0:0:55:soft-hitwhistle.wav
448,192,77281,1,0,0:0:0:0:
64,192,77435,1,8,0:0:0:60:soft-hitclap.wav
320,192,77435,1,4,0:0:0:80:soft-hitfinish.wav
448,192,77435,1,0,0:0:0:0:
192,192,77588,1,2,0:0:0:55:soft-hitwhistle.wav
320,192,77588,1,0,0:0:0:0:
64,192,77742,1,8,0:0:0:60:soft-hitclap.wav
192,192,77742,1,4,0:0:0:80:soft-hitfinish.wav
448,192,77742,1,0,0:0:0:0:
448,192,77896,1,0,0:0:0:0:
64,192,78050,1,8,0:0:0:60:soft-hitclap.wav
192,192,78050,1,0,0:0:0:0:
320,192,78050,1,0,0:0:0:0:
64,192,78204,1,0,0:0:0:0:
192,192,78358,1,8,0:0:0:60:soft-hitclap.wav
320,192,78358,1,0,0:0:0:0:
448,192,78358,1,0,0:0:0:0:
192,192,78511,1,2,0:0:0:55:soft-hitwhistle.wav
320,192,78511,1,0,0:0:0:0:
64,192,78665,1,8,0:0:0:60:soft-hitclap.wav
320,192,78665,1,0,0:0:0:0:
448,192,78665,1,0,0:0:0:0:
192,192,78819,1,2,0:0:0:55:soft-hitwhistle.wav
448,192,78819,1,0,0:0:0:0:
64,192,78973,1,8,0:0:0:60:soft-hitclap.wav
320,192,78973,1,0,0:0:0:0:
448,192,78973,1,0,0:0:0:0:
64,192,79127,1,0,0:0:0:0:
192,192,79281,1,8,0:0:0:60:soft-hitclap.wav
320,192,79281,1,0,0:0:0:0:
448,192,79281,1,0,0:0:0:0:
320,192,79435,1,0,0:0:0:0:
64,192,79588,1,8,0:0:0:60:soft-hitclap.wav
192,192,79588,1,0,0:0:0:0:
448,192,79588,1,0,0:0:0:0:
64,192,79742,1,2,0:0:0:55:soft-hitwhistle.wav
448,192,79742,1,0,0:0:0:0:
64,192,79896,1,8,0:0:0:60:soft-hitclap.wav
192,192,79896,1,0,0:0:0:0:
320,192,79896,1,0,0:0:0:0:
192,192,80050,1,2,0:0:0:55:soft-hitwhistle.wav
448,192,80050,1,0,0:0:0:0:
64,192,80204,1,8,0:0:0:60:soft-hitclap.wav
192,192,80204,1,0,0:0:0:0:
320,192,80204,1,0,0:0:0:0:
320,192,80358,1,0,0:0:0:0:
64,192,80511,1,8,0:0:0:60:soft-hitclap.wav
192,192,80511,1,0,0:0:0:0:
448,192,80511,1,0,0:0:0:0:
64,192,80665,1,0,0:0:0:0:
192,192,80819,1,8,0:0:0:60:soft-hitclap.wav
320,192,80819,1,0,0:0:0:0:
448,192,80819,1,0,0:0:0:0:
192,192,80973,1,2,0:0:0:55:soft-hitwhistle.wav
448,192,80973,1,0,0:0:0:0:
64,192,81127,1,8,0:0:0:60:soft-hitclap.wav
320,192,81127,1,0,0:0:0:0:
448,192,81127,1,0,0:0:0:0:
192,192,81281,1,2,0:0:0:55:soft-hitwhistle.wav
320,192,81281,1,0,0:0:0:0:
64,192,81435,1,8,0:0:0:60:soft-hitclap.wav
320,192,81435,1,0,0:0:0:0:
448,192,81435,1,0,0:0:0:0:
64,192,81588,1,0,0:0:0:0:
192,192,81742,1,8,0:0:0:60:soft-hitclap.wav
320,192,81742,1,0,0:0:0:0:
448,192,81742,1,0,0:0:0:0:
448,192,81896,1,0,0:0:0:0:
64,192,82050,1,8,0:0:0:60:soft-hitclap.wav
192,192,82050,1,0,0:0:0:0:
320,192,82050,1,0,0:0:0:0:
64,192,82204,1,2,0:0:0:55:soft-hitwhistle.wav
320,192,82204,1,0,0:0:0:0:
192,192,82358,1,8,0:0:0:60:soft-hitclap.wav
320,192,82358,1,0,0:0:0:0:
448,192,82358,1,0,0:0:0:0:
192,192,82511,1,2,0:0:0:55:soft-hitwhistle.wav
448,192,82511,1,0,0:0:0:0:
64,192,82665,1,2,0:0:0:55:soft-hitwhistle.wav
192,192,82665,1,4,0:0:0:80:soft-hitfinish.wav
320,192,82665,1,0,0:0:0:0:
320,192,82819,1,0,0:0:0:0:
64,192,82973,1,8,0:0:0:60:soft-hitclap.wav
320,192,82973,1,0,0:0:0:0:
448,192,82973,1,0,0:0:0:0:
320,192,83127,1,0,0:0:0:0:
64,192,83281,1,2,0:0:0:55:soft-hitwhistle.wav
192,192,83281,1,0,0:0:0:0:
192,192,83435,1,2,0:0:0:55:soft-hitwhistle.wav
320,192,83435,1,0,0:0:0:0:
64,192,83588,1,8,0:0:0:60:soft-hitclap.wav
320,192,83588,1,0,0:0:0:0:
448,192,83588,1,0,0:0:0:0:
448,192,83742,1,0,0:0:0:0:
64,192,83896,1,2,0:0:0:55:soft-hitwhistle.wav
320,192,83896,1,0,0:0:0:0:
64,192,84050,1,0,0:0:0:0:
64,192,84204,1,8,0:0:0:60:soft-hitclap.wav
192,192,84204,1,0,0:0:0:0:
448,192,84204,1,0,0:0:0:0:
64,192,84358,1,0,0:0:0:0:
320,192,84511,1,2,0:0:0:55:soft-hitwhistle.wav
448,192,84511,1,0,0:0:0:0:
192,192,84665,1,2,0:0:0:55:soft-hitwhistle.wav
448,192,84665,1,0,0:0:0:0:
64,192,84819,1,8,0:0:0:60:soft-hitclap.wav
192,192,84819,1,0,0:0:0:0:
320,192,84819,1,0,0:0:0:0:
64,192,84973,1,0,0:0:0:0:
320,192,85127,1,2,0:0:0:55:soft-hitwhistle.wav
448,192,85127,1,0,0:0:0:0:
448,192,85281,1,0,0:0:0:0:
64,192,85435,1,8,0:0:0:60:soft-hitclap.wav
192,192,85435,1,0,0:0:0:0:
448,192,85435,1,0,0:0:0:0:
448,192,85588,1,0,0:0:0:0:
64,192,85742,1,2,0:0:0:55:soft-hitwhistle.wav
320,192,85742,1,0,0:0:0:0:
192,192,85896,1,2,0:0:0:55:soft-hitwhistle.wav
320,192,85896,1,0,0:0:0:0:
64,192,86050,1,8,0:0:0:60:soft-hitclap.wav
192,192,86050,1,0,0:0:0:0:
448,192,86050,1,0,0:0:0:0:
448,192,86204,1,0,0:0:0:0:
192,192,86358,1,2,0:0:0:55:soft-hitwhistle.wav
320,192,86358,1,0,0:0:0:0:
192,192,86511,1,0,0:0:0:0:
64,192,86665,1,8,0:0:0:60:soft-hitclap.wav
192,192,86665,1,0,0:0:0:0:
448,192,86665,1,0,0:0:0:0:
192,192,86819,1,0,0:0:0:0:
320,192,86973,1,2,0:0:0:55:soft-hitwhistle.wav
448,192,86973,1,0,0:0:0:0:
64,192,87127,1,2,0:0:0:55:soft-hitwhistle.wav
320,192,87127,1,0,0:0:0:0:
64,192,87281,1,8,0:0:0:60:soft-hitclap.wav
192,192,87281,1,4,0:0:0:80:soft-hitfinish.wav
448,192,87281,1,0,0:0:0:0:
192,192,87435,1,0,0:0:0:0:
320,192,87435,1,0,0:0:0:0:
64,192,87588,1,8,0:0:0:60:soft-hitclap.wav
320,192,87588,1,4,0:0:0:80:soft-hitfinish.wav
448,192,87588,1,0,0:0:0:0:
192,192,87742,1,2,0:0:0:55:soft-hitwhistle.wav
448,192,87742,1,0,0:0:0:0:
64,192,87896,1,8,0:0:0:60:soft-hitclap.wav
192,192,87896,1,0,0:0:0:0:
320,192,87896,1,0,0:0:0:0:
64,192,88050,1,2,0:0:0:55:soft-hitwhistle.wav
448,192,88050,1,0,0:0:0:0:
192,192,88204,1,8,0:0:0:60:soft-hitclap.wav
320,192,88204,1,0,0:0:0:0:
448,192,88204,1,0,0:0:0:0:
64,192,88358,1,2,0:0:0:55:soft-hitwhistle.wav
320,192,88358,1,0,0:0:0:0:
64,192,88511,1,8,0:0:0:60:soft-hitclap.wav
192,192,88511,1,0,0:0:0:0:
448,192,88511,1,0,0:0:0:0:
192,192,88665,1,2,0:0:0:55:soft-hitwhistle.wav
320,192,88665,1,0,0:0:0:0:
64,192,88819,1,8,0:0:0:60:soft-hitclap.wav
320,192,88819,1,0,0:0:0:0:
448,192,88819,1,0,0:0:0:0:
64,192,88973,1,2,0:0:0:55:soft-hitwhistle.wav
192,192,88973,1,0,0:0:0:0:
192,192,89127,1,8,0:0:0:60:soft-hitclap.wav
320,192,89127,1,0,0:0:0:0:
448,192,89127,1,0,0:0:0:0:
64,192,89281,1,2,0:0:0:55:soft-hitwhistle.wav
448,192,89281,1,0,0:0:0:0:
64,192,89435,1,8,0:0:0:60:soft-hitclap.wav
192,192,89435,1,0,0:0:0:0:
320,192,89435,1,0,0:0:0:0:
192,192,89588,1,2,0:0:0:55:soft-hitwhistle.wav
448,192,89588,1,0,0:0:0:0:
64,192,89742,1,8,0:0:0:60:soft-hitclap.wav
320,192,89742,1,4,0:0:0:80:soft-hitfinish.wav
448,192,89742,1,0,0:0:0:0:
192,192,89896,1,2,0:0:0:55:soft-hitwhistle.wav
320,192,89896,1,0,0:0:0:0:
64,192,90050,1,8,0:0:0:60:soft-hitclap.wav
192,192,90050,1,4,0:0:0:80:soft-hitfinish.wav
448,192,90050,1,0,0:0:0:0:
64,192,90204,1,8,0:0:0:60:soft-hitclap.wav
448,192,90204,1,0,0:0:0:0:
64,192,90511,1,8,0:0:0:60:soft-hitclap.wav
448,192,90511,1,0,0:0:0:0:
64,192,90819,1,8,0:0:0:60:soft-hitclap.wav
448,192,90819,1,0,0:0:0:0:
64,192,91127,1,8,0:0:0:60:soft-hitclap.wav
320,192,91127,1,0,0:0:0:0:
448,192,91127,1,0,0:0:0:0:
192,192,91281,1,8,0:0:0:60:soft-hitclap.wav
448,192,91281,128,0,92511:0:0:0:0:
64,192,91742,1,0,0:0:0:0:
320,192,91896,1,0,0:0:0:0:
64,192,92511,1,0,0:0:0:0:
192,192,92511,1,0,0:0:0:0:
320,192,92665,1,0,0:0:0:0:
64,192,92819,1,8,0:0:0:60:soft-hitclap.wav
448,192,92819,1,0,0:0:0:0:
192,192,92973,1,0,0:0:0:0:
192,192,93127,1,0,0:0:0:0:
448,192,93281,1,0,0:0:0:0:
64,192,93435,1,8,0:0:0:60:soft-hitclap.wav
320,192,93435,1,0,0:0:0:0:
192,192,93588,1,0,0:0:0:0:
448,192,93742,1,0,0:0:0:0:
320,192,93896,1,0,0:0:0:0:
64,192,94050,1,8,0:0:0:60:soft-hitclap.wav
192,192,94050,1,0,0:0:0:0:
448,192,94204,1,0,0:0:0:0:
448,192,94358,1,0,0:0:0:0:
192,192,94511,1,0,0:0:0:0:
64,192,94665,1,8,0:0:0:60:soft-hitclap.wav
320,192,94665,1,0,0:0:0:0:
448,192,94819,1,0,0:0:0:0:
64,192,94973,1,0,0:0:0:0:
320,192,95127,1,0,0:0:0:0:
192,192,95281,1,8,0:0:0:60:soft-hitclap.wav
448,192,95281,1,0,0:0:0:0:
64,192,95435,1,0,0:0:0:0:
64,192,95588,1,0,0:0:0:0:
320,192,95742,1,0,0:0:0:0:
64,192,95896,1,8,0:0:0:60:soft-hitclap.wav
192,192,95896,1,0,0:0:0:0:
448,192,96050,1,0,0:0:0:0:
320,192,96204,1,0,0:0:0:0:
64,192,96358,1,0,0:0:0:0:
192,192,96511,1,8,0:0:0:60:soft-hitclap.wav
448,192,96511,1,0,0:0:0:0:
320,192,96665,1,0,0:0:0:0:
320,192,96819,1,0,0:0:0:0:
64,192,96973,1,0,0:0:0:0:
192,192,97127,1,8,0:0:0:60:soft-hitclap.wav
448,192,97127,1,0,0:0:0:0:
320,192,97281,1,0,0:0:0:0:
64,192,97435,1,2,0:0:0:55:soft-hitwhistle.wav
192,192,97435,1,0,0:0:0:0:
448,192,97588,1,0,0:0:0:0:
64,192,97742,1,2,0:0:0:55:soft-hitwhistle.wav
320,192,97742,1,0,0:0:0:0:
192,192,97896,1,0,0:0:0:0:
64,192,98050,1,2,0:0:0:55:soft-hitwhistle.wav
448,192,98050,1,0,0:0:0:0:
320,192,98204,1,0,0:0:0:0:
192,192,98358,1,2,0:0:0:55:soft-hitwhistle.wav
448,192,98358,1,0,0:0:0:0:
64,192,98511,1,0,0:0:0:0:
320,192,98665,1,2,0:0:0:55:soft-hitwhistle.wav
448,192,98665,1,0,0:0:0:0:
64,192,98819,1,0,0:0:0:0:
192,192,98973,1,2,0:0:0:55:soft-hitwhistle.wav
448,192,98973,1,0,0:0:0:0:
320,192,99127,1,0,0:0:0:0:
64,192,99281,1,2,0:0:0:55:soft-hitwhistle.wav
448,192,99281,1,0,0:0:0:0:
64,192,99435,1,8,0:0:0:60:soft-hitclap.wav
320,192,99435,1,0,0:0:0:0:
320,192,99588,1,8,0:0:0:60:soft-hitclap.wav
448,192,99588,1,0,0:0:0:0:
64,192,99665,1,8,0:0:0:60:soft-hitclap.wav
192,192,99665,1,0,0:0:0:0:
320,192,99742,1,8,0:0:0:60:soft-hitclap.wav
448,192,99742,1,0,0:0:0:0:
192,192,99819,1,8,0:0:0:60:soft-hitclap.wav
64,192,99896,1,2,0:0:0:55:soft-hitwhistle.wav
320,192,99896,1,4,0:0:0:80:soft-hitfinish.wav
448,192,99896,1,0,0:0:0:0:
448,192,100050,1,0,0:0:0:0:
64,192,100204,1,8,0:0:0:60:soft-hitclap.wav
192,192,100204,1,0,0:0:0:0:
320,192,100204,1,0,0:0:0:0:
192,192,100358,1,2,0:0:0:55:soft-hitwhistle.wav
448,192,100358,1,0,0:0:0:0:
64,192,100511,1,8,0:0:0:60:soft-hitclap.wav
320,192,100511,1,0,0:0:0:0:
448,192,100511,1,0,0:0:0:0:
192,192,100665,1,2,0:0:0:55:soft-hitwhistle.wav
320,192,100665,1,0,0:0:0:0:
64,192,100819,1,8,0:0:0:60:soft-hitclap.wav
192,192,100819,1,0,0:0:0:0:
448,192,100819,1,0,0:0:0:0:
64,192,100973,1,8,0:0:0:60:soft-hitclap.wav
320,192,100973,1,4,0:0:0:80:soft-hitfinish.wav
448,192,100973,1,0,0:0:0:0:
192,192,101127,1,0,0:0:0:0:
64,192,101281,1,2,0:0:0:55:soft-hitwhistle.wav
320,192,101281,1,0,0:0:0:0:
192,192,101435,1,8,0:0:0:60:soft-hitclap.wav
320,192,101435,1,0,0:0:0:0:
448,192,101435,1,0,0:0:0:0:
64,192,101588,1,0,0:0:0:30:soft-hitclap.wav
320,192,101665,1,0,0:0:0:30:soft-hitclap.wav
192,192,101742,1,2,0:0:0:55:soft-hitwhistle.wav
448,192,101742,1,0,0:0:0:0:
64,192,101896,1,8,0:0:0:60:soft-hitclap.wav
448,192,101896,1,0,0:0:0:0:
64,192,102050,1,8,0:0:0:60:soft-hitclap.wav
192,192,102050,1,0,0:0:0:0:
320,192,102127,1,8,0:0:0:60:soft-hitclap.wav
448,192,102127,1,0,0:0:0:0:
64,192,102204,1,8,0:0:0:60:soft-hitclap.wav
192,192,102204,1,0,0:0:0:0:
320,192,102281,1,8,0:0:0:60:soft-hitclap.wav
64,192,102358,1,2,0:0:0:55:soft-hitwhistle.wav
192,192,102358,1,4,0:0:0:80:soft-hitfinish.wav
448,192,102358,1,0,0:0:0:0:
448,192,102511,1,0,0:0:0:0:
64,192,102665,1,8,0:0:0:60:soft-hitclap.wav
320,192,102665,1,0,0:0:0:0:
448,192,102665,1,0,0:0:0:0:
448,192,102819,1,0,0:0:0:0:
64,192,102973,1,2,0:0:0:55:soft-hitwhistle.wav
192,192,102973,1,0,0:0:0:0:
192,192,103127,1,2,0:0:0:55:soft-hitwhistle.wav
320,192,103127,1,0,0:0:0:0:
64,192,103281,1,8,0:0:0:60:soft-hitclap.wav
320,192,103281,1,0,0:0:0:0:
448,192,103281,1,0,0:0:0:0:
64,192,103435,1,2,0:0:0:55:soft-hitwhistle.wav
192,192,103435,1,0,0:0:0:0:
448,192,103588,1,0,0:0:0:0:
64,192,103742,1,2,0:0:0:55:soft-hitwhistle.wav
320,192,103742,1,0,0:0:0:0:
192,192,103896,1,8,0:0:0:60:soft-hitclap.wav
320,192,103896,1,0,0:0:0:0:
448,192,103896,1,0,0:0:0:0:
64,192,104050,1,0,0:0:0:0:
320,192,104204,1,2,0:0:0:55:soft-hitwhistle.wav
448,192,104204,1,0,0:0:0:0:
192,192,104358,1,2,0:0:0:55:soft-hitwhistle.wav
320,192,104358,1,0,0:0:0:0:
64,192,104511,1,8,0:0:0:60:soft-hitclap.wav
192,192,104511,1,0,0:0:0:0:
448,192,104511,1,0,0:0:0:0:
320,192,104665,1,0,0:0:0:0:
64,192,104819,1,2,0:0:0:55:soft-hitwhistle.wav
192,192,104819,1,0,0:0:0:0:
64,192,104973,1,0,0:0:0:0:
64,192,105127,1,8,0:0:0:60:soft-hitclap.wav
320,192,105127,1,0,0:0:0:0:
448,192,105127,1,0,0:0:0:0:
64,192,105281,1,0,0:0:0:0:
320,192,105435,1,2,0:0:0:55:soft-hitwhistle.wav
448,192,105435,1,0,0:0:0:0:
192,192,105588,1,2,0:0:0:55:soft-hitwhistle.wav
320,192,105588,1,0,0:0:0:0:
64,192,105742,1,8,0:0:0:60:soft-hitclap.wav
192,192,105742,1,0,0:0:0:0:
448,192,105742,1,0,0:0:0:0:
64,192,105896,1,2,0:0:0:55:soft-hitwhistle.wav
320,192,105896,1,0,0:0:0:0:
192,192,106050,1,0,0:0:0:0:
320,192,106204,1,2,0:0:0:55:soft-hitwhistle.wav
448,192,106204,1,0,0:0:0:0:
64,192,106358,1,8,0:0:0:60:soft-hitclap.wav
192,192,106358,1,0,0:0:0:0:
448,192,106358,1,0,0:0:0:0:
320,192,106511,1,0,0:0:0:0:
64,192,106665,1,2,0:0:0:55:soft-hitwhistle.wav
192,192,106665,1,0,0:0:0:0:
64,192,106819,1,2,0:0:0:55:soft-hitwhistle.wav
448,192,106819,1,0,0:0:0:0:
192,192,106973,1,8,0:0:0:60:soft-hitclap.wav
320,192,106973,1,4,0:0:0:80:soft-hitfinish.wav
448,192,106973,1,0,0:0:0:0:
192,192,107127,1,0,0:0:0:0:
64,192,107281,1,2,0:0:0:55:soft-hitwhistle.wav
448,192,107281,1,0,0:0:0:0:
320,192,107435,1,0,0:0:0:0:
64,192,107588,1,8,0:0:0:60:soft-hitclap.wav
192,192,107588,1,0,0:0:0:0:
448,192,107588,1,0,0:0:0:0:
192,192,107742,1,2,0:0:0:55:soft-hitwhistle.wav
320,192,107742,1,0,0:0:0:0:
64,192,107896,1,0,0:0:0:0:
320,192,108050,1,0,0:0:0:0:
448,192,108050,1,0,0:0:0:0:
64,192,108204,1,8,0:0:0:60:soft-hitclap.wav
192,192,108204,1,0,0:0:0:0:
320,192,108204,1,0,0:0:0:0:
448,192,108358,1,0,0:0:0:0:
320,192,108435,1,0,0:0:0:0:
192,192,108511,1,0,0:0:0:0:
64,192,108665,1,2,0:0:0:55:soft-hitwhistle.wav
320,192,108665,1,0,0:0:0:0:
64,192,108819,1,0,0:0:0:30:soft-hitclap.wav
192,192,108819,1,0,0:0:0:0:
448,192,108819,1,0,0:0:0:0:
320,192,108973,1,0,0:0:0:0:
64,192,109127,1,2,0:0:0:55:soft-hitwhistle.wav
192,192,109127,1,0,0:0:0:0:
192,192,109281,1,0,0:0:0:0:
448,192,109281,1,0,0:0:0:0:
64,192,109435,1,8,0:0:0:60:soft-hitclap.wav
320,192,109435,1,4,0:0:0:80:soft-hitfinish.wav
448,192,109435,1,0,0:0:0:0:
64,192,109588,1,0,0:0:0:0:
192,192,109742,1,2,0:0:0:55:soft-hitwhistle.wav
320,192,109742,1,0,0:0:0:0:
448,192,109742,1,0,0:0:0:0:
320,192,109896,1,0,0:0:0:0:
64,192,110050,1,8,0:0:0:60:soft-hitclap.wav
192,192,110050,1,4,0:0:0:80:soft-hitfinish.wav
448,192,110050,1,0,0:0:0:0:
320,192,110204,1,2,0:0:0:55:soft-hitwhistle.wav
448,192,110204,1,0,0:0:0:0:
64,192,110358,1,0,0:0:0:30:soft-hitclap.wav
192,192,110511,1,2,0:0:0:55:soft-hitwhistle.wav
320,192,110511,1,0,0:0:0:0:
64,192,110665,1,8,0:0:0:60:soft-hitclap.wav
320,192,110665,1,0,0:0:0:0:
448,192,110665,1,0,0:0:0:0:
64,192,110819,128,8,111050:0:0:0:60:soft-hitclap.wav
192,192,110819,1,4,0:0:0:80:soft-hitfinish.wav
448,192,110819,128,0,111050:0:0:0:0:
64,192,111127,1,8,0:0:0:60:soft-hitclap.wav
448,192,111127,1,0,0:0:0:0:
64,192,111281,1,8,0:0:0:60:soft-hitclap.wav
448,192,111281,1,0,0:0:0:0:
64,192,111588,1,8,0:0:0:60:soft-hitclap.wav
320,192,111588,1,0,0:0:0:0:
448,192,111588,1,0,0:0:0:0:
192,192,111742,1,2,0:0:0:55:soft-hitwhistle.wav
320,192,111742,1,0,0:0:0:0:
64,192,111896,1,8,0:0:0:60:soft-hitclap.wav
192,192,111896,1,4,0:0:0:80:soft-hitfinish.wav
320,192,111896,1,0,0:0:0:0:
448,192,111896,1,0,0:0:0:0:
64,192,112204,1,2,0:0:0:55:soft-hitwhistle.wav
192,192,112204,1,4,0:0:0:80:soft-hitfinish.wav
320,192,112204,1,0,0:0:0:0:
448,192,112204,1,0,0:0:0:0:
192,192,112358,1,0,0:0:0:0:
192,192,112511,1,8,0:0:0:60:soft-hitclap.wav
320,192,112511,1,0,0:0:0:0:
448,192,112511,1,0,0:0:0:0:
192,192,112665,1,0,0:0:0:0:
64,192,112819,1,2,0:0:0:55:soft-hitwhistle.wav
192,192,112819,1,0,0:0:0:0:
64,192,112973,1,2,0:0:0:55:soft-hitwhistle.wav
320,192,112973,1,0,0:0:0:0:
192,192,113127,1,8,0:0:0:60:soft-hitclap.wav
320,192,113127,1,0,0:0:0:0:
448,192,113127,1,0,0:0:0:0:
192,192,113281,1,2,0:0:0:55:soft-hitwhistle.wav
448,192,113281,1,0,0:0:0:0:
64,192,113435,1,0,0:0:0:0:
320,192,113588,1,2,0:0:0:55:soft-hitwhistle.wav
448,192,113588,1,0,0:0:0:0:
64,192,113742,1,8,0:0:0:60:soft-hitclap.wav
192,192,113742,1,0,0:0:0:0:
320,192,113742,1,0,0:0:0:0:
448,192,113896,1,0,0:0:0:0:
64,192,114050,1,2,0:0:0:55:soft-hitwhistle.wav
320,192,114050,1,0,0:0:0:0:
192,192,114204,1,2,0:0:0:55:soft-hitwhistle.wav
320,192,114204,1,0,0:0:0:0:
64,192,114358,1,8,0:0:0:60:soft-hitclap.wav
192,192,114358,1,0,0:0:0:0:
448,192,114358,1,0,0:0:0:0:
64,192,114511,1,0,0:0:0:0:
192,192,114665,1,2,0:0:0:55:soft-hitwhistle.wav
320,192,114665,1,0,0:0:0:0:
320,192,114819,1,0,0:0:0:0:
64,192,114973,1,8,0:0:0:60:soft-hitclap.wav
320,192,114973,1,0,0:0:0:0:
448,192,114973,1,0,0:0:0:0:
320,192,115127,1,0,0:0:0:0:
192,192,115281,1,2,0:0:0:55:soft-hitwhistle.wav
320,192,115281,1,0,0:0:0:0:
192,192,115435,1,2,0:0:0:55:soft-hitwhistle.wav
448,192,115435,1,0,0:0:0:0:
64,192,115588,1,8,0:0:0:60:soft-hitclap.wav
320,192,115588,1,0,0:0:0:0:
448,192,115588,1,0,0:0:0:0:
64,192,115742,1,2,0:0:0:55:soft-hitwhistle.wav
320,192,115742,1,0,0:0:0:0:
192,192,115896,1,0,0:0:0:0:
320,192,116050,1,2,0:0:0:55:soft-hitwhistle.wav
448,192,116050,1,0,0:0:0:0:
64,192,116204,1,8,0:0:0:60:soft-hitclap.wav
192,192,116204,1,0,0:0:0:0:
448,192,116204,1,0,0:0:0:0:
320,192,116358,1,0,0:0:0:0:
64,192,116511,1,2,0:0:0:55:soft-hitwhistle.wav
192,192,116511,1,0,0:0:0:0:
64,192,116665,1,2,0:0:0:55:soft-hitwhistle.wav
320,192,116665,1,0,0:0:0:0:
192,192,116819,1,8,0:0:0:60:soft-hitclap.wav
320,192,116819,1,4,0:0:0:80:soft-hitfinish.wav
448,192,116819,1,0,0:0:0:0:
192,192,116973,1,0,0:0:0:0:
64,192,117127,1,2,0:0:0:55:soft-hitwhistle.wav
320,192,117127,1,0,0:0:0:0:
448,192,117127,1,0,0:0:0:0:
320,192,117281,1,0,0:0:0:0:
64,192,117435,1,8,0:0:0:60:soft-hitclap.wav
192,192,117435,1,0,0:0:0:0:
448,192,117435,1,0,0:0:0:0:
320,192,117588,1,0,0:0:0:0:
64,192,117742,1,2,0:0:0:55:soft-hitwhistle.wav
192,192,117742,1,0,0:0:0:0:
320,192,117896,1,0,0:0:0:0:
64,192,118050,1,8,0:0:0:60:soft-hitclap.wav
192,192,118050,1,0,0:0:0:0:
448,192,118050,1,0,0:0:0:0:
64,192,118204,1,2,0:0:0:55:soft-hitwhistle.wav
320,192,118204,1,0,0:0:0:0:
448,192,118358,1,0,0:0:0:0:
64,192,118511,1,2,0:0:0:55:soft-hitwhistle.wav
192,192,118511,1,0,0:0:0:0:
64,192,118665,1,8,0:0:0:60:soft-hitclap.wav
320,192,118665,1,0,0:0:0:0:
448,192,118665,1,0,0:0:0:0:
192,192,118819,1,0,0:0:0:0:
64,192,118973,1,2,0:0:0:55:soft-hitwhistle.wav
320,192,118973,1,0,0:0:0:0:
192,192,119127,1,2,0:0:0:55:soft-hitwhistle.wav
320,192,119127,1,0,0:0:0:0:
64,192,119281,1,8,0:0:0:60:soft-hitclap.wav
192,192,119281,1,4,0:0:0:80:soft-hitfinish.wav
448,192,119281,1,0,0:0:0:0:
448,192,119435,1,0,0:0:0:0:
64,192,119588,1,2,0:0:0:55:soft-hitwhistle.wav
192,192,119588,1,0,0:0:0:0:
320,192,119588,1,0,0:0:0:0:
192,192,119742,1,0,0:0:0:0:
64,192,119896,1,8,0:0:0:60:soft-hitclap.wav
320,192,119896,1,4,0:0:0:80:soft-hitfinish.wav
448,192,119896,1,0,0:0:0:0:
192,192,120050,1,2,0:0:0:55:soft-hitwhistle.wav
448,192,120050,1,0,0:0:0:0:
320,192,120204,1,8,0:0:0:60:soft-hitclap.wav
64,192,120358,1,2,0:0:0:55:soft-hitwhistle.wav
192,192,120358,1,0,0:0:0:0:
64,192,120511,1,8,0:0:0:60:soft-hitclap.wav
320,192,120511,1,0,0:0:0:0:
448,192,120511,1,0,0:0:0:0:
192,192,120665,1,8,0:0:0:60:soft-hitclap.wav
320,192,120665,1,4,0:0:0:80:soft-hitfinish.wav
448,192,120665,1,0,0:0:0:0:
64,192,120819,1,0,0:0:0:0:
192,192,120973,1,2,0:0:0:55:soft-hitwhistle.wav
320,192,120973,1,0,0:0:0:0:
64,192,121127,1,8,0:0:0:60:soft-hitclap.wav
320,192,121127,1,0,0:0:0:0:
448,192,121127,1,0,0:0:0:0:
192,192,121281,1,0,0:0:0:0:
448,192,121358,1,0,0:0:0:0:
64,192,121435,1,2,0:0:0:55:soft-hitwhistle.wav
320,192,121435,1,0,0:0:0:30:soft-hitclap.wav
192,192,121588,1,0,0:0:0:30:soft-hitclap.wav
320,192,121588,1,0,0:0:0:0:
64,192,121742,1,8,0:0:0:60:soft-hitclap.wav
192,192,121742,1,0,0:0:0:0:
320,192,121819,1,8,0:0:0:60:soft-hitclap.wav
448,192,121819,1,0,0:0:0:0:
64,192,121896,1,8,0:0:0:60:soft-hitclap.wav
192,192,121896,1,0,0:0:0:0:
448,192,121973,1,8,0:0:0:60:soft-hitclap.wav
64,192,122050,1,2,0:0:0:55:soft-hitwhistle.wav
192,192,122050,1,4,0:0:0:80:soft-hitfinish.wav
320,192,122050,1,0,0:0:0:0:
320,192,122204,1,0,0:0:0:0:
64,192,122358,1,8,0:0:0:60:soft-hitclap.wav
320,192,122358,1,0,0:0:0:0:
448,192,122358,1,0,0:0:0:0:
320,192,122511,1,0,0:0:0:0:
192,192,122665,1,2,0:0:0:55:soft-hitwhistle.wav
320,192,122665,1,0,0:0:0:0:
192,192,122819,1,2,0:0:0:55:soft-hitwhistle.wav
448,192,122819,1,0,0:0:0:0:
64,192,122973,1,8,0:0:0:60:soft-hitclap.wav
320,192,122973,1,0,0:0:0:0:
448,192,122973,1,0,0:0:0:0:
64,192,123127,1,2,0:0:0:55:soft-hitwhistle.wav
320,192,123127,1,0,0:0:0:0:
192,192,123281,1,0,0:0:0:0:
64,192,123435,1,2,0:0:0:55:soft-hitwhistle.wav
448,192,123435,1,0,0:0:0:0:
192,192,123588,1,8,0:0:0:60:soft-hitclap.wav
320,192,123588,1,0,0:0:0:0:
448,192,123588,1,0,0:0:0:0:
64,192,123742,1,0,0:0:0:0:
320,192,123896,1,2,0:0:0:55:soft-hitwhistle.wav
448,192,123896,1,0,0:0:0:0:
192,192,124050,1,2,0:0:0:55:soft-hitwhistle.wav
320,192,124050,1,0,0:0:0:0:
64,192,124204,1,8,0:0:0:60:soft-hitclap.wav
192,192,124204,1,0,0:0:0:0:
448,192,124204,1,0,0:0:0:0:
320,192,124358,1,0,0:0:0:0:
64,192,124511,1,2,0:0:0:55:soft-hitwhistle.wav
192,192,124511,1,0,0:0:0:0:
192,192,124665,1,0,0:0:0:0:
192,192,124819,1,8,0:0:0:60:soft-hitclap.wav
320,192,124819,1,0,0:0:0:0:
448,192,124819,1,0,0:0:0:0:
192,192,124973,1,0,0:0:0:0:
192,192,125127,1,2,0:0:0:55:soft-hitwhistle.wav
320,192,125127,1,0,0:0:0:0:
64,192,125281,1,2,0:0:0:55:soft-hitwhistle.wav
320,192,125281,1,0,0:0:0:0:
64,192,125435,1,8,0:0:0:60:soft-hitclap.wav
192,192,125435,1,0,0:0:0:0:
448,192,125435,1,0,0:0:0:0:
192,192,125588,1,2,0:0:0:55:soft-hitwhistle.wav
448,192,125588,1,0,0:0:0:0:
320,192,125742,1,0,0:0:0:0:
64,192,125896,1,2,0:0:0:55:soft-hitwhistle.wav
192,192,125896,1,0,0:0:0:0:
64,192,126050,1,8,0:0:0:60:soft-hitclap.wav
320,192,126050,1,0,0:0:0:0:
448,192,126050,1,0,0:0:0:0:
192,192,126204,1,0,0:0:0:0:
320,192,126281,1,0,0:0:0:0:
64,192,126358,1,2,0:0:0:55:soft-hitwhistle.wav
448,192,126358,1,0,0:0:0:0:
192,192,126511,1,2,0:0:0:55:soft-hitwhistle.wav
448,192,126511,1,0,0:0:0:0:
64,192,126665,1,8,0:0:0:60:soft-hitclap.wav
192,192,126665,1,4,0:0:0:80:soft-hitfinish.wav
320,192,126665,1,0,0:0:0:0:
320,192,126819,1,0,0:0:0:0:
64,192,126973,1,2,0:0:0:55:soft-hitwhistle.wav
192,192,126973,1,0,0:0:0:0:
448,192,126973,1,0,0:0:0:0:
192,192,127127,1,0,0:0:0:0:
64,192,127281,1,8,0:0:0:60:soft-hitclap.wav
320,192,127281,1,0,0:0:0:0:
448,192,127281,1,0,0:0:0:0:
192,192,127435,1,2,0:0:0:55:soft-hitwhistle.wav
448,192,127435,1,0,0:0:0:0:
320,192,127588,1,0,0:0:0:0:
64,192,127742,1,0,0:0:0:0:
192,192,127742,1,0,0:0:0:0:
64,192,127896,1,8,0:0:0:60:soft-hitclap.wav
320,192,127896,1,0,0:0:0:0:
448,192,127896,1,0,0:0:0:0:
192,192,128050,1,0,0:0:0:0:
320,192,128204,1,0,0:0:0:0:
64,192,128358,1,2,0:0:0:55:soft-hitwhistle.wav
448,192,128358,1,0,0:0:0:0:
192,192,128511,1,0,0:0:0:30:soft-hitclap.wav
320,192,128511,1,0,0:0:0:0:
448,192,128511,1,0,0:0:0:0:
64,192,128665,1,0,0:0:0:0:
192,192,128819,1,2,0:0:0:55:soft-hitwhistle.wav
320,192,128819,1,0,0:0:0:0:
192,192,128973,1,2,0:0:0:55:soft-hitwhistle.wav
448,192,128973,1,0,0:0:0:0:
64,192,129127,1,8,0:0:0:60:soft-hitclap.wav
320,192,129127,1,4,0:0:0:80:soft-hitfinish.wav
448,192,129127,1,0,0:0:0:0:
64,192,129281,1,0,0:0:0:0:
192,192,129435,1,2,0:0:0:55:soft-hitwhistle.wav
320,192,129435,1,0,0:0:0:0:
448,192,129435,1,0,0:0:0:0:
320,192,129588,1,0,0:0:0:0:
64,192,129742,1,8,0:0:0:60:soft-hitclap.wav
192,192,129742,1,4,0:0:0:80:soft-hitfinish.wav
448,192,129742,1,0,0:0:0:0:
192,192,129896,1,2,0:0:0:55:soft-hitwhistle.wav
320,192,129896,1,0,0:0:0:0:
64,192,130050,1,0,0:0:0:30:soft-hitclap.wav
320,192,130204,1,2,0:0:0:55:soft-hitwhistle.wav
448,192,130204,1,0,0:0:0:0:
64,192,130358,1,8,0:0:0:60:soft-hitclap.wav
192,192,130358,1,0,0:0:0:0:
448,192,130358,1,0,0:0:0:0:
64,192,130511,1,8,0:0:0:60:soft-hitclap.wav
192,192,130511,128,4,130742:0:0:0:80:soft-hitfinish.wav
320,192,130511,128,0,130742:0:0:0:0:
192,192,130819,1,8,0:0:0:60:soft-hitclap.wav
320,192,130819,1,0,0:0:0:0:
192,192,130973,1,8,0:0:0:60:soft-hitclap.wav
320,192,130973,1,0,0:0:0:0:
448,192,131050,1,0,0:0:0:0:
64,192,131127,1,0,0:0:0:0:
320,192,131204,1,0,0:0:0:0:
64,192,131281,1,8,0:0:0:60:soft-hitclap.wav
192,192,131281,1,0,0:0:0:0:
448,192,131281,1,0,0:0:0:0:
192,192,131435,1,2,0:0:0:55:soft-hitwhistle.wav
320,192,131435,1,0,0:0:0:0:
64,192,131588,1,8,0:0:0:60:soft-hitclap.wav
320,192,131588,128,4,131896:0:0:0:80:soft-hitfinish.wav
448,192,131588,1,0,0:0:0:0:
64,192,131896,1,2,0:0:0:55:soft-hitwhistle.wav
192,192,131896,1,4,0:0:0:80:soft-hitfinish.wav
448,192,131896,128,0,132050:0:0:0:0:
192,192,132050,1,0,0:0:0:0:
64,192,132204,1,8,0:0:0:60:soft-hitclap.wav
320,192,132204,1,0,0:0:0:100:LR_Clap Fast Low.wav
448,192,132204,1,0,0:0:0:0:
192,192,132358,1,2,0:0:0:55:soft-hitwhistle.wav
320,192,132358,1,0,0:0:0:0:
64,192,132511,1,2,0:0:0:55:soft-hitwhistle.wav
448,192,132511,1,0,0:0:0:100:LR_Clap Fast Low.wav
320,192,132665,1,0,0:0:0:0:
64,192,132819,1,8,0:0:0:60:soft-hitclap.wav
192,192,132819,1,0,0:0:0:100:LR_Clap Fast Low.wav
448,192,132819,1,0,0:0:0:0:
320,192,132973,1,2,0:0:0:55:soft-hitwhistle.wav
448,192,132973,128,0,133281:0:0:0:0:
192,192,133127,1,0,0:0:0:100:LR_Clap Fast Low.wav
64,192,133281,1,2,0:0:0:55:soft-hitwhistle.wav
320,192,133281,1,0,0:0:0:0:
64,192,133435,1,8,0:0:0:60:soft-hitclap.wav
192,192,133435,1,0,0:0:0:100:LR_Clap Fast Low.wav
448,192,133435,1,0,0:0:0:0:
320,192,133588,1,2,0:0:0:55:soft-hitwhistle.wav
448,192,133588,1,0,0:0:0:0:
64,192,133742,1,2,0:0:0:55:soft-hitwhistle.wav
192,192,133742,1,0,0:0:0:100:LR_Clap Fast Low.wav
320,192,133896,1,0,0:0:0:0:
64,192,134050,1,8,0:0:0:60:soft-hitclap.wav
192,192,134050,1,0,0:0:0:100:LR_Clap Fast Low.wav
448,192,134050,1,0,0:0:0:0:
320,192,134204,1,0,0:0:0:0:
192,192,134358,1,2,0:0:0:55:soft-hitwhistle.wav
448,192,134358,128,0,134511:0:0:0:0:
64,192,134511,1,0,0:0:0:0:
192,192,134665,1,8,0:0:0:60:soft-hitclap.wav
320,192,134665,1,0,0:0:0:100:LR_Clap Fast Low.wav
448,192,134665,1,0,0:0:0:0:
64,192,134819,1,2,0:0:0:55:soft-hitwhistle.wav
448,192,134819,1,0,0:0:0:0:
192,192,134973,1,2,0:0:0:55:soft-hitwhistle.wav
320,192,134973,1,0,0:0:0:100:LR_Clap Fast Low.wav
448,192,135127,1,0,0:0:0:0:
64,192,135281,1,8,0:0:0:60:soft-hitclap.wav
192,192,135281,1,0,0:0:0:100:LR_Clap Fast Low.wav
320,192,135281,1,0,0:0:0:0:
64,192,135435,1,2,0:0:0:55:soft-hitwhistle.wav
448,192,135435,128,0,135742:0:0:0:0:
192,192,135588,1,0,0:0:0:100:LR_Clap Fast Low.wav
64,192,135742,1,2,0:0:0:55:soft-hitwhistle.wav
320,192,135742,1,0,0:0:0:0:
192,192,135896,1,8,0:0:0:60:soft-hitclap.wav
320,192,135896,1,0,0:0:0:100:LR_Clap Fast Low.wav
448,192,135896,1,0,0:0:0:0:
64,192,136050,1,2,0:0:0:55:soft-hitwhistle.wav
192,192,136050,1,0,0:0:0:0:
64,192,136204,1,8,0:0:0:60:soft-hitclap.wav
320,192,136204,1,4,0:0:0:80:soft-hitfinish.wav
448,192,136204,1,0,0:0:0:100:LR_Clap Fast Low.wav
192,192,136358,1,2,0:0:0:55:soft-hitwhistle.wav
448,192,136358,1,0,0:0:0:0:
64,192,136511,1,8,0:0:0:60:soft-hitclap.wav
192,192,136511,1,4,0:0:0:80:soft-hitfinish.wav
320,192,136511,1,0,0:0:0:0:
448,192,136665,128,0,136819:0:0:0:0:
192,192,136819,1,0,0:0:0:0:
192,192,136973,1,2,0:0:0:55:soft-hitwhistle.wav
320,192,136973,1,0,0:0:0:0:
64,192,137127,1,8,0:0:0:60:soft-hitclap.wav
320,192,137127,1,4,0:0:0:80:soft-hitfinish.wav
448,192,137127,1,0,0:0:0:100:LR_Clap Fast Low.wav
64,192,137281,1,2,0:0:0:55:soft-hitwhistle.wav
192,192,137281,1,0,0:0:0:0:
320,192,137435,1,2,0:0:0:55:soft-hitwhistle.wav
448,192,137435,1,0,0:0:0:100:LR_Clap Fast Low.wav
192,192,137588,1,2,0:0:0:55:soft-hitwhistle.wav
448,192,137588,1,0,0:0:0:0:
64,192,137742,1,8,0:0:0:60:soft-hitclap.wav
192,192,137742,1,0,0:0:0:100:LR_Clap Fast Low.wav
320,192,137742,1,0,0:0:0:0:
64,192,137896,1,2,0:0:0:55:soft-hitwhistle.wav
320,192,137896,1,4,0:0:0:80:soft-hitfinish.wav
448,192,137896,128,0,138204:0:0:0:0:
192,192,138050,1,0,0:0:0:100:LR_Clap Fast Low.wav
64,192,138204,1,2,0:0:0:55:soft-hitwhistle.wav
320,192,138204,1,0,0:0:0:0:
192,192,138358,1,8,0:0:0:60:soft-hitclap.wav
320,192,138358,1,0,0:0:0:100:LR_Clap Fast Low.wav
448,192,138358,1,0,0:0:0:0:
64,192,138511,1,2,0:0:0:55:soft-hitwhistle.wav
192,192,138511,1,0,0:0:0:0:
320,192,138665,1,2,0:0:0:55:soft-hitwhistle.wav
448,192,138665,1,0,0:0:0:100:LR_Clap Fast Low.wav
64,192,138819,1,0,0:0:0:0:
192,192,138973,1,8,0:0:0:60:soft-hitclap.wav
320,192,138973,1,0,0:0:0:100:LR_Clap Fast Low.wav
448,192,138973,1,0,0:0:0:0:
64,192,139127,1,0,0:0:0:0:
192,192,139281,1,2,0:0:0:55:soft-hitwhistle.wav
320,192,139281,1,4,0:0:0:80:soft-hitfinish.wav
448,192,139281,128,0,139435:0:0:0:0:
64,192,139435,128,0,139588:0:0:0:0:
192,192,139588,128,8,139742:0:0:0:60:soft-hitclap.wav
320,192,139588,1,0,0:0:0:0:
448,192,139588,1,0,0:0:0:0:
64,192,139742,128,2,140050:0:0:0:55:soft-hitwhistle.wav
320,192,139742,1,4,0:0:0:80:soft-hitfinish.wav
448,192,139742,1,0,0:0:0:0:
320,192,139896,1,0,0:0:0:100:LR_Clap Fast Low.wav
448,192,139896,1,0,0:0:0:0:
192,192,140050,128,0,140204:0:0:0:0:
64,192,140204,1,8,0:0:0:60:soft-hitclap.wav
320,192,140204,1,4,0:0:0:80:soft-hitfinish.wav
448,192,140204,128,0,140819:0:0:0:0:
64,192,140358,1,2,0:0:0:55:soft-hitwhistle.wav
192,192,140358,1,0,0:0:0:0:
320,192,140511,1,0,0:0:0:100:LR_Clap Fast Low.wav
64,192,140665,1,0,0:0:0:0:
192,192,140665,1,0,0:0:0:0:
64,192,140819,1,8,0:0:0:60:soft-hitclap.wav
192,192,140819,1,0,0:0:0:0:
320,192,140819,1,0,0:0:0:0:
448,192,140896,1,0,0:0:0:0:
192,192,140973,1,2,0:0:0:55:soft-hitwhistle.wav
320,192,141050,1,0,0:0:0:0:
64,192,141127,1,8,0:0:0:60:soft-hitclap.wav
192,192,141127,1,0,0:0:0:0:
448,192,141127,1,0,0:0:0:0:
64,192,141281,1,8,0:0:0:60:soft-hitclap.wav
448,192,141281,1,0,0:0:0:0:
