osu file format v14

[General]
AudioFilename: audio.mp3
AudioLeadIn: 0
PreviewTime: 104286
Countdown: 0
SampleSet: Normal
StackLeniency: 0.7
Mode: 1
LetterboxInBreaks: 0
WidescreenStoryboard: 0

[Editor]
DistanceSpacing: 0.8
BeatDivisor: 1
GridSize: 4
TimelineZoom: 0.6999998

[Metadata]
Title:Kanzen Shouri*Esper Girl
TitleUnicode:完全勝利☆エスパーガール
Artist:*namirin
ArtistUnicode:*namirin
Creator:komasy
Version:Kantan
Source:osu!
Tags:Featured Artist FA Drum Circle Pop コイシテイク・プラネット Koishiteiku Planet M3 なみりん *なみむめも namimumemo Nao Tomori Naotoshi Nardoxyribonucleic
BeatmapID:1936587
BeatmapSetID:927206

[Difficulty]
HPDrainRate:7
CircleSize:3
OverallDifficulty:3
ApproachRate:7
SliderMultiplier:1.4
SliderTickRate:1

[Events]
//Background and Video events
0,0,"bg.jpg",0,90
//Break Periods
//Storyboard Layer 0 (Background)
//Storyboard Layer 1 (Fail)
//Storyboard Layer 2 (Pass)
//Storyboard Layer 3 (Foreground)
//Storyboard Sound Samples

[TimingPoints]
210,307.692307692308,4,1,0,70,1,0
11210,-100,4,1,0,60,0,0
20440,-100,4,1,0,70,0,0
43248,-100,4,1,0,80,0,0
43286,-100,4,1,0,80,0,1
62902,-100,4,1,0,70,0,1
62979,-100,4,1,0,70,0,0
104786,-100,4,1,0,80,0,0
104825,-100,4,1,0,80,0,1
124440,-100,4,1,0,60,0,1
124517,-100,4,1,0,60,0,0
134286,-100,4,1,0,70,0,0
152902,-100,4,1,0,50,0,0
158902,-100,4,1,0,60,0,0
161056,-100,4,1,0,70,0,0
163863,-100,4,1,0,80,0,0
163902,-100,4,1,0,80,0,1
173056,-100,4,1,0,70,0,1
173133,-100,4,1,0,70,0,0
173671,-100,4,1,0,80,0,0
173748,-100,4,1,0,80,0,1
193363,-100,4,1,0,70,0,1
193440,-100,4,1,0,70,0,0

[HitObjects]
264,172,1133,5,12,0:0:0:0:
152,180,1441,1,4,0:0:0:0:
280,116,2056,1,8,0:0:0:0:
258,149,2671,1,0,0:0:0:0:
307,154,2979,1,0,0:0:0:0:
319,172,3287,1,8,0:0:0:0:
152,180,3902,1,0,0:0:0:0:
236,187,4517,1,8,0:0:0:0:
168,104,4825,1,8,0:0:0:0:
258,149,5133,1,0,0:0:0:0:
319,172,5748,1,12,0:0:0:0:
421,162,6056,1,12,0:0:0:0:
238,132,6979,1,8,0:0:0:0:
260,201,7594,1,0,0:0:0:0:
247,223,7902,1,0,0:0:0:0:
223,210,8210,1,8,0:0:0:0:
226,211,8825,1,4,0:0:0:0:
242,249,9748,1,4,0:0:0:0:
255,263,10671,5,12,0:0:0:0:
409,185,11287,5,0,0:0:0:0:
374,184,11902,1,0,0:0:0:0:
374,184,12517,1,0,0:0:0:0:
374,184,13133,1,0,0:0:0:0:
374,184,13441,1,8,0:0:0:0:
374,184,13748,1,0,0:0:0:0:
374,184,14364,1,0,0:0:0:0:
374,184,14979,1,0,0:0:0:0:
411,163,15902,1,8,0:0:0:0:
409,185,16210,5,0,0:0:0:0:
374,184,16825,1,0,0:0:0:0:
374,184,17440,1,0,0:0:0:0:
374,184,18056,1,0,0:0:0:0:
374,184,18364,1,8,0:0:0:0:
374,184,18671,1,0,0:0:0:0:
225,152,19133,1,8,0:0:0:0:
374,184,19748,1,0,0:0:0:0:
344,186,20517,1,12,0:0:0:0:
370,211,21133,1,4,0:0:0:0:
289,228,21748,1,8,0:0:0:0:
434,290,22363,1,0,0:0:0:0:
434,290,22979,1,8,0:0:0:0:
434,290,23286,1,8,0:0:0:0:
482,299,23594,1,0,0:0:0:0:
482,299,24210,1,8,0:0:0:0:
456,305,24825,1,0,0:0:0:0:
278,216,25748,1,8,0:0:0:0:
370,211,26056,1,0,0:0:0:0:
417,283,26671,1,8,0:0:0:0:
434,290,27286,1,0,0:0:0:0:
434,290,27902,1,8,0:0:0:0:
482,299,28517,1,0,0:0:0:0:
482,299,28825,1,0,0:0:0:0:
482,299,29133,1,0,0:0:0:0:
456,305,29594,1,12,0:0:0:0:
240,40,30671,1,8,0:0:0:0:
240,40,30979,1,4,0:0:0:0:
252,128,31594,1,8,0:0:0:0:
304,240,32210,1,0,0:0:0:0:
198,143,32517,1,0,0:0:0:0:
449,281,32825,1,8,0:0:0:0:
320,119,33440,1,0,0:0:0:0:
257,110,34056,1,8,0:0:0:0:
309,170,34671,1,0,0:0:0:0:
249,128,34979,1,0,0:0:0:0:
288,128,35286,1,8,0:0:0:0:
359,215,35902,1,0,0:0:0:0:
241,191,36825,1,8,0:0:0:0:
258,178,37133,1,0,0:0:0:0:
366,169,38056,1,8,0:0:0:0:
192,141,38363,1,4,0:0:0:0:
324,221,38979,1,8,0:0:0:0:
371,245,39594,1,0,0:0:0:0:
296,188,40210,1,0,0:0:0:0:
329,210,40825,5,8,0:0:0:0:
329,210,41133,1,8,0:0:0:0:
329,210,41440,1,8,0:0:0:0:
329,210,42056,1,12,0:0:0:0:
369,213,43287,5,4,0:0:0:0:
342,190,43594,1,0,0:0:0:0:
342,190,43902,1,8,0:0:0:0:
342,190,44517,1,0,0:0:0:0:
324,150,45133,1,8,0:0:0:0:
310,172,45748,1,0,0:0:0:0:
431,239,46056,1,8,0:0:0:0:
431,239,46363,1,8,0:0:0:0:
431,239,46979,1,0,0:0:0:0:
236,116,47902,1,8,0:0:0:0:
351,201,48210,1,0,0:0:0:0:
368,234,48825,1,8,0:0:0:0:
325,196,49440,1,0,0:0:0:0:
254,172,49748,1,8,0:0:0:0:
384,210,50056,1,0,0:0:0:0:
436,247,50671,1,8,0:0:0:0:
350,150,51286,1,0,0:0:0:0:
350,150,51748,1,4,0:0:0:0:
369,213,53133,5,4,0:0:0:0:
342,190,53440,1,0,0:0:0:0:
342,190,53748,1,8,0:0:0:0:
342,190,54363,1,0,0:0:0:0:
324,150,54979,1,8,0:0:0:0:
310,172,55594,1,0,0:0:0:0:
431,239,55902,1,8,0:0:0:0:
431,239,56209,1,8,0:0:0:0:
431,239,56825,1,0,0:0:0:0:
236,116,57748,1,8,0:0:0:0:
351,201,58056,1,0,0:0:0:0:
368,234,58979,1,8,0:0:0:0:
384,210,59902,1,0,0:0:0:0:
436,247,60517,1,12,0:0:0:0:
350,150,61132,1,0,0:0:0:0:
350,150,61594,1,12,0:0:0:0:
298,196,62671,5,12,0:0:0:0:
152,180,62979,1,4,0:0:0:0:
280,116,63594,1,8,0:0:0:0:
258,149,64209,1,0,0:0:0:0:
307,154,64517,1,0,0:0:0:0:
319,172,64825,1,8,0:0:0:0:
152,180,65440,1,0,0:0:0:0:
236,187,66055,1,8,0:0:0:0:
168,104,66363,1,8,0:0:0:0:
258,149,66671,1,0,0:0:0:0:
319,172,67286,1,12,0:0:0:0:
259,110,67594,1,12,0:0:0:0:
238,132,68517,1,8,0:0:0:0:
260,201,69132,1,0,0:0:0:0:
247,223,69440,1,0,0:0:0:0:
223,210,69748,1,8,0:0:0:0:
226,211,70363,1,4,0:0:0:0:
242,249,71286,1,4,0:0:0:0:
255,263,72209,5,12,0:0:0:0:
409,185,72825,5,4,0:0:0:0:
264,163,73440,1,8,0:0:0:0:
374,184,74056,1,0,0:0:0:0:
374,184,74979,1,8,0:0:0:0:
222,136,75286,1,0,0:0:0:0:
279,97,75902,1,8,0:0:0:0:
374,184,76517,1,0,0:0:0:0:
246,139,77133,1,8,0:0:0:0:
241,83,77440,1,8,0:0:0:0:
409,185,77748,5,0,0:0:0:0:
232,101,78363,1,8,0:0:0:0:
374,184,78979,1,0,0:0:0:0:
374,184,79902,1,8,0:0:0:0:
374,184,80209,1,0,0:0:0:0:
225,152,80671,1,8,0:0:0:0:
374,184,81286,1,0,0:0:0:0:
319,175,82056,1,12,0:0:0:0:
370,211,82671,1,4,0:0:0:0:
288,72,83286,1,8,0:0:0:0:
434,290,83901,1,0,0:0:0:0:
434,290,84517,1,8,0:0:0:0:
434,290,84825,1,8,0:0:0:0:
482,299,85132,1,0,0:0:0:0:
482,299,85748,1,8,0:0:0:0:
456,305,86363,1,0,0:0:0:0:
316,62,87286,1,8,0:0:0:0:
370,211,87594,1,0,0:0:0:0:
417,283,88209,1,8,0:0:0:0:
434,290,88824,1,0,0:0:0:0:
434,290,89440,1,8,0:0:0:0:
482,299,90055,1,0,0:0:0:0:
482,299,90363,1,0,0:0:0:0:
482,299,90671,1,0,0:0:0:0:
456,305,91132,1,12,0:0:0:0:
240,40,92209,1,8,0:0:0:0:
240,40,92517,1,0,0:0:0:0:
252,128,93132,1,8,0:0:0:0:
304,240,93748,1,0,0:0:0:0:
449,281,94056,1,0,0:0:0:0:
449,281,94363,1,8,0:0:0:0:
320,119,94978,1,0,0:0:0:0:
257,110,95594,1,8,0:0:0:0:
309,170,96209,1,0,0:0:0:0:
349,203,96517,1,0,0:0:0:0:
288,128,96824,1,8,0:0:0:0:
359,215,97440,1,0,0:0:0:0:
241,191,98363,1,8,0:0:0:0:
258,178,98671,1,0,0:0:0:0:
366,169,99594,1,8,0:0:0:0:
192,141,99901,1,4,0:0:0:0:
324,221,100517,1,8,0:0:0:0:
371,245,101132,1,0,0:0:0:0:
296,188,101748,1,0,0:0:0:0:
329,210,102363,5,8,0:0:0:0:
329,210,102671,1,8,0:0:0:0:
329,210,102978,1,8,0:0:0:0:
329,210,103594,1,12,0:0:0:0:
369,213,104825,5,4,0:0:0:0:
342,190,105132,1,0,0:0:0:0:
342,190,105440,1,8,0:0:0:0:
342,190,106055,1,0,0:0:0:0:
324,150,106671,1,8,0:0:0:0:
310,172,107286,1,0,0:0:0:0:
431,239,107594,1,8,0:0:0:0:
431,239,107901,1,8,0:0:0:0:
431,239,108517,1,0,0:0:0:0:
236,116,109440,1,8,0:0:0:0:
351,201,109748,1,0,0:0:0:0:
368,234,110363,1,8,0:0:0:0:
325,196,110978,1,0,0:0:0:0:
254,172,111286,1,8,0:0:0:0:
384,210,111594,1,0,0:0:0:0:
436,247,112209,1,12,0:0:0:0:
350,150,112824,1,0,0:0:0:0:
350,150,113286,1,4,0:0:0:0:
369,213,114671,5,4,0:0:0:0:
342,190,114978,1,0,0:0:0:0:
342,190,115286,1,8,0:0:0:0:
342,190,115901,1,0,0:0:0:0:
324,150,116517,1,8,0:0:0:0:
310,172,117132,1,0,0:0:0:0:
431,239,117440,1,8,0:0:0:0:
431,239,117747,1,8,0:0:0:0:
431,239,118363,1,0,0:0:0:0:
236,116,119286,1,8,0:0:0:0:
351,201,119594,1,0,0:0:0:0:
368,234,120517,1,8,0:0:0:0:
384,210,121440,1,0,0:0:0:0:
436,247,122055,1,12,0:0:0:0:
350,150,122670,1,0,0:0:0:0:
350,150,123132,1,12,0:0:0:0:
245,53,124210,1,12,0:0:0:0:
432,168,124517,5,4,0:0:0:0:
356,230,124979,1,0,0:0:0:0:
379,172,125594,1,8,0:0:0:0:
323,159,126979,1,4,0:0:0:0:
356,230,127440,1,8,0:0:0:0:
379,172,128056,1,8,0:0:0:0:
264,60,129440,1,4,0:0:0:0:
356,230,129902,1,0,0:0:0:0:
379,172,130517,1,8,0:0:0:0:
188,121,131133,1,8,0:0:0:0:
352,120,131902,5,4,0:0:0:0:
340,232,132517,1,0,0:0:0:0:
260,148,132979,1,12,0:0:0:0:
359,192,134363,1,4,0:0:0:0:
359,192,134979,1,8,0:0:0:0:
359,192,135594,1,8,0:0:0:0:
283,142,136210,1,8,0:0:0:0:
283,142,136517,1,8,0:0:0:0:
359,192,136825,1,0,0:0:0:0:
359,192,137441,1,8,0:0:0:0:
359,192,138056,1,8,0:0:0:0:
300,85,138979,1,8,0:0:0:0:
339,103,139287,1,4,0:0:0:0:
304,192,139902,1,8,0:0:0:0:
308,192,140517,1,8,0:0:0:0:
268,136,141133,1,8,0:0:0:0:
268,136,141440,1,8,0:0:0:0:
276,128,141748,1,0,0:0:0:0:
264,152,142363,1,8,0:0:0:0:
264,152,142979,1,8,0:0:0:0:
428,160,143902,1,12,0:0:0:0:
428,160,144210,1,4,0:0:0:0:
392,224,144825,1,8,0:0:0:0:
392,224,145440,1,0,0:0:0:0:
332,232,146056,1,8,0:0:0:0:
220,96,146363,1,8,0:0:0:0:
428,160,146671,1,0,0:0:0:0:
392,224,147286,1,8,0:0:0:0:
392,224,147901,1,0,0:0:0:0:
279,100,148825,1,8,0:0:0:0:
288,144,149133,1,4,0:0:0:0:
308,116,149748,1,8,0:0:0:0:
204,140,150363,1,8,0:0:0:0:
204,140,150671,1,8,0:0:0:0:
280,132,150979,1,8,0:0:0:0:
358,234,151594,5,4,0:0:0:0:
358,234,152056,1,4,0:0:0:0:
376,236,152825,1,12,0:0:0:0:
430,206,154056,5,8,0:0:0:0:
340,192,156517,1,8,0:0:0:0:
283,199,158979,1,0,0:0:0:0:
370,239,160210,1,0,0:0:0:0:
370,239,160825,1,0,0:0:0:0:
436,247,161440,1,12,0:0:0:0:
350,150,162055,1,8,0:0:0:0:
350,150,162517,1,4,0:0:0:0:
369,213,163902,5,4,0:0:0:0:
342,190,164209,1,0,0:0:0:0:
342,190,164517,1,8,0:0:0:0:
342,190,165132,1,0,0:0:0:0:
324,150,165748,1,8,0:0:0:0:
310,172,166363,1,0,0:0:0:0:
431,239,166671,1,8,0:0:0:0:
431,239,166978,1,8,0:0:0:0:
431,239,167594,1,0,0:0:0:0:
236,116,168517,1,8,0:0:0:0:
351,201,168825,1,0,0:0:0:0:
368,234,169748,1,8,0:0:0:0:
384,210,170671,1,0,0:0:0:0:
436,247,171286,1,12,0:0:0:0:
350,150,171901,1,0,0:0:0:0:
350,150,172363,1,12,0:0:0:0:
362,161,173440,1,6,0:0:0:0:
369,213,173748,5,4,0:0:0:0:
342,190,174055,1,0,0:0:0:0:
342,190,174363,1,8,0:0:0:0:
342,190,174978,1,0,0:0:0:0:
324,150,175594,1,8,0:0:0:0:
310,172,176209,1,0,0:0:0:0:
431,239,176517,1,8,0:0:0:0:
431,239,176824,1,8,0:0:0:0:
431,239,177440,1,0,0:0:0:0:
236,116,178363,1,8,0:0:0:0:
351,201,178671,1,0,0:0:0:0:
368,234,179286,1,8,0:0:0:0:
325,196,179901,1,0,0:0:0:0:
254,172,180209,1,8,0:0:0:0:
384,210,180517,1,0,0:0:0:0:
436,247,181132,1,8,0:0:0:0:
350,150,181747,1,0,0:0:0:0:
350,150,182209,1,4,0:0:0:0:
369,213,183594,5,4,0:0:0:0:
342,190,183901,1,0,0:0:0:0:
342,190,184209,1,8,0:0:0:0:
342,190,184824,1,0,0:0:0:0:
324,150,185440,1,8,0:0:0:0:
310,172,186055,1,0,0:0:0:0:
431,239,186363,1,8,0:0:0:0:
431,239,186670,1,8,0:0:0:0:
431,239,187286,1,0,0:0:0:0:
236,116,188209,1,8,0:0:0:0:
351,201,188517,1,0,0:0:0:0:
368,234,189440,1,8,0:0:0:0:
384,210,190363,1,0,0:0:0:0:
436,247,190978,1,12,0:0:0:0:
350,150,191593,1,0,0:0:0:0:
350,150,192055,1,12,0:0:0:0:
298,196,193132,5,12,0:0:0:0:
152,180,193440,1,4,0:0:0:0:
280,116,194055,1,8,0:0:0:0:
258,149,194670,1,0,0:0:0:0:
307,154,194978,1,0,0:0:0:0:
319,172,195286,1,8,0:0:0:0:
152,180,195901,1,0,0:0:0:0:
236,187,196516,1,8,0:0:0:0:
168,104,196824,1,8,0:0:0:0:
258,149,197132,1,0,0:0:0:0:
319,172,197747,1,12,0:0:0:0:
258,149,198056,1,12,0:0:0:0:
238,132,198978,1,8,0:0:0:0:
260,201,199593,1,0,0:0:0:0:
247,223,199901,1,0,0:0:0:0:
223,210,200209,1,8,0:0:0:0:
226,211,200824,1,4,0:0:0:0:
242,249,201747,1,4,0:0:0:0:
255,263,202670,5,12,0:0:0:0:
