osu file format v14

[General]
AudioFilename: audio.mp3
AudioLeadIn: 0
PreviewTime: 104286
Countdown: 0
SampleSet: Normal
StackLeniency: 0.7
Mode: 1
LetterboxInBreaks: 0
WidescreenStoryboard: 0

[Editor]
DistanceSpacing: 0.8
BeatDivisor: 2
GridSize: 8
TimelineZoom: 1.5

[Metadata]
Title:Kanzen Shouri*Esper Girl
TitleUnicode:完全勝利☆エスパーガール
Artist:*namirin
ArtistUnicode:*namirin
Creator:komasy
Version:Futsuu
Source:osu!
Tags:Featured Artist FA Drum Circle Pop コイシテイク・プラネット Koishiteiku Planet M3 なみりん *なみむめも namimumemo Nao Tomori Naotoshi Nardoxyribonucleic
BeatmapID:1936585
BeatmapSetID:927206

[Difficulty]
HPDrainRate:6
CircleSize:4
OverallDifficulty:4
ApproachRate:6
SliderMultiplier:1.4
SliderTickRate:1

[Events]
//Background and Video events
0,0,"bg.jpg",0,90
//Break Periods
//Storyboard Layer 0 (Background)
//Storyboard Layer 1 (Fail)
//Storyboard Layer 2 (Pass)
//Storyboard Layer 3 (Foreground)
//Storyboard Sound Samples

[TimingPoints]
210,307.692307692308,4,1,0,70,1,0
11210,-100,4,1,0,60,0,0
20440,-100,4,1,0,70,0,0
43248,-100,4,1,0,80,0,0
43286,-100,4,1,0,80,0,1
62902,-100,4,1,0,70,0,1
62979,-100,4,1,0,70,0,0
104786,-100,4,1,0,80,0,0
104825,-100,4,1,0,80,0,1
124440,-100,4,1,0,60,0,1
124517,-100,4,1,0,60,0,0
134286,-100,4,1,0,70,0,0
152902,-100,4,1,0,50,0,0
158902,-100,4,1,0,60,0,0
161056,-100,4,1,0,70,0,0
163863,-100,4,1,0,80,0,0
163902,-100,4,1,0,80,0,1
173056,-100,4,1,0,70,0,1
173133,-100,4,1,0,70,0,0
173671,-100,4,1,0,80,0,0
173748,-100,4,1,0,80,0,1
193363,-100,4,1,0,70,0,1
193440,-100,4,1,0,70,0,0

[HitObjects]
296,104,825,5,8,0:0:0:0:
264,172,1133,5,12,0:0:0:0:
152,180,1440,1,4,0:0:0:0:
322,166,1748,1,8,0:0:0:0:
280,116,2056,1,0,0:0:0:0:
280,150,2363,1,8,0:0:0:0:
258,149,2517,1,0,0:0:0:0:
308,160,2825,1,0,0:0:0:0:
307,154,2979,1,8,0:0:0:0:
319,172,3286,1,0,0:0:0:0:
152,180,3902,1,0,0:0:0:0:
322,166,4210,1,8,0:0:0:0:
236,187,4517,1,0,0:0:0:0:
280,150,4825,1,8,0:0:0:0:
258,149,4979,1,0,0:0:0:0:
308,160,5286,1,0,0:0:0:0:
288,172,5440,1,8,0:0:0:0:
319,172,5748,1,4,0:0:0:0:
319,172,6056,1,12,0:0:0:0:
238,132,6671,1,12,0:0:0:0:
238,132,6979,1,0,0:0:0:0:
266,202,7286,1,8,0:0:0:0:
260,201,7440,1,4,0:0:0:0:
248,200,7748,1,0,0:0:0:0:
247,223,7902,1,8,0:0:0:0:
241,221,8210,1,0,0:0:0:0:
226,211,8825,1,4,0:0:0:0:
223,210,9286,1,4,0:0:0:0:
242,249,9748,1,4,0:0:0:0:
297,221,10363,1,0,0:0:0:0:
255,263,10671,5,12,0:0:0:0:
255,263,10825,1,12,0:0:0:0:
409,185,11286,5,0,0:0:0:0:
374,184,11902,1,0,0:0:0:0:
374,184,12517,1,0,0:0:0:0:
374,184,13133,1,0,0:0:0:0:
374,184,13440,1,8,0:0:0:0:
374,184,13748,1,0,0:0:0:0:
374,184,14363,1,0,0:0:0:0:
374,184,14825,1,0,0:0:0:0:
374,184,15133,1,0,0:0:0:0:
380,174,15440,1,0,0:0:0:0:
380,174,15594,1,0,0:0:0:0:
380,174,15902,1,8,0:0:0:0:
409,185,16210,5,0,0:0:0:0:
374,184,16825,1,0,0:0:0:0:
374,184,17440,1,0,0:0:0:0:
374,184,18056,1,0,0:0:0:0:
374,184,18363,1,8,0:0:0:0:
374,184,18671,1,0,0:0:0:0:
374,184,18979,1,0,0:0:0:0:
374,184,19133,1,0,0:0:0:0:
225,152,19440,1,0,0:0:0:0:
374,184,19748,1,0,0:0:0:0:
277,154,20056,1,0,0:0:0:0:
277,154,20210,1,0,0:0:0:0:
380,174,20517,1,12,0:0:0:0:
370,211,21133,1,4,0:0:0:0:
376,148,21440,1,8,0:0:0:0:
417,283,21748,1,0,0:0:0:0:
434,290,22056,1,8,0:0:0:0:
434,290,22363,1,0,0:0:0:0:
434,290,22671,1,8,0:0:0:0:
196,128,22825,1,8,0:0:0:0:
434,290,22979,1,0,0:0:0:0:
482,299,23594,1,0,0:0:0:0:
482,299,23902,1,8,0:0:0:0:
482,299,24210,1,0,0:0:0:0:
482,299,24517,1,8,0:0:0:0:
456,305,24825,1,0,0:0:0:0:
260,116,24979,1,8,0:0:0:0:
284,148,25286,1,8,0:0:0:0:
285,148,25440,1,0,0:0:0:0:
370,211,26056,1,0,0:0:0:0:
376,148,26363,1,8,0:0:0:0:
417,283,26671,1,0,0:0:0:0:
434,290,26979,1,8,0:0:0:0:
434,290,27286,1,0,0:0:0:0:
434,290,27594,1,8,0:0:0:0:
196,128,27748,1,8,0:0:0:0:
434,290,27902,1,0,0:0:0:0:
482,299,28517,1,0,0:0:0:0:
482,299,28825,1,8,0:0:0:0:
482,299,29133,1,0,0:0:0:0:
482,299,29440,1,8,0:0:0:0:
456,305,29594,1,4,0:0:0:0:
360,247,30056,1,0,0:0:0:0:
285,148,30363,5,8,0:0:0:0:
240,40,30671,1,8,0:0:0:0:
240,40,30979,1,4,0:0:0:0:
304,240,31594,1,0,0:0:0:0:
304,240,31902,1,8,0:0:0:0:
304,240,32210,1,0,0:0:0:0:
304,240,32517,1,8,0:0:0:0:
449,281,32825,1,0,0:0:0:0:
304,240,32979,1,0,0:0:0:0:
449,281,33133,1,8,0:0:0:0:
320,119,33440,1,0,0:0:0:0:
257,110,34056,1,0,0:0:0:0:
293,127,34363,1,8,0:0:0:0:
309,170,34671,1,0,0:0:0:0:
309,170,34825,1,0,0:0:0:0:
309,170,34979,1,8,0:0:0:0:
351,183,35286,1,0,0:0:0:0:
351,183,35594,1,8,0:0:0:0:
359,215,35902,1,0,0:0:0:0:
241,191,36671,1,8,0:0:0:0:
241,191,36825,1,8,0:0:0:0:
258,178,37133,1,0,0:0:0:0:
366,169,37902,1,8,0:0:0:0:
366,169,38056,1,8,0:0:0:0:
192,141,38363,1,4,0:0:0:0:
316,203,38825,1,8,0:0:0:0:
324,221,38979,1,0,0:0:0:0:
371,245,39440,1,8,0:0:0:0:
371,245,39594,1,0,0:0:0:0:
389,223,39902,1,0,0:0:0:0:
296,188,40210,1,8,0:0:0:0:
296,188,40517,1,0,0:0:0:0:
329,210,40825,5,8,0:0:0:0:
329,210,41133,1,8,0:0:0:0:
329,210,41440,1,8,0:0:0:0:
287,61,41748,1,8,0:0:0:0:
329,210,42056,1,12,0:0:0:0:
129,57,42825,1,8,0:0:0:0:
436,204,42979,5,8,0:0:0:0:
369,213,43286,5,4,0:0:0:0:
342,190,43594,1,8,0:0:0:0:
342,190,43902,1,8,0:0:0:0:
342,190,44056,1,0,0:0:0:0:
342,190,44363,1,8,0:0:0:0:
328,104,44671,1,0,0:0:0:0:
342,190,44825,1,8,0:0:0:0:
324,150,45133,1,0,0:0:0:0:
324,150,45440,1,8,0:0:0:0:
369,94,45594,1,8,0:0:0:0:
310,172,45748,1,0,0:0:0:0:
456,253,46056,1,8,0:0:0:0:
431,239,46363,1,0,0:0:0:0:
431,239,46517,1,8,0:0:0:0:
431,239,46825,1,0,0:0:0:0:
168,136,47133,1,8,0:0:0:0:
431,239,47286,1,0,0:0:0:0:
209,139,47594,1,8,0:0:0:0:
351,201,48210,1,0,0:0:0:0:
368,234,48517,1,8,0:0:0:0:
368,234,48825,1,8,0:0:0:0:
304,164,48979,1,8,0:0:0:0:
325,196,49286,1,0,0:0:0:0:
254,172,49748,1,8,0:0:0:0:
384,210,50056,1,0,0:0:0:0:
314,170,50363,1,8,0:0:0:0:
314,170,50517,1,0,0:0:0:0:
436,247,50671,1,8,0:0:0:0:
350,150,50979,1,8,0:0:0:0:
350,150,51286,1,8,0:0:0:0:
350,150,51748,1,4,0:0:0:0:
367,199,52210,1,8,0:0:0:0:
351,223,52671,1,8,0:0:0:0:
351,223,52825,1,8,0:0:0:0:
369,213,53133,5,4,0:0:0:0:
342,190,53440,1,8,0:0:0:0:
342,190,53748,1,8,0:0:0:0:
342,190,53902,1,0,0:0:0:0:
342,190,54210,1,8,0:0:0:0:
324,150,54517,1,0,0:0:0:0:
324,150,54671,1,8,0:0:0:0:
317,127,54979,1,0,0:0:0:0:
310,172,55286,1,8,0:0:0:0:
369,94,55440,1,8,0:0:0:0:
324,150,55594,1,0,0:0:0:0:
456,253,55902,1,8,0:0:0:0:
431,239,56210,1,0,0:0:0:0:
431,239,56363,1,8,0:0:0:0:
431,239,56671,1,0,0:0:0:0:
324,176,56979,1,8,0:0:0:0:
316,112,57133,5,0,0:0:0:0:
160,119,57748,1,8,0:0:0:0:
222,206,58056,5,0,0:0:0:0:
501,294,58363,1,8,0:0:0:0:
276,144,58517,1,0,0:0:0:0:
329,240,58979,1,8,0:0:0:0:
329,240,59286,1,8,0:0:0:0:
329,240,59440,1,0,0:0:0:0:
472,168,59748,1,0,0:0:0:0:
416,267,59902,1,0,0:0:0:0:
359,218,60210,1,8,0:0:0:0:
416,267,60517,1,4,0:0:0:0:
298,196,60979,1,8,0:0:0:0:
298,196,61133,1,0,0:0:0:0:
298,196,61594,1,4,0:0:0:0:
298,196,61902,1,12,0:0:0:0:
298,196,62056,1,12,0:0:0:0:
298,196,62671,1,12,0:0:0:0:
152,180,62979,1,4,0:0:0:0:
322,166,63286,1,8,0:0:0:0:
280,116,63594,1,0,0:0:0:0:
280,150,63902,1,8,0:0:0:0:
258,149,64056,1,0,0:0:0:0:
344,276,64363,1,0,0:0:0:0:
307,154,64517,1,8,0:0:0:0:
319,172,64825,1,0,0:0:0:0:
152,180,65440,1,0,0:0:0:0:
322,166,65748,1,8,0:0:0:0:
236,187,66056,1,0,0:0:0:0:
280,150,66363,1,8,0:0:0:0:
258,149,66517,1,0,0:0:0:0:
340,276,66825,1,0,0:0:0:0:
288,172,66979,1,8,0:0:0:0:
319,172,67286,1,4,0:0:0:0:
319,172,67594,1,12,0:0:0:0:
238,132,68210,1,12,0:0:0:0:
238,132,68517,1,0,0:0:0:0:
266,202,68825,1,8,0:0:0:0:
260,201,68979,1,4,0:0:0:0:
340,276,69286,1,0,0:0:0:0:
247,223,69440,1,8,0:0:0:0:
241,221,69748,1,0,0:0:0:0:
226,211,70363,1,4,0:0:0:0:
223,210,70825,1,4,0:0:0:0:
242,249,71286,1,4,0:0:0:0:
297,221,71902,1,0,0:0:0:0:
255,263,72210,5,12,0:0:0:0:
255,263,72363,1,12,0:0:0:0:
409,185,72825,5,0,0:0:0:0:
374,184,73440,1,8,0:0:0:0:
374,184,74056,1,0,0:0:0:0:
374,184,74671,1,8,0:0:0:0:
374,184,74979,1,8,0:0:0:0:
374,184,75286,1,0,0:0:0:0:
374,184,75902,1,8,0:0:0:0:
374,184,76363,1,0,0:0:0:0:
374,184,76671,1,0,0:0:0:0:
380,174,76979,1,8,0:0:0:0:
380,174,77133,1,0,0:0:0:0:
380,174,77440,1,8,0:0:0:0:
409,185,77748,5,0,0:0:0:0:
374,184,78363,1,8,0:0:0:0:
374,184,78979,1,0,0:0:0:0:
374,184,79594,1,8,0:0:0:0:
374,184,79902,1,8,0:0:0:0:
374,184,80210,1,0,0:0:0:0:
374,184,80517,1,0,0:0:0:0:
374,184,80671,1,0,0:0:0:0:
225,152,80979,1,8,0:0:0:0:
374,184,81286,1,0,0:0:0:0:
277,154,81594,1,0,0:0:0:0:
277,154,81748,1,0,0:0:0:0:
380,174,82056,1,12,0:0:0:0:
370,211,82671,1,4,0:0:0:0:
376,148,82979,1,8,0:0:0:0:
417,283,83286,1,0,0:0:0:0:
434,290,83594,1,8,0:0:0:0:
434,290,83902,1,0,0:0:0:0:
434,290,84210,1,8,0:0:0:0:
196,128,84363,1,8,0:0:0:0:
434,290,84517,1,0,0:0:0:0:
482,299,85133,1,0,0:0:0:0:
482,299,85440,1,8,0:0:0:0:
482,299,85748,1,0,0:0:0:0:
482,299,86056,1,8,0:0:0:0:
456,305,86363,1,0,0:0:0:0:
260,116,86517,1,8,0:0:0:0:
284,148,86825,1,8,0:0:0:0:
285,148,86979,1,0,0:0:0:0:
370,211,87594,1,0,0:0:0:0:
376,148,87902,1,8,0:0:0:0:
417,283,88210,1,0,0:0:0:0:
434,290,88517,1,8,0:0:0:0:
434,290,88825,1,0,0:0:0:0:
434,290,89133,1,8,0:0:0:0:
196,128,89286,1,8,0:0:0:0:
434,290,89440,1,0,0:0:0:0:
482,299,90056,1,0,0:0:0:0:
482,299,90363,1,8,0:0:0:0:
482,299,90671,1,0,0:0:0:0:
482,299,90979,1,8,0:0:0:0:
456,305,91133,1,4,0:0:0:0:
360,247,91594,1,0,0:0:0:0:
285,148,91902,5,8,0:0:0:0:
240,40,92210,1,8,0:0:0:0:
240,40,92517,1,0,0:0:0:0:
304,240,93133,1,0,0:0:0:0:
304,240,93440,1,8,0:0:0:0:
304,240,93748,1,0,0:0:0:0:
304,240,94056,1,8,0:0:0:0:
449,281,94363,1,0,0:0:0:0:
304,240,94517,1,0,0:0:0:0:
449,281,94671,1,8,0:0:0:0:
320,119,94979,1,0,0:0:0:0:
257,110,95594,1,0,0:0:0:0:
293,127,95902,1,8,0:0:0:0:
309,170,96210,1,0,0:0:0:0:
309,170,96363,1,0,0:0:0:0:
309,170,96517,1,8,0:0:0:0:
351,183,96825,1,0,0:0:0:0:
351,183,97133,1,8,0:0:0:0:
359,215,97440,1,0,0:0:0:0:
241,191,98210,1,8,0:0:0:0:
241,191,98363,1,8,0:0:0:0:
258,178,98671,1,0,0:0:0:0:
366,169,99440,1,8,0:0:0:0:
366,169,99594,1,8,0:0:0:0:
192,141,99902,1,4,0:0:0:0:
316,203,100363,1,8,0:0:0:0:
324,221,100517,1,0,0:0:0:0:
371,245,100979,1,8,0:0:0:0:
371,245,101133,1,0,0:0:0:0:
389,223,101440,1,0,0:0:0:0:
296,188,101748,1,8,0:0:0:0:
296,188,102056,1,0,0:0:0:0:
329,210,102363,5,8,0:0:0:0:
329,210,102671,1,8,0:0:0:0:
329,210,102979,1,8,0:0:0:0:
287,61,103286,1,8,0:0:0:0:
329,210,103594,1,12,0:0:0:0:
129,57,104363,1,8,0:0:0:0:
436,204,104517,5,8,0:0:0:0:
369,213,104825,5,4,0:0:0:0:
342,190,105133,1,8,0:0:0:0:
342,190,105440,1,0,0:0:0:0:
342,190,105594,1,8,0:0:0:0:
342,190,105902,1,0,0:0:0:0:
308,232,106210,1,8,0:0:0:0:
308,232,106363,1,0,0:0:0:0:
324,150,106671,1,8,0:0:0:0:
310,172,106979,1,0,0:0:0:0:
369,94,107133,1,0,0:0:0:0:
324,150,107286,1,8,0:0:0:0:
456,253,107594,1,0,0:0:0:0:
431,239,107902,1,8,0:0:0:0:
431,239,108056,1,0,0:0:0:0:
209,139,108363,1,8,0:0:0:0:
209,139,108671,1,0,0:0:0:0:
431,239,108825,1,8,0:0:0:0:
209,139,109133,1,0,0:0:0:0:
351,201,109748,1,0,0:0:0:0:
368,234,110056,1,8,0:0:0:0:
368,234,110363,1,8,0:0:0:0:
276,140,110517,1,8,0:0:0:0:
325,196,110825,1,0,0:0:0:0:
254,172,111286,1,8,0:0:0:0:
384,210,111594,1,0,0:0:0:0:
314,170,111902,1,8,0:0:0:0:
314,170,112056,1,0,0:0:0:0:
436,247,112210,1,8,0:0:0:0:
350,150,112517,1,8,0:0:0:0:
350,150,112825,1,8,0:0:0:0:
350,150,113286,1,4,0:0:0:0:
367,199,113748,1,8,0:0:0:0:
351,223,114210,1,8,0:0:0:0:
351,223,114363,1,8,0:0:0:0:
369,213,114671,5,4,0:0:0:0:
342,190,114979,1,8,0:0:0:0:
342,190,115286,1,0,0:0:0:0:
342,190,115440,1,8,0:0:0:0:
342,190,115748,1,0,0:0:0:0:
304,112,116056,1,8,0:0:0:0:
324,150,116210,1,0,0:0:0:0:
317,127,116517,1,8,0:0:0:0:
310,172,116825,1,0,0:0:0:0:
369,94,116979,1,0,0:0:0:0:
324,150,117133,1,8,0:0:0:0:
456,253,117440,1,0,0:0:0:0:
431,239,117748,1,8,0:0:0:0:
431,239,117902,1,0,0:0:0:0:
431,239,118210,1,8,0:0:0:0:
256,152,118517,1,0,0:0:0:0:
316,112,118671,5,8,0:0:0:0:
160,119,119286,1,8,0:0:0:0:
222,206,119594,5,0,0:0:0:0:
501,294,119902,1,8,0:0:0:0:
344,152,120056,1,0,0:0:0:0:
329,240,120517,1,8,0:0:0:0:
329,240,120825,1,8,0:0:0:0:
329,240,120979,1,0,0:0:0:0:
272,152,121286,1,0,0:0:0:0:
416,267,121440,1,0,0:0:0:0:
359,218,121748,1,8,0:0:0:0:
416,267,122056,1,4,0:0:0:0:
298,196,122517,1,8,0:0:0:0:
298,196,122671,1,0,0:0:0:0:
298,196,123133,1,4,0:0:0:0:
298,196,123440,5,12,0:0:0:0:
298,196,123594,1,12,0:0:0:0:
298,196,124210,1,12,0:0:0:0:
432,168,124517,5,4,0:0:0:0:
356,230,124825,1,8,0:0:0:0:
356,230,124979,1,0,0:0:0:0:
349,234,125440,1,8,0:0:0:0:
379,172,125594,1,0,0:0:0:0:
272,80,126056,1,8,0:0:0:0:
192,94,126671,1,12,0:0:0:0:
240,124,126979,1,4,0:0:0:0:
356,230,127286,1,8,0:0:0:0:
356,230,127440,1,0,0:0:0:0:
349,234,127902,1,8,0:0:0:0:
379,172,128056,1,0,0:0:0:0:
240,104,128363,1,8,0:0:0:0:
272,80,128517,1,8,0:0:0:0:
476,319,129133,1,12,0:0:0:0:
264,60,129440,1,4,0:0:0:0:
356,230,129748,1,8,0:0:0:0:
356,230,129902,1,0,0:0:0:0:
349,234,130363,1,8,0:0:0:0:
379,172,130517,1,0,0:0:0:0:
272,80,130979,1,8,0:0:0:0:
364,242,131133,1,0,0:0:0:0:
476,319,131594,1,12,0:0:0:0:
352,120,131902,5,4,0:0:0:0:
340,232,132210,1,0,0:0:0:0:
340,232,132517,1,0,0:0:0:0:
156,120,132825,1,0,0:0:0:0:
260,148,132979,1,12,0:0:0:0:
264,200,133440,1,0,0:0:0:0:
359,192,133748,5,12,0:0:0:0:
340,195,134056,5,12,0:0:0:0:
359,192,134363,1,4,0:0:0:0:
359,192,134979,1,8,0:0:0:0:
359,192,135286,1,8,0:0:0:0:
359,192,135594,1,8,0:0:0:0:
283,142,135902,1,8,0:0:0:0:
283,142,136210,1,8,0:0:0:0:
283,142,136363,1,0,0:0:0:0:
283,142,136517,1,8,0:0:0:0:
359,192,136825,1,8,0:0:0:0:
359,192,137440,1,8,0:0:0:0:
359,192,137748,1,8,0:0:0:0:
359,192,138056,1,8,0:0:0:0:
283,142,138363,1,8,0:0:0:0:
283,142,138671,1,8,0:0:0:0:
283,142,138825,1,0,0:0:0:0:
283,142,138979,1,8,0:0:0:0:
339,103,139286,1,4,0:0:0:0:
304,192,139902,1,8,0:0:0:0:
304,192,140210,1,8,0:0:0:0:
308,192,140517,1,8,0:0:0:0:
312,164,140825,1,8,0:0:0:0:
268,136,141133,1,8,0:0:0:0:
268,136,141286,1,0,0:0:0:0:
268,136,141440,1,8,0:0:0:0:
276,128,141748,1,8,0:0:0:0:
264,152,142363,1,8,0:0:0:0:
264,152,142671,1,8,0:0:0:0:
264,152,142979,1,8,0:0:0:0:
428,160,143286,1,8,0:0:0:0:
428,160,143594,1,8,0:0:0:0:
428,160,143748,1,0,0:0:0:0:
428,160,143902,1,8,0:0:0:0:
428,160,144210,1,4,0:0:0:0:
392,224,144825,1,0,0:0:0:0:
392,224,145133,1,8,0:0:0:0:
392,224,145440,1,0,0:0:0:0:
392,224,145594,1,0,0:0:0:0:
392,224,145748,1,8,0:0:0:0:
332,232,146056,1,0,0:0:0:0:
220,96,146363,1,8,0:0:0:0:
428,160,146671,1,0,0:0:0:0:
392,224,147286,1,0,0:0:0:0:
392,224,147594,1,8,0:0:0:0:
392,224,147902,1,0,0:0:0:0:
392,224,148056,1,0,0:0:0:0:
392,224,148210,1,8,0:0:0:0:
248,116,148517,1,0,0:0:0:0:
288,144,149133,1,12,0:0:0:0:
308,116,149440,1,8,0:0:0:0:
308,116,149748,1,8,0:0:0:0:
308,116,150056,1,8,0:0:0:0:
204,140,150363,1,8,0:0:0:0:
204,140,150671,1,8,0:0:0:0:
280,132,150979,1,8,0:0:0:0:
288,132,151286,1,12,0:0:0:0:
358,234,151594,5,4,0:0:0:0:
358,234,152056,1,4,0:0:0:0:
358,234,152363,1,4,0:0:0:0:
376,236,152825,1,12,0:0:0:0:
430,206,154056,5,8,0:0:0:0:
439,204,155286,1,8,0:0:0:0:
340,192,156517,1,8,0:0:0:0:
340,192,157748,1,8,0:0:0:0:
283,199,158979,1,0,0:0:0:0:
370,239,159594,1,0,0:0:0:0:
370,239,160210,1,0,0:0:0:0:
256,56,160517,1,0,0:0:0:0:
370,239,160825,1,0,0:0:0:0:
436,247,161440,1,12,0:0:0:0:
350,150,161748,1,8,0:0:0:0:
350,150,162056,1,8,0:0:0:0:
350,150,162517,1,4,0:0:0:0:
367,199,162979,1,8,0:0:0:0:
351,223,163440,1,8,0:0:0:0:
351,223,163594,1,8,0:0:0:0:
369,213,163902,5,4,0:0:0:0:
342,190,164210,1,8,0:0:0:0:
342,190,164517,1,8,0:0:0:0:
342,190,164671,1,0,0:0:0:0:
342,190,164979,1,8,0:0:0:0:
296,144,165286,1,0,0:0:0:0:
296,144,165440,1,8,0:0:0:0:
317,127,165748,1,0,0:0:0:0:
310,172,166056,1,8,0:0:0:0:
369,94,166210,1,8,0:0:0:0:
324,150,166363,1,0,0:0:0:0:
456,253,166671,1,8,0:0:0:0:
431,239,166979,1,0,0:0:0:0:
431,239,167133,1,8,0:0:0:0:
431,239,167440,1,0,0:0:0:0:
280,120,167748,1,8,0:0:0:0:
316,112,167902,5,0,0:0:0:0:
160,119,168517,1,8,0:0:0:0:
222,206,168825,5,0,0:0:0:0:
288,136,169133,1,8,0:0:0:0:
288,136,169286,1,0,0:0:0:0:
329,240,169748,1,8,0:0:0:0:
329,240,170056,1,8,0:0:0:0:
329,240,170210,1,0,0:0:0:0:
320,216,170517,1,0,0:0:0:0:
416,267,170671,1,0,0:0:0:0:
359,218,170979,1,8,0:0:0:0:
416,267,171286,1,4,0:0:0:0:
298,196,171748,1,8,0:0:0:0:
298,196,171902,1,0,0:0:0:0:
298,196,172363,1,4,0:0:0:0:
298,196,172671,1,12,0:0:0:0:
298,196,172825,5,12,0:0:0:0:
298,196,173440,1,12,0:0:0:0:
369,213,173748,5,4,0:0:0:0:
342,190,174056,1,8,0:0:0:0:
342,190,174363,1,8,0:0:0:0:
342,190,174517,1,0,0:0:0:0:
342,190,174825,1,8,0:0:0:0:
328,104,175133,1,0,0:0:0:0:
342,190,175286,1,8,0:0:0:0:
324,150,175594,1,0,0:0:0:0:
324,150,175902,1,8,0:0:0:0:
369,94,176056,1,8,0:0:0:0:
310,172,176210,1,0,0:0:0:0:
456,253,176517,1,8,0:0:0:0:
431,239,176825,1,0,0:0:0:0:
431,239,176979,1,8,0:0:0:0:
431,239,177286,1,0,0:0:0:0:
168,136,177594,1,8,0:0:0:0:
431,239,177748,1,0,0:0:0:0:
209,139,178056,1,8,0:0:0:0:
351,201,178671,1,0,0:0:0:0:
368,234,178979,1,8,0:0:0:0:
368,234,179286,1,8,0:0:0:0:
304,164,179440,1,8,0:0:0:0:
325,196,179748,1,0,0:0:0:0:
254,172,180210,1,8,0:0:0:0:
384,210,180517,1,0,0:0:0:0:
314,170,180825,1,8,0:0:0:0:
314,170,180979,1,0,0:0:0:0:
436,247,181133,1,8,0:0:0:0:
350,150,181440,1,8,0:0:0:0:
350,150,181748,1,8,0:0:0:0:
350,150,182210,1,4,0:0:0:0:
367,199,182671,1,8,0:0:0:0:
351,223,183133,1,8,0:0:0:0:
351,223,183286,1,8,0:0:0:0:
369,213,183594,5,4,0:0:0:0:
342,190,183902,1,8,0:0:0:0:
342,190,184210,1,8,0:0:0:0:
342,190,184363,1,0,0:0:0:0:
342,190,184671,1,8,0:0:0:0:
324,150,184979,1,0,0:0:0:0:
324,150,185133,1,8,0:0:0:0:
317,127,185440,1,0,0:0:0:0:
310,172,185748,1,8,0:0:0:0:
369,94,185902,1,8,0:0:0:0:
324,150,186056,1,0,0:0:0:0:
456,253,186363,1,8,0:0:0:0:
431,239,186671,1,0,0:0:0:0:
431,239,186825,1,8,0:0:0:0:
431,239,187133,1,0,0:0:0:0:
324,176,187440,1,8,0:0:0:0:
316,112,187594,5,0,0:0:0:0:
160,119,188210,1,8,0:0:0:0:
222,206,188517,5,0,0:0:0:0:
501,294,188825,1,8,0:0:0:0:
276,144,188979,1,0,0:0:0:0:
329,240,189440,1,8,0:0:0:0:
329,240,189748,1,8,0:0:0:0:
329,240,189902,1,0,0:0:0:0:
472,168,190210,1,0,0:0:0:0:
416,267,190363,1,0,0:0:0:0:
359,218,190671,1,8,0:0:0:0:
416,267,190979,1,4,0:0:0:0:
298,196,191440,1,8,0:0:0:0:
298,196,191594,1,0,0:0:0:0:
298,196,192056,1,4,0:0:0:0:
298,196,192363,1,12,0:0:0:0:
298,196,192517,5,12,0:0:0:0:
298,196,193133,1,12,0:0:0:0:
152,180,193440,1,4,0:0:0:0:
322,166,193748,1,8,0:0:0:0:
280,116,194056,1,0,0:0:0:0:
280,150,194363,1,8,0:0:0:0:
258,149,194517,1,0,0:0:0:0:
480,288,194825,1,0,0:0:0:0:
307,154,194979,1,8,0:0:0:0:
319,172,195286,1,0,0:0:0:0:
152,180,195902,1,0,0:0:0:0:
322,166,196210,1,8,0:0:0:0:
236,187,196517,1,0,0:0:0:0:
280,150,196825,1,8,0:0:0:0:
258,149,196979,1,0,0:0:0:0:
476,304,197286,1,0,0:0:0:0:
288,172,197440,1,8,0:0:0:0:
319,172,197748,1,4,0:0:0:0:
319,172,198056,1,12,0:0:0:0:
238,132,198671,1,12,0:0:0:0:
238,132,198979,1,0,0:0:0:0:
266,202,199286,1,8,0:0:0:0:
260,201,199440,1,4,0:0:0:0:
476,304,199748,1,0,0:0:0:0:
247,223,199902,1,8,0:0:0:0:
241,221,200210,1,0,0:0:0:0:
226,211,200825,1,4,0:0:0:0:
223,210,201286,1,4,0:0:0:0:
242,249,201748,1,4,0:0:0:0:
297,221,202363,1,0,0:0:0:0:
255,263,202671,5,12,0:0:0:0:
255,263,202825,1,12,0:0:0:0:
