osu file format v14

[General]
AudioFilename: audio.mp3
AudioLeadIn: 0
PreviewTime: 153588
Countdown: 0
SampleSet: Soft
StackLeniency: 0.7
Mode: 0
LetterboxInBreaks: 0
EpilepsyWarning: 1
WidescreenStoryboard: 1

[Editor]
DistanceSpacing: 0.5
BeatDivisor: 4
GridSize: 4
TimelineZoom: 1

[Metadata]
Title:Kanzen Shouri*Esper Girl
TitleUnicode:完全勝利☆エスパーガール
Artist:*namirin
ArtistUnicode:*namirin
Creator:Left
Version:Ex
Source:osu!
Tags:Mappers' Guild Island featured artist Affirmation
BeatmapID:1992317
BeatmapSetID:954272

[Difficulty]
HPDrainRate:6
CircleSize:4
OverallDifficulty:9
ApproachRate:9.4
SliderMultiplier:1.60000000596046
SliderTickRate:1

[Events]
//Background and Video events
0,0,"godstuff.jpg",0,0
//Break Periods
2,154249,158433
//Storyboard Layer 0 (Background)
//Storyboard Layer 1 (Fail)
//Storyboard Layer 2 (Pass)
//Storyboard Layer 3 (Foreground)
//Storyboard Sound Samples

[TimingPoints]
204,307.692307692308,4,2,7,72,1,0
819,-250,4,2,7,72,0,0
1357,-250,4,2,7,5,0,0
1434,-66.6666666666667,4,2,7,72,0,0
2050,-90.9090909090909,4,2,7,72,0,0
3896,-66.6666666666667,4,2,7,72,0,0
4973,-90.9090909090909,4,2,7,72,0,0
5434,-111.111111111111,4,2,7,72,0,0
5742,-58.8235294117647,4,2,7,72,0,0
5896,-58.8235294117647,4,2,7,5,0,0
6050,-58.8235294117647,4,2,7,72,0,0
6204,-58.8235294117647,4,2,7,5,0,0
6357,-90.9090909090909,4,2,7,72,0,0
7127,-133.333333333333,4,2,7,72,0,0
7434,-90.9090909090909,4,2,7,72,0,0
8819,-71.4285714285714,4,2,7,72,0,0
9742,-105.263157894737,4,2,7,72,0,0
11280,-100,4,2,7,55,0,0
15434,-153.846153846154,4,2,7,55,0,0
15896,-117.647058823529,4,2,7,55,0,0
18357,-100,4,2,7,55,0,0
18588,-100,4,2,7,5,0,0
18665,-100,4,2,7,55,0,0
18973,-125,4,2,7,55,0,0
19434,-166.666666666667,4,2,7,55,0,0
20050,-100,4,2,7,55,0,0
20127,-100,4,2,7,5,0,0
20204,-100,4,2,7,55,0,0
20280,-100,4,2,7,5,0,0
20357,-100,4,2,7,55,0,0
20511,-76.9230769230769,4,2,7,65,0,0
20665,-76.9230769230769,4,2,7,5,0,0
20819,-76.9230769230769,4,2,7,65,0,0
20973,-76.9230769230769,4,2,7,5,0,0
21127,-76.9230769230769,4,2,7,65,0,0
21280,-105.263157894737,4,2,7,65,0,0
22357,-86.9565217391304,4,2,7,65,0,0
23588,-100,4,2,7,65,0,0
25742,-80,4,2,7,65,0,0
25973,-80,4,2,7,5,0,0
26050,-105.263157894737,4,2,7,65,0,0
27280,-80,4,2,7,65,0,0
28127,-80,4,2,7,5,0,0
28204,-80,4,2,7,65,0,0
28511,-68.9655172413793,4,2,7,65,0,0
29588,-100,4,2,7,65,0,0
29819,-100,4,2,7,5,0,0
29896,-100,4,2,7,65,0,0
30665,-66.6666666666667,4,2,7,65,0,0
31127,-100,4,2,7,65,0,0
36819,-500,4,2,7,65,0,0
38665,-100,4,2,7,65,0,0
40819,-100,4,2,7,75,0,0
42050,-166.666666666667,4,2,7,63,0,0
42973,-166.666666666667,4,2,7,70,0,0
43280,-62.5,4,2,7,80,0,1
43434,-62.5,4,2,7,5,0,1
43588,-62.5,4,2,7,80,0,1
43742,-62.5,4,2,7,5,0,1
43896,-80,4,2,7,80,0,1
44588,-80,4,2,7,5,0,1
44665,-80,4,2,7,80,0,1
45742,-62.5,4,2,7,80,0,1
45896,-62.5,4,2,7,5,0,1
46050,-62.5,4,2,7,80,0,1
46204,-62.5,4,2,7,5,0,1
46357,-80,4,2,7,80,0,1
53127,-62.5,4,2,8,80,0,1
53280,-62.5,4,2,8,5,0,1
53434,-62.5,4,2,8,80,0,1
53588,-62.5,4,2,8,5,0,1
53742,-80,4,2,8,80,0,1
55588,-62.5,4,2,8,80,0,1
55742,-62.5,4,2,8,5,0,1
55896,-62.5,4,2,8,80,0,1
56050,-62.5,4,2,8,5,0,1
56204,-62.5,4,2,8,80,0,1
56357,-80,4,2,8,80,0,1
57434,-62.5,4,2,8,80,0,1
57973,-62.5,4,2,8,5,0,1
58050,-105.263157894737,4,2,8,80,0,1
58819,-80,4,2,8,80,0,1
59896,-64.5161290322581,4,2,8,80,0,1
61588,-62.5,4,2,8,80,0,1
61973,-62.5,4,2,8,5,0,1
62050,-62.5,4,2,8,80,0,1
62665,-71.4285714285714,4,2,8,80,0,1
62819,-71.4285714285714,4,2,8,5,0,1
62973,-66.6666666666667,4,2,8,72,0,0
63742,-90.9090909090909,4,2,8,72,0,0
65434,-66.6666666666667,4,2,8,72,0,0
66511,-90.9090909090909,4,2,8,72,0,0
66819,-111.111111111111,4,2,8,72,0,0
68511,-74.0740740740741,4,2,8,72,0,0
68973,-66.6666666666667,4,2,8,72,0,0
69742,-90.9090909090909,4,2,8,72,0,0
70357,-71.4285714285714,4,2,8,72,0,0
71280,-105.263157894737,4,2,7,72,0,0
72819,-100,4,2,7,65,0,0
73357,-100,4,2,7,5,0,0
73434,-100,4,2,7,65,0,0
74588,-100,4,2,7,5,0,0
74665,-100,4,2,7,65,0,0
75819,-100,4,2,7,5,0,0
75896,-100,4,2,7,65,0,0
77127,-166.666666666667,4,2,7,65,0,0
77280,-166.666666666667,4,2,7,5,0,0
77434,-76.9230769230769,4,2,7,65,0,0
77665,-76.9230769230769,4,2,7,5,0,0
77742,-100,4,2,7,65,0,0
78280,-100,4,2,7,5,0,0
78357,-100,4,2,7,65,0,0
79511,-100,4,2,7,5,0,0
79588,-83.3333333333333,4,2,7,65,0,0
80204,-100,4,2,7,65,0,0
80511,-125,4,2,7,65,0,0
80819,-166.666666666667,4,2,7,65,0,0
81434,-100,4,2,7,65,0,0
81665,-100,4,2,7,5,0,0
81742,-100,4,2,7,65,0,0
81819,-100,4,2,7,5,0,0
81896,-100,4,2,7,65,0,0
82050,-76.9230769230769,4,2,7,65,0,0
82204,-76.9230769230769,4,2,7,5,0,0
82357,-76.9230769230769,4,2,7,65,0,0
82511,-76.9230769230769,4,2,7,5,0,0
82665,-105.263157894737,4,2,7,65,0,0
83896,-86.9565217391304,4,2,7,65,0,0
86204,-100,4,2,7,65,0,0
86819,-100,4,2,7,65,0,0
87280,-80,4,2,7,65,0,0
87511,-80,4,2,7,5,0,0
87588,-105.263157894737,4,2,7,65,0,0
89665,-105.263157894737,4,2,7,5,0,0
89742,-105.263157894737,4,2,7,65,0,0
90050,-68.9655172413793,4,2,7,65,0,0
91127,-100,4,2,7,65,0,0
91357,-100,4,2,7,5,0,0
91434,-100,4,2,7,65,0,0
92204,-66.6666666666667,4,2,7,65,0,0
92511,-100,4,2,7,65,0,0
98357,-500,4,2,7,65,0,0
100050,-100,4,2,7,65,0,0
103588,-166.666666666667,4,2,7,65,0,0
104819,-62.5,4,2,7,80,0,1
104973,-62.5,4,2,7,5,0,1
105127,-62.5,4,2,7,80,0,1
105280,-62.5,4,2,7,5,0,1
105434,-80,4,2,7,80,0,1
106127,-80,4,2,7,5,0,1
106204,-80,4,2,7,80,0,1
107280,-62.5,4,2,7,80,0,1
107434,-62.5,4,2,7,5,0,1
107588,-62.5,4,2,7,80,0,1
107742,-62.5,4,2,7,5,0,1
107896,-80,4,2,7,80,0,1
114665,-62.5,4,2,8,80,0,1
114819,-62.5,4,2,8,5,0,1
114973,-62.5,4,2,8,80,0,1
115127,-62.5,4,2,8,5,0,1
115280,-80,4,2,8,80,0,1
117127,-62.5,4,2,8,80,0,1
117280,-62.5,4,2,8,5,0,1
117434,-62.5,4,2,8,80,0,1
117588,-62.5,4,2,8,5,0,1
117742,-62.5,4,2,8,80,0,1
118204,-80,4,2,8,80,0,1
119280,-62.5,4,2,8,80,0,1
119511,-62.5,4,2,8,5,0,1
119588,-105.263157894737,4,2,8,80,0,1
120511,-80,4,2,8,80,0,1
121434,-64.5161290322581,4,2,8,80,0,1
123127,-62.5,4,2,8,80,0,1
123511,-62.5,4,2,8,5,0,1
123588,-62.5,4,2,8,80,0,1
123896,-100,4,2,8,80,0,1
124050,-100,4,2,8,5,0,1
124204,-76.9230769230769,4,2,8,80,0,1
124434,-76.9230769230769,4,2,8,5,0,1
124511,-100,4,2,7,65,0,0
125588,-76.9230769230769,4,2,7,65,0,0
125742,-76.9230769230769,4,2,7,5,0,0
125896,-76.9230769230769,4,2,7,65,0,0
126511,-333.333333333333,4,2,7,65,0,0
126819,-333.333333333333,4,2,7,5,0,0
126973,-100,4,2,7,65,0,0
128050,-62.5,4,2,7,65,0,0
128973,-333.333333333333,4,2,7,65,0,0
129280,-333.333333333333,4,2,7,5,0,0
129434,-100,4,2,7,65,0,0
129896,-100,4,2,7,65,0,0
130511,-76.9230769230769,4,2,7,65,0,0
130665,-76.9230769230769,4,2,7,5,0,0
130819,-76.9230769230769,4,2,7,65,0,0
131127,-62.5,4,2,7,65,0,0
131588,-52.6315789473684,4,2,7,65,0,0
132204,-83.3333333333333,4,2,7,68,0,0
132280,-83.3333333333333,4,2,7,5,0,0
132357,-83.3333333333333,4,2,7,68,0,0
132511,-58.8235294117647,4,2,7,73,0,0
132588,-58.8235294117647,4,2,7,5,0,0
132665,-58.8235294117647,4,2,7,73,0,0
132742,-58.8235294117647,4,2,7,5,0,0
132819,-58.8235294117647,4,2,7,73,0,0
132896,-58.8235294117647,4,2,7,5,0,0
132973,-58.8235294117647,4,2,7,85,0,0
133204,-58.8235294117647,4,2,7,5,0,0
133280,-58.8235294117647,4,2,7,85,0,0
133896,-58.8235294117647,4,2,7,5,0,0
134050,-58.8235294117647,4,2,7,85,0,0
134204,-58.8235294117647,4,2,7,5,0,0
134357,-76.9230769230769,4,2,9,85,0,0
134511,-76.9230769230769,4,2,9,5,0,0
134665,-76.9230769230769,4,2,9,85,0,0
136973,-76.9230769230769,4,2,9,5,0,0
137127,-76.9230769230769,4,2,9,85,0,0
139127,-76.9230769230769,4,2,9,5,0,0
139280,-76.9230769230769,4,2,9,85,0,0
140973,-76.9230769230769,4,2,9,5,0,0
141127,-76.9230769230769,4,2,9,85,0,0
141434,-55.5555555555556,4,2,9,85,0,0
141588,-55.5555555555556,4,2,9,5,0,0
141742,-55.5555555555556,4,2,9,85,0,0
142973,-76.9230769230769,4,2,9,85,0,0
144050,-76.9230769230769,4,2,9,5,0,0
144204,-80,4,2,7,85,0,0
149127,-47.6190476190476,4,2,7,95,0,1
149280,-47.6190476190476,4,2,7,5,0,1
149434,-47.6190476190476,4,2,7,95,0,1
149588,-47.6190476190476,4,2,7,5,0,1
149742,-47.6190476190476,4,2,7,95,0,1
149896,-47.6190476190476,4,2,7,5,0,1
150050,-47.6190476190476,4,2,7,95,0,1
150204,-47.6190476190476,4,2,7,5,0,1
150357,-47.6190476190476,4,2,7,95,0,1
150511,-47.6190476190476,4,2,7,5,0,1
150665,-57.1428571428571,4,2,7,95,0,1
150819,-66.6666666666667,4,2,7,5,0,1
150973,-80,4,2,7,95,0,1
151127,-47.6190476190476,4,2,7,5,0,1
151280,-125,4,2,7,95,0,1
151434,-47.6190476190476,4,2,7,5,0,1
151588,-47.6190476190476,4,2,7,95,0,1
151742,-58.8235294117647,4,2,7,95,0,1
151896,-58.8235294117647,4,2,7,5,0,1
152050,-90.9090909090909,4,2,7,85,0,1
152204,-90.9090909090909,4,2,7,5,0,1
152357,-200,4,2,7,75,0,1
152511,-200,4,2,7,5,0,1
152665,-200,4,2,7,75,0,1
152819,-1000,4,2,7,65,0,1
154050,-1000,4,2,77,50,0,0
158973,-111.111111111111,4,2,7,55,0,0
161127,-111.111111111111,4,2,7,80,0,0
161434,-111.111111111111,4,2,7,80,0,1
163896,-62.5,4,2,8,80,0,1
164050,-62.5,4,2,8,5,0,1
164204,-62.5,4,2,8,80,0,1
164357,-62.5,4,2,8,5,0,1
164511,-62.5,4,2,8,80,0,1
164665,-80,4,2,8,80,0,1
165434,-105.263157894737,4,2,8,80,0,1
165742,-80,4,2,8,80,0,1
166357,-62.5,4,2,8,80,0,1
166511,-62.5,4,2,8,5,0,1
166665,-62.5,4,2,8,80,0,1
166819,-62.5,4,2,8,5,0,1
166973,-62.5,4,2,8,80,0,1
167127,-80,4,2,8,80,0,1
167896,-105.263157894737,4,2,8,80,0,1
168511,-62.5,4,2,8,80,0,1
168742,-62.5,4,2,8,5,0,1
168819,-105.263157894737,4,2,8,80,0,1
169742,-80,4,2,8,80,0,1
170665,-64.5161290322581,4,2,8,80,0,1
172357,-333.333333333333,4,2,8,80,0,0
172511,-333.333333333333,4,2,8,5,0,0
172665,-52.6315789473684,4,2,8,80,0,0
172742,-52.6315789473684,4,2,8,5,0,0
172819,-76.9230769230769,4,2,8,80,0,0
172896,-76.9230769230769,4,2,8,5,0,0
172973,-76.9230769230769,4,2,8,80,0,0
173127,-111.111111111111,4,2,8,80,0,0
173280,-111.111111111111,4,2,8,5,0,0
173434,-111.111111111111,4,2,8,95,0,0
173742,-55.5555555555556,4,2,7,95,0,1
173896,-55.5555555555556,4,2,7,5,0,1
174050,-55.5555555555556,4,2,7,95,0,1
174204,-55.5555555555556,4,2,7,5,0,1
174357,-55.5555555555556,4,2,7,95,0,1
174511,-71.4285714285714,4,2,7,95,0,1
175050,-71.4285714285714,4,2,7,5,0,1
175127,-71.4285714285714,4,2,7,95,0,1
176204,-55.5555555555556,4,2,7,95,0,1
176357,-55.5555555555556,4,2,7,5,0,1
176511,-55.5555555555556,4,2,7,95,0,1
176665,-55.5555555555556,4,2,7,5,0,1
176819,-55.5555555555556,4,2,7,95,0,1
177280,-71.4285714285714,4,2,7,95,0,1
182204,-111.111111111111,4,2,7,95,0,1
182511,-66.6666666666667,4,2,7,95,0,1
183050,-66.6666666666667,4,2,7,5,0,1
183127,-58.8235294117647,4,2,7,95,0,1
183204,-58.8235294117647,4,2,7,5,0,1
183280,-58.8235294117647,4,2,7,95,0,1
183588,-55.5555555555556,4,2,8,95,0,1
183742,-55.5555555555556,4,2,8,5,0,1
183896,-55.5555555555556,4,2,8,95,0,1
184050,-55.5555555555556,4,2,8,5,0,1
184204,-71.4285714285714,4,2,8,95,0,1
186050,-55.5555555555556,4,2,8,95,0,1
186204,-55.5555555555556,4,2,8,5,0,1
186357,-55.5555555555556,4,2,8,95,0,1
186511,-55.5555555555556,4,2,8,5,0,1
186665,-71.4285714285714,4,2,8,95,0,1
187127,-71.4285714285714,4,2,7,95,0,1
187280,-71.4285714285714,4,2,8,95,0,1
188511,-83.3333333333333,4,2,8,95,0,1
189434,-62.5,4,2,8,95,0,1
190357,-54.054054054054,4,2,8,95,0,1
192434,-54.054054054054,4,2,8,5,0,1
192511,-54.054054054054,4,2,8,95,0,1
193127,-71.4285714285714,4,2,8,95,0,1
193280,-71.4285714285714,4,2,8,5,0,1
193434,-133.333333333333,4,2,8,95,0,0
194511,-133.333333333333,4,2,7,30,0,0

[Colours]
Combo1 : 230,230,230
Combo2 : 153,204,255
Combo3 : 166,255,166
Combo4 : 255,131,70
Combo5 : 255,208,98
Combo6 : 92,92,92
Combo7 : 180,180,180
Combo8 : 255,74,74

[HitObjects]
430,246,818,117,8,0:0:0:0:
452,371,972,1,0,1:0:0:0:
430,246,1126,2,0,L|440:306,1,48.0000001788139,12|0,0:0|0:0,0:0:0:0:
452,371,1434,6,0,P|383:367|305:318,1,120.000005024672,4|0,1:0|0:0,0:0:0:0:
383,123,1742,2,0,P|452:127|530:176,1,120.000005024672,8|0,0:0|0:0,0:0:0:0:
261,326,2050,5,0,1:0:0:0:
240,249,2204,1,0,1:0:0:0:
185,305,2357,101,8,0:0:0:0:
316,269,2511,2,0,P|332:224|332:175,1,88.0000030133725,4|0,1:2|0:0,0:0:0:0:
132,53,2819,1,0,1:0:0:0:
162,128,2973,1,8,0:0:0:0:
210,68,3127,1,0,0:0:0:0:
181,239,3280,5,4,1:2:0:0:
82,116,3434,1,0,0:0:0:0:
33,262,3588,1,12,0:0:0:0:
452,371,3896,102,0,P|383:367|305:318,1,120.000005024672,4|0,1:0|0:0,0:0:0:0:
383,123,4204,2,0,P|452:127|530:176,1,120.000005024672,8|0,0:0|0:0,0:0:0:0:
278,289,4511,1,0,1:0:0:0:
354,268,4665,5,0,1:0:0:0:
214,241,4819,1,8,0:0:0:0:
143,366,4973,2,0,L|29:358,1,88.0000030133723,4|0,1:2|0:0,0:0:0:0:
242,162,5280,101,0,1:0:0:0:
294,225,5434,2,0,L|374:219,1,71.9999980709551,8|0,0:0|0:0,0:0:0:0:
54,0,5742,6,0,L|32:139,1,136.000003100633,14|0,0:1|0:0,0:0:0:0:
263,27,6050,2,0,L|241:166,1,136.000003100633,14|0,0:1|0:0,0:0:0:0:
11,384,6357,101,0,1:0:0:0:
129,305,6511,1,0,1:0:0:0:
202,331,6665,5,12,0:0:0:0:
56,323,6819,1,0,1:0:0:0:
76,250,6973,101,8,0:3:0:0:
76,250,7127,2,0,P|114:230|146:233,1,60.0000025123357,4|8,0:3|0:0,0:0:0:0:
336,89,7434,6,0,L|347:-26,1,88.0000030133723,4|0,1:0|0:0,0:0:0:0:
281,144,7742,1,0,1:0:0:0:
322,277,7896,1,8,0:0:0:0:
339,200,8050,1,0,0:0:0:0:
264,221,8204,2,0,P|245:263|252:319,1,88.0000030133723,4|0,1:2|0:0,0:0:0:0:
382,334,8511,2,0,P|402:288|394:234,1,88.0000030133723,12|0,0:0|0:0,0:0:0:0:
117,333,8819,102,0,P|205:276|357:292,1,223.999993998527,4|8,1:0|0:0,0:0:0:0:
297,25,9280,2,0,P|302:129|212:253,1,223.999993998527,4|0,1:2|1:0,0:0:0:0:
473,339,9742,6,0,P|379:291|316:159,1,227.999994761109,4|0,1:0|1:0,0:0:0:0:
309,266,10357,2,0,L|302:312,3,37.9999991268515,8|0|0|0,0:0|0:0|0:0|0:0,0:0:0:0:
334,110,10665,101,12,0:1:0:0:
284,382,10819,1,8,0:0:0:0:
40,344,11280,101,2,0:0:0:0:
116,335,11434,1,0,0:0:0:0:
184,376,11896,85,2,0:0:0:0:
157,233,12050,1,0,0:0:0:0:
225,273,12511,21,2,0:0:0:0:
301,264,12665,1,0,0:0:0:0:
391,175,13127,70,0,L|376:258,1,80.000000298023,2|0,0:0|0:0,0:0:0:0:
512,195,13434,2,0,L|497:278,1,80.000000298023,2|0,0:0|0:0,0:0:0:0:
436,22,13742,37,2,0:0:0:0:
284,48,13896,1,0,0:0:0:0:
222,103,14357,85,2,0:0:0:0:
204,31,14511,1,0,0:0:0:0:
325,194,14819,21,2,0:0:0:0:
249,181,14973,1,0,0:0:0:0:
173,168,15127,1,2,0:0:0:0:
93,184,15434,85,2,0:0:0:0:
111,112,15588,2,0,L|99:50,1,51.999997813344,0|2,0:0|0:0,0:0:0:0:
27,384,15896,102,0,L|12:312,1,68.0000015503166,8|0,0:0|0:0,0:0:0:0:
71,264,16204,37,2,0:0:0:0:
147,278,16357,1,0,0:0:0:0:
201,335,16819,85,2,0:0:0:0:
241,158,16973,1,0,0:0:0:0:
293,213,17434,21,2,0:0:0:0:
369,227,17587,1,0,0:0:0:0:
426,281,18050,85,2,0:0:0:0:
466,104,18204,1,0,1:0:0:0:
426,281,18357,2,0,P|424:207|400:139,1,120.000000447034,8|0,0:0|0:0,0:0:0:0:
389,89,18665,102,0,P|352:109|336:158,1,80.000000298023,4|0,1:2|0:0,0:0:0:0:
263,170,18973,5,2,0:0:0:0:
263,170,19127,2,0,P|235:144|224:113,1,64.0000002384184,0|0,1:0|0:0,0:0:0:0:
149,137,19434,22,0,P|132:162|125:186,1,47.9999987139701,0|0,1:0|0:0,0:0:0:0:
0,48,19742,69,2,1:2:0:0:
0,48,20050,2,0,L|13:122,1,40.0000001490115,0|0,1:0|0:0,0:0:0:0:
76,33,20204,2,0,L|89:107,1,40.0000001490115,8|0,0:0|0:0,0:0:0:0:
60,146,20357,1,0,1:0:0:0:
231,309,20511,54,0,L|247:206,1,103.999995626688,12|0,0:0|0:0,0:0:0:0:
111,292,20819,2,0,L|127:189,1,103.999995626688,12|0,0:0|0:0,0:0:0:0:
453,147,21127,5,4,1:2:0:0:
453,147,21280,2,0,P|412:124|369:128,1,75.999998253703,0|8,0:0|0:0,0:0:0:0:
250,158,21588,1,0,0:0:0:0:
290,31,21742,2,0,L|309:105,2,75.999998253703,2|2|8,1:0|0:1|0:0,0:0:0:0:
328,180,22204,1,0,0:0:0:0:
137,309,22357,101,4,1:2:0:0:
137,309,22511,2,0,P|178:286|227:288,1,92.0000020974872,0|8,0:0|0:0,0:0:0:0:
369,328,22819,1,0,0:0:0:0:
327,179,22973,6,0,L|306:269,1,92.0000020974872,2|0,1:0|0:0,0:0:0:0:
453,307,23280,2,0,L|478:204,1,92.0000020974872,10|0,0:1|0:0,0:0:0:0:
313,23,23588,101,4,1:2:0:0:
313,23,23742,1,0,1:0:0:0:
365,81,23896,1,8,0:0:0:0:
441,67,24050,1,0,0:0:0:0:
388,11,24204,5,2,1:0:0:0:
287,94,24357,1,0,1:0:0:0:
190,61,24511,1,8,0:0:0:0:
122,106,24665,2,0,P|109:149|107:185,1,80.000000298023,2|0,0:1|1:0,0:0:0:0:
223,206,24973,2,0,P|238:152|235:120,1,80.000000298023,2|8,1:1|0:0,0:0:0:0:
190,61,25280,101,0,0:0:0:0:
153,250,25434,1,4,1:2:0:0:
153,250,25742,2,0,P|220:251|266:341,1,150.000000558793,12|0,0:1|0:0,0:0:0:0:
331,367,26050,5,4,1:2:0:0:
331,367,26204,2,0,P|344:329|347:268,1,75.999998253703,0|8,0:0|0:0,0:0:0:0:
318,163,26511,1,0,0:0:0:0:
445,209,26665,2,0,L|344:225,2,75.999998253703,2|2|8,1:0|1:0|0:0,0:0:0:0:
296,238,27127,1,0,0:0:0:0:
250,71,27280,101,4,1:2:0:0:
250,71,27434,2,0,P|190:45|136:48,1,100.000000372529,0|8,0:2|0:2,0:2:0:0:
6,86,27742,1,0,0:0:0:0:
69,7,27896,2,2,L|110:194,1,150.000000558793,2|2,1:1|0:1,0:1:0:0:
104,165,28204,1,8,0:1:0:0:
79,318,28357,5,2,0:0:0:0:
8,296,28511,2,0,P|97:189|192:223,2,232.000007944345,14|10|10,0:1|0:1|0:1,0:0:0:0:
248,186,29434,101,0,1:0:0:0:
231,260,29588,2,0,P|252:284|344:296,1,120.000000447034,12|0,0:0|0:0,0:0:0:0:
345,295,29896,5,0,1:0:0:0:
468,284,30050,1,8,0:0:0:0:
419,266,30204,1,0,1:0:0:0:
487,314,30357,1,8,0:0:0:0:
413,357,30511,37,0,1:0:0:0:
420,353,30588,1,0,1:0:0:0:
411,348,30665,2,0,P|412:214|432:96,1,240.000010049343,12|4,0:1|1:2,0:0:0:0:
134,197,31127,101,2,0:0:0:0:
96,53,31280,1,8,0:0:0:0:
244,87,31434,5,2,0:0:0:0:
190,144,31588,1,0,1:0:0:0:
171,69,31742,2,0,P|176:47|191:5,2,40.0000001490115,2|0|8,0:0|0:0|0:0,0:0:0:0:
31,319,32050,1,2,0:0:0:0:
44,243,32204,101,0,1:0:0:0:
223,269,32357,1,2,0:0:0:0:
139,223,32511,1,8,0:0:0:0:
239,363,32665,1,2,0:0:0:0:
316,308,32819,5,0,1:0:0:0:
455,287,32973,1,2,0:0:0:0:
388,321,33127,1,8,0:0:0:0:
464,213,33280,2,0,L|450:153,2,40.0000001490115,2|0|0,0:0|0:0|1:0,0:0:0:0:
349,155,33588,1,2,0:0:0:0:
425,0,33742,101,8,0:0:0:0:
417,73,33896,1,2,0:0:0:0:
249,84,34050,5,0,1:0:0:0:
316,54,34204,1,2,0:0:0:0:
408,198,34357,101,8,0:0:0:0:
349,155,34511,1,2,0:0:0:0:
416,124,34665,1,0,1:0:0:0:
393,161,34819,5,2,0:0:0:0:
271,143,34973,2,0,P|255:99|254:57,1,80.000000298023,8|0,0:0|0:0,0:0:0:0:
26,340,35280,2,0,P|56:278|146:258,1,160.000000596046,4|8,1:2|0:0,0:0:0:0:
216,272,35742,1,2,0:0:0:0:
223,305,35819,1,2,0:0:0:0:
212,311,35896,101,4,1:0:0:0:
189,198,36050,1,2,0:0:0:0:
111,183,36204,5,8,0:0:0:0:
134,52,36357,1,2,0:0:0:0:
162,125,36511,101,0,0:0:0:0:
5,155,36665,1,8,0:0:0:0:
50,5,36819,2,0,L|57:43,1,32.0000001192092,12|0,0:0|1:0,0:0:0:0:
134,52,37280,5,2,0:0:0:0:
111,183,37434,1,8,0:0:0:0:
162,125,37588,1,2,0:0:0:0:
231,351,37742,101,0,1:0:0:0:
191,199,37896,1,10,0:0:0:0:
348,245,38050,2,0,L|352:213,1,32.0000001192092,12|0,0:1|1:2,0:0:0:0:
273,277,38511,5,2,0:0:0:0:
421,176,38665,2,0,L|409:85,1,80.000000298023,8|2,0:0|0:0,0:0:0:0:
361,36,38973,2,0,P|281:33|209:66,1,160.000000596046,0|8,1:0|0:0,0:0:0:0:
53,53,39434,1,2,0:0:0:0:
17,190,39588,102,0,P|-2:129|4:96,1,80.000000298023,0|2,1:0|0:0,0:0:0:0:
129,84,39896,2,0,P|145:120|146:159,1,80.000000298023,8|2,0:0|0:0,0:0:0:0:
125,245,40204,2,0,P|193:249|242:328,1,160.000000596046,0|8,1:0|0:0,0:0:0:0:
492,299,40665,1,2,0:0:0:0:
490,310,40742,1,2,0:0:0:0:
512,327,40819,37,12,0:0:0:0:
313,359,40973,1,0,0:0:0:0:
498,245,41127,53,12,0:0:0:0:
299,277,41281,1,0,0:0:0:0:
484,163,41434,53,12,0:0:0:0:
285,195,41588,1,0,0:0:0:0:
470,81,41742,53,12,0:0:0:0:
271,113,41896,1,2,0:0:0:0:
274,101,41973,1,2,0:0:0:0:
250,79,42050,70,0,P|143:76|78:193,1,239.99999356985,4|2,1:0|0:0,0:0:0:0:
360,320,42973,1,8,0:0:0:0:
362,311,43050,1,8,0:0:0:0:
364,303,43127,1,8,0:0:0:0:
366,295,43204,1,8,0:0:0:0:
367,288,43280,102,0,P|323:270|221:274,1,128.000000476837,4|0,1:0|0:0,0:0:0:0:
403,48,43588,2,0,P|339:49|279:27,1,128.000000476837,8|0,0:0|0:0,0:0:0:0:
12,198,43896,53,0,1:0:0:0:
136,149,44050,2,0,P|173:200|170:244,1,100.000000372529,0|8,1:0|0:0,0:0:0:0:
74,372,44357,54,0,P|68:289|102:201,1,150.000000558793,4|0,1:2|0:0,0:0:0:0:
95,218,44665,1,0,1:0:0:0:
194,312,44819,1,8,0:0:0:0:
230,179,44973,1,0,0:0:0:0:
172,234,45127,54,0,P|262:234|320:344,1,200.000000745057,4|8,1:2|0:0,0:0:0:0:
505,41,45588,1,0,1:0:0:0:
505,41,45665,1,0,1:0:0:0:
505,41,45742,2,0,P|482:114|487:171,1,128.000000476837,4|0,1:0|0:0,0:0:0:0:
267,10,46050,2,0,P|269:73|248:133,1,128.000000476837,8|0,0:0|0:0,0:0:0:0:
508,244,46357,53,0,1:0:0:0:
335,365,46511,2,0,P|304:298|318:260,1,100.000000372529,0|8,1:0|0:0,0:0:0:0:
481,322,46819,2,0,P|420:300|356:310,1,100.000000372529,4|0,1:2|0:0,0:0:0:0:
65,365,47127,53,0,1:0:0:0:
118,214,47280,1,8,0:0:0:0:
222,335,47434,1,0,0:0:0:0:
135,305,47588,1,0,1:2:0:0:
481,118,47896,53,12,0:0:0:0:
384,177,48050,1,0,1:0:0:0:
391,152,48127,1,0,1:0:0:0:
400,144,48204,1,4,1:0:0:0:
464,202,48357,53,2,0:0:0:0:
418,60,48511,2,0,P|373:60|320:117,1,100.000000372529,8|2,0:0|0:0,0:0:0:0:
300,283,48819,53,0,1:0:0:0:
244,114,48973,1,2,1:2:0:0:
308,181,49127,1,8,0:0:0:0:
170,102,49280,2,0,P|119:121|53:125,1,100.000000372529,2|0,0:0|1:0,0:0:0:0:
161,349,49588,53,2,1:2:0:0:
203,284,49742,2,0,P|156:228|25:230,1,200.000000745057,8|0,0:0|1:0,0:0:0:0:
170,102,50204,1,2,1:2:0:0:
113,172,50357,2,0,P|86:116|88:57,1,100.000000372529,12|2,0:0|0:0,0:0:0:0:
89,69,50588,1,0,0:0:0:0:
39,82,50665,53,14,0:1:0:0:
503,180,50973,53,14,0:1:0:0:
150,329,51280,5,6,1:0:0:0:
165,254,51434,1,0,1:0:0:0:
224,304,51588,1,8,0:0:0:0:
89,277,51742,1,4,1:2:0:0:
74,353,52050,101,0,1:0:0:0:
300,281,52204,1,12,0:0:0:0:
208,384,52357,1,0,0:0:0:0:
165,254,52511,1,12,0:0:0:0:
224,304,52665,53,0,0:0:0:0:
298,58,52819,1,12,0:0:0:0:
262,34,52896,1,8,0:0:0:0:
224,49,52973,1,8,0:0:0:0:
215,91,53050,1,8,0:0:0:0:
244,120,53127,54,0,P|322:95|392:113,1,128.000000476837,4|0,1:0|0:0,0:0:0:0:
286,352,53434,2,0,P|349:357|408:333,1,128.000000476837,10|0,0:0|0:0,0:0:0:0:
28,173,53742,53,2,1:2:0:0:
162,266,53896,2,0,P|189:227|184:164,1,100.000000372529,0|10,1:0|0:0,0:0:0:0:
92,116,54204,2,0,L|80:62,2,50.0000001862644,4|0|2,1:2|0:0|0:0,0:0:0:0:
110,198,54511,1,0,1:0:0:0:
20,384,54665,53,10,0:0:0:0:
47,257,54819,1,0,0:0:0:0:
146,349,54973,2,0,P|207:351|265:376,1,100.000000372529,6|0,1:2|0:2,0:2:0:0:
456,110,55280,2,0,P|382:133|369:193,1,100.000000372529,14|0,0:0|0:0,0:0:0:0:
423,313,55588,54,0,P|444:244|442:182,1,128.000000476837,6|0,1:2|0:0,0:0:0:0:
160,268,55896,2,0,P|160:204|180:143,1,128.000000476837,10|0,0:0|0:0,0:0:0:0:
147,68,56204,53,2,1:2:0:0:
23,104,56357,2,0,P|-3:50|10:1,1,100.000000372529,0|10,0:0|0:0,0:0:0:0:
131,211,56665,2,0,P|117:257|97:286,2,50.0000001862644,4|0|2,1:2|0:0|0:2,0:0:0:0:
101,135,56973,1,0,1:0:0:0:
45,298,57127,2,0,P|84:331|157:322,1,100.000000372529,10|0,0:0|0:0,0:0:0:0:
365,232,57434,53,6,1:2:0:0:
365,232,57742,2,0,P|264:230|174:310,1,192.000000715255,12|0,0:1|0:0,0:0:0:0:
52,351,58050,69,4,1:2:0:0:
52,351,58204,2,0,L|36:249,1,75.999998253703,0|8,0:0|0:0,0:0:0:0:
158,336,58511,2,0,L|143:238,1,75.999998253703,0|0,1:0|0:0,0:0:0:0:
86,212,58819,1,0,1:0:0:0:
218,64,58973,101,4,1:2:0:0:
218,64,59127,2,0,L|205:178,1,100.000000372529,0|8,0:0|0:0,0:0:0:0:
357,82,59434,2,0,L|344:186,1,100.000000372529,0|0,1:0|0:0,0:0:0:0:
271,222,59742,1,0,1:0:0:0:
512,350,59896,54,0,P|513:272|490:229,1,124.000001407981,4|0,1:2|0:0,0:0:0:0:
365,377,60204,2,0,P|339:322|347:251,1,124.000001407981,12|0,0:2|0:0,0:0:0:0:
344,260,60434,1,0,1:0:0:0:
344,260,60511,53,4,1:0:0:0:
267,285,60665,1,0,0:0:0:0:
290,144,60819,53,12,0:0:0:0:
418,236,60973,1,0,0:0:0:0:
189,312,61127,53,12,0:0:0:0:
300,63,61280,1,0,0:0:0:0:
488,276,61434,53,0,1:0:0:0:
112,335,61588,2,0,P|91:260|93:191,1,128.000000476837,12|0,0:1|0:0,0:0:0:0:
197,105,61896,54,0,P|164:137|118:133,1,64.0000002384184,0|0,1:0|0:0,0:0:0:0:
63,126,62050,1,8,0:0:0:0:
13,66,62204,1,4,0:3:0:0:
12,33,62357,1,0,1:0:0:0:
12,33,62665,6,0,P|85:37|131:67,1,111.999996999264,12|0,0:0|0:0,0:0:0:0:
289,344,62973,70,0,P|267:276|272:200,1,120.000005024671,4|0,1:0|0:0,0:0:0:0:
481,195,63280,2,0,P|503:263|498:339,1,120.000005024671,8|0,0:0|0:0,0:0:0:0:
248,153,63588,5,0,1:0:0:0:
323,173,63742,2,0,P|345:134|335:68,1,88.0000030133723,0|8,1:0|0:0,0:0:0:0:
106,192,64050,102,0,P|150:194|205:222,1,88.0000030133723,4|0,1:2|0:0,0:0:0:0:
315,297,64357,1,0,1:0:0:0:
266,231,64511,1,8,0:0:0:0:
235,306,64665,1,0,0:0:0:0:
129,88,64819,5,4,1:2:0:0:
186,240,64973,1,0,0:0:0:0:
288,120,65127,1,12,0:0:0:0:
289,344,65434,102,0,P|267:276|272:200,1,120.000005024671,4|0,1:0|0:0,0:0:0:0:
481,195,65742,2,0,P|503:263|498:339,1,120.000005024671,8|0,0:0|0:0,0:0:0:0:
202,184,66050,5,0,1:0:0:0:
230,21,66204,1,0,1:0:0:0:
263,110,66357,101,8,0:0:0:0:
170,94,66511,2,0,P|149:59|140:2,1,88.0000030133723,4|0,1:2|0:0,0:0:0:0:
97,266,66819,5,0,1:0:0:0:
177,250,66973,2,0,P|199:201|201:170,1,71.9999980709551,8|0,0:0|0:0,0:0:0:0:
315,332,67280,101,14,0:1:0:0:
123,189,67434,1,0,1:0:0:0:
6,368,67588,1,14,0:1:0:0:
32,291,67896,5,0,1:0:0:0:
86,352,68050,1,0,1:0:0:0:
158,319,68204,2,0,P|176:257|177:215,1,71.9999980709551,12|0,0:0|0:0,0:0:0:0:
199,172,68511,102,0,P|146:171|108:208,1,108.000000814318,4|0,1:2|1:0,0:0:0:0:
255,232,68819,5,8,0:0:0:0:
31,197,68973,2,0,P|10:140|10:61,1,120.000005024671,4|0,1:0|0:0,0:0:0:0:
201,61,69280,1,0,1:0:0:0:
188,141,69434,1,8,0:0:0:0:
123,90,69588,101,0,0:0:0:0:
265,116,69742,2,0,P|284:80|272:19,1,88.0000030133723,4|0,1:2|0:0,0:0:0:0:
138,8,70050,2,0,P|119:44|131:105,1,88.0000030133723,12|0,0:2|0:0,0:0:0:0:
26,311,70357,6,0,P|116:259|248:266,1,223.999993998527,4|8,1:0|0:0,0:0:0:0:
215,29,70819,2,0,P|214:133|142:244,1,223.999993998527,4|0,1:2|1:0,0:0:0:0:
363,336,71280,102,0,P|272:283|214:167,1,227.999994761109,12|0,0:1|1:0,0:0:0:0:
201,259,71896,2,0,L|192:305,3,37.9999991268515,8|0|0|0,0:0|0:0|0:0|0:0,0:0:0:0:
233,98,72204,5,12,0:1:0:0:
171,376,72357,1,8,0:0:0:0:
497,321,72819,101,4,1:0:0:0:
314,304,72973,1,0,0:0:0:0:
497,321,73127,2,0,P|426:320|369:352,1,120.000000447034,10|0,0:0|0:0,0:0:0:0:
379,257,73434,5,2,1:2:0:0:
318,382,73588,2,0,P|277:374|241:329,1,80.000000298023,2|8,1:2|0:0,0:0:0:0:
241,271,73896,2,0,L|228:179,1,80.000000298023,2|0,0:0|1:0,0:0:0:0:
41,43,74204,1,2,0:0:0:0:
214,115,74357,2,0,P|159:91|99:95,1,120.000000447034,10|0,0:0|0:0,0:0:0:0:
27,121,74665,101,2,1:0:0:0:
27,121,74973,1,10,0:1:0:0:
15,321,75280,5,6,1:2:0:0:
198,304,75434,1,2,0:0:0:0:
15,321,75588,2,0,P|86:320|143:352,1,120.000000447034,10|0,0:0|0:0,0:0:0:0:
133,257,75896,101,2,1:2:0:0:
194,382,76050,2,0,P|235:374|271:329,1,80.000000298023,2|8,1:2|0:0,0:0:0:0:
427,254,76357,1,2,0:0:0:0:
284,191,76511,5,0,1:0:0:0:
272,273,76665,2,0,L|370:262,1,80.000000298023,2|8,0:0|0:0,0:0:0:0:
461,38,76973,101,2,0:0:0:0:
475,115,77127,2,0,L|408:108,1,47.9999987139701,0|0,1:0|0:0,0:0:0:0:
356,144,77434,6,0,P|319:79|224:73,1,155.999993440032,12|0,0:1|0:0,0:0:0:0:
235,71,77742,102,0,L|220:167,1,80.000000298023,6|0,1:2|0:0,0:0:0:0:
5,248,78050,2,0,P|37:197|102:194,1,120.000000447034,10|0,0:0|0:0,0:0:0:0:
148,133,78357,5,2,1:2:0:0:
169,209,78511,2,0,P|206:225|264:225,1,80.000000298023,2|8,1:2|0:0,0:0:0:0:
321,207,78819,2,0,L|310:114,1,80.000000298023,2|0,0:0|1:0,0:0:0:0:
326,370,79127,1,2,0:0:0:0:
483,281,79280,2,0,P|407:285|352:334,1,120.000000447034,10|0,0:0|0:0,0:0:0:0:
326,370,79588,102,0,P|298:328|306:272,1,95.9999974279402,2|0,1:0|0:0,0:0:0:0:
444,333,79896,2,0,P|445:285|418:247,1,95.9999974279402,10|0,0:1|0:0,0:0:0:0:
275,46,80204,54,0,L|256:148,1,80.000000298023,4|0,1:2|0:0,0:0:0:0:
198,216,80512,5,2,0:0:0:0:
198,216,80666,2,0,L|185:147,1,64.0000002384184,0|0,1:0|0:0,0:0:0:0:
123,70,80973,22,0,L|113:125,1,47.9999987139701,0|0,1:0|0:0,0:0:0:0:
21,182,81281,69,2,1:2:0:0:
21,182,81589,2,0,P|47:178|82:157,1,40.0000001490115,0|0,1:0|0:0,0:0:0:0:
1,105,81743,2,0,P|20:98|40:98,1,40.0000001490115,8|0,0:0|0:0,0:0:0:0:
204,340,81896,53,0,1:0:0:0:
204,340,81973,1,0,1:0:0:0:
204,340,82050,2,0,P|152:342|107:317,1,103.999995626688,12|0,0:0|0:0,0:0:0:0:
231,218,82358,2,0,P|186:192|135:196,1,103.999995626688,12|0,0:0|0:0,0:0:0:0:
443,354,82665,5,4,1:0:0:0:
443,354,82819,2,0,P|453:317|456:279,1,75.999998253703,0|8,0:0|0:0,0:0:0:0:
371,179,83127,1,0,0:0:0:0:
511,226,83280,101,2,1:0:0:0:
511,226,83434,2,0,P|474:203|430:211,1,75.999998253703,2|8,1:0|0:0,0:0:0:0:
379,256,83742,1,0,0:0:0:0:
260,32,83896,5,4,1:2:0:0:
260,32,84050,2,0,P|278:73|286:125,1,92.0000020974872,0|8,0:0|0:0,0:0:0:0:
192,233,84357,1,0,0:0:0:0:
352,175,84511,102,0,P|316:204|246:187,1,92.0000020974872,2|0,1:0|0:0,0:0:0:0:
128,126,84819,2,0,P|178:124|216:169,1,92.0000020974872,10|0,0:1|0:0,0:0:0:0:
425,299,85127,5,4,1:2:0:0:
425,299,85280,1,0,0:0:0:0:
351,273,85434,1,8,0:0:0:0:
291,322,85588,1,0,0:0:0:0:
211,314,85742,101,2,1:0:0:0:
364,350,85896,1,0,1:1:0:0:
258,249,86050,1,8,0:1:0:0:
134,327,86204,2,0,P|90:323|50:302,1,80.000000298023,2|0,0:1|1:0,0:0:0:0:
88,191,86511,2,0,P|132:195|172:216,1,80.000000298023,2|8,0:1|0:1,0:0:0:0:
200,280,86819,5,0,0:0:0:0:
20,237,86973,1,4,1:2:0:0:
20,237,87280,2,0,P|40:164|41:89,1,150.000000558793,12|0,0:1|0:0,0:0:0:0:
21,14,87588,101,4,1:2:0:0:
21,14,87742,2,0,P|70:17|105:37,1,75.999998253703,0|8,0:0|0:0,0:0:0:0:
127,162,88050,1,0,0:0:0:0:
172,20,88204,5,2,1:0:0:0:
172,20,88357,2,0,P|171:57|148:86,1,75.999998253703,2|8,1:0|0:0,0:0:0:0:
71,104,88665,1,0,0:0:0:0:
210,144,88819,101,4,1:2:0:0:
210,144,88973,2,0,P|259:141|294:121,1,75.999998253703,0|8,0:0|0:0,0:0:0:0:
310,53,89280,1,0,0:0:0:0:
470,154,89434,2,2,P|436:125|347:121,1,113.999997380554,2|0,1:1|0:0,0:1:0:0:
359,119,89742,1,8,0:1:0:0:
308,357,89896,5,0,0:0:0:0:
235,328,90050,2,0,P|294:223|406:197,2,232.000007944345,14|10|10,0:1|0:1|0:1,0:0:0:0:
87,214,90973,101,0,1:0:0:0:
167,360,91127,2,0,P|103:343|71:300,1,120.000000447034,12|0,0:0|0:0,0:0:0:0:
70,292,91434,5,0,1:0:0:0:
166,228,91588,1,8,0:0:0:0:
145,271,91742,1,0,1:0:0:0:
166,196,91896,1,8,0:0:0:0:
233,254,92050,37,0,1:0:0:0:
225,260,92127,1,0,1:0:0:0:
221,251,92204,2,0,P|199:130|205:13,1,240.000010049343,12|4,0:1|1:2,0:0:0:0:
462,220,92665,101,2,0:0:0:0:
478,143,92819,5,8,0:0:0:0:
306,183,92973,1,2,0:0:0:0:
287,329,93127,101,0,1:0:0:0:
186,315,93280,1,2,1:2:0:0:
326,259,93434,5,8,0:0:0:0:
176,237,93588,1,2,0:0:0:0:
134,103,93742,101,0,1:0:0:0:
59,121,93896,2,0,P|43:145|38:177,2,40.0000001490115,2|0|8,0:0|0:0|0:0,0:0:0:0:
82,46,94204,5,2,0:0:0:0:
113,176,94357,1,0,1:0:0:0:
35,307,94511,101,2,0:0:0:0:
57,232,94665,1,8,0:0:0:0:
132,252,94819,2,0,P|148:280|148:313,2,40.0000001490115,2|0|0,0:0|0:0|1:0,0:0:0:0:
280,95,95127,5,2,0:0:0:0:
354,151,95280,101,8,0:0:0:0:
367,79,95434,1,2,0:0:0:0:
200,134,95588,5,0,1:0:0:0:
255,182,95742,1,2,0:0:0:0:
285,7,95896,101,8,0:0:0:0:
215,31,96050,1,2,0:0:0:0:
271,79,96204,1,0,1:0:0:0:
256,43,96357,5,2,0:0:0:0:
212,129,96511,2,0,P|263:157|302:146,1,80.000000298023,8|2,0:0|0:0,0:0:0:0:
457,159,96819,1,0,1:2:0:0:
420,93,96973,2,0,P|365:98|331:115,1,80.000000298023,2|8,0:0|0:0,0:0:0:0:
210,230,97280,1,2,0:0:0:0:
171,222,97357,1,2,0:0:0:0:
168,211,97434,101,4,1:0:0:0:
143,75,97588,1,2,0:0:0:0:
81,318,97742,5,8,0:0:0:0:
92,240,97896,1,2,0:0:0:0:
155,288,98050,101,0,1:0:0:0:
19,267,98204,1,10,0:0:0:0:
48,132,98357,2,0,P|67:127|83:126,1,32.0000001192092,12|0,0:0|1:0,0:0:0:0:
143,75,98819,5,2,0:0:0:0:
159,151,98973,1,8,0:0:0:0:
237,140,99127,1,2,0:0:0:0:
282,329,99280,101,0,1:0:0:0:
299,190,99434,1,10,0:0:0:0:
442,215,99588,2,0,P|449:233|453:251,1,32.0000001192092,12|0,0:1|1:0,0:0:0:0:
506,165,100050,5,2,0:0:0:0:
364,335,100204,2,0,P|371:268|386:223,1,80.000000298023,8|2,0:0|0:0,0:0:0:0:
305,216,100511,2,0,P|235:201|199:112,1,160.000000596046,0|8,1:0|0:0,0:0:0:0:
213,49,100973,1,2,0:0:0:0:
12,95,101127,102,0,P|0:57|0:17,1,80.000000298023,0|2,1:0|0:0,0:0:0:0:
120,0,101434,2,0,P|132:37|132:77,1,80.000000298023,8|2,0:0|0:0,0:0:0:0:
197,126,101742,2,0,P|136:129|89:235,1,160.000000596046,0|8,1:0|0:0,0:0:0:0:
221,359,102204,1,2,0:0:0:0:
219,368,102280,1,2,0:0:0:0:
198,384,102357,37,12,0:0:0:0:
171,207,102511,1,0,0:0:0:0:
280,369,102665,53,12,0:0:0:0:
253,192,102819,1,0,0:0:0:0:
360,353,102973,53,12,0:0:0:0:
333,176,103127,1,0,0:0:0:0:
442,338,103280,53,12,0:0:0:0:
415,161,103435,1,2,0:0:0:0:
417,151,103511,1,2,0:0:0:0:
438,132,103588,70,0,P|393:45|256:47,1,239.99999356985,4|2,1:0|0:0,0:0:0:0:
98,313,104511,1,8,0:0:0:0:
96,304,104588,1,8,0:0:0:0:
94,296,104665,1,8,0:0:0:0:
92,288,104742,1,8,0:0:0:0:
91,281,104819,102,0,P|135:263|237:267,1,128.000000476837,4|0,1:0|0:0,0:0:0:0:
61,40,105127,2,0,P|125:41|185:19,1,128.000000476837,8|0,0:0|0:0,0:0:0:0:
427,243,105434,53,0,1:0:0:0:
420,162,105588,2,0,P|374:129|320:138,1,100.000000372529,0|8,1:0|0:0,0:0:0:0:
317,353,105896,54,0,P|321:260|368:191,1,150.000000558793,4|0,1:2|0:0,0:0:0:0:
355,207,106204,1,0,1:0:0:0:
269,183,106357,2,0,P|239:134|259:73,1,100.000000372529,8|0,0:0|0:0,0:0:0:0:
11,363,106665,54,0,P|69:267|171:278,1,200.000000745057,4|8,1:2|0:0,0:0:0:0:
456,359,107127,1,0,1:0:0:0:
456,359,107204,1,0,1:0:0:0:
456,359,107281,2,0,P|452:282|472:228,1,128.000000476837,4|0,1:0|0:0,0:0:0:0:
208,337,107589,2,0,P|226:276|221:213,1,128.000000476837,8|0,0:0|0:0,0:0:0:0:
357,31,107896,53,0,1:0:0:0:
325,140,108050,2,0,P|362:178|441:157,1,100.000000372529,0|8,1:0|0:0,0:0:0:0:
489,81,108357,2,0,P|432:82|388:105,1,100.000000372529,4|0,1:2|0:0,0:0:0:0:
97,154,108665,53,0,1:0:0:0:
198,30,108818,1,8,0:0:0:0:
254,179,108972,1,0,0:0:0:0:
183,121,109127,1,0,1:2:0:0:
435,315,109434,53,12,0:0:0:0:
497,214,109588,1,0,1:0:0:0:
464,225,109665,1,0,1:0:0:0:
455,238,109742,1,4,1:0:0:0:
381,256,109896,53,2,0:0:0:0:
488,382,110050,2,0,P|513:347|504:274,1,100.000000372529,8|2,0:0|0:0,0:0:0:0:
260,220,110357,53,0,1:0:0:0:
289,37,110511,1,2,0:0:0:0:
240,113,110665,1,8,0:0:0:0:
366,21,110819,2,0,P|421:43|481:41,1,100.000000372529,2|0,0:0|1:0,0:0:0:0:
408,254,111127,53,2,0:0:0:0:
510,132,111280,2,0,P|427:130|339:214,1,200.000000745057,8|0,0:0|1:0,0:0:0:0:
204,168,111742,1,2,0:0:0:0:
350,382,111896,2,0,P|345:331|326:280,1,100.000000372529,12|0,0:0|0:0,0:0:0:0:
319,278,112127,1,0,0:0:0:0:
368,286,112204,53,14,0:1:0:0:
0,165,112511,53,14,0:1:0:0:
425,0,112819,5,6,1:0:0:0:
405,76,112973,1,0,1:2:0:0:
350,21,113127,1,8,0:0:0:0:
428,151,113280,1,4,1:2:0:0:
481,94,113588,101,0,1:0:0:0:
413,227,113742,1,8,0:0:0:0:
447,370,113896,1,0,1:0:0:0:
469,378,113973,1,4,0:3:0:0:
454,362,114050,53,12,0:0:0:0:
403,305,114204,1,0,1:0:0:0:
328,288,114357,1,8,0:0:0:0:
323,298,114433,1,8,0:0:0:0:
319,309,114510,1,8,0:0:0:0:
318,321,114587,1,8,0:0:0:0:
241,340,114665,54,0,P|249:271|299:207,1,128.000000476837,4|0,1:0|0:0,0:0:0:0:
0,267,114973,2,0,P|33:212|39:149,1,128.000000476837,10|0,0:0|0:0,0:0:0:0:
357,57,115280,53,2,1:2:0:0:
226,109,115434,2,0,P|197:69|204:9,1,100.000000372529,0|10,0:0|0:0,0:0:0:0:
306,124,115742,54,0,P|302:151|293:181,2,50.0000001862644,4|0|2,1:2|0:0|0:2,0:0:0:0:
276,46,116050,1,0,0:0:0:0:
381,165,116204,1,10,0:0:0:0:
234,227,116357,1,0,0:0:0:0:
457,349,116511,54,0,P|383:253|294:261,1,200.000000745057,6|14,1:2|0:0,0:0:0:0:
161,68,116973,1,0,0:0:0:0:
125,229,117127,54,0,P|93:164|98:88,1,128.000000476837,6|0,1:2|0:0,0:0:0:0:
381,165,117434,2,0,P|378:101|348:45,1,128.000000476837,10|0,0:0|0:0,0:0:0:0:
201,292,117742,53,2,1:2:0:0:
214,196,117896,1,0,1:0:0:0:
272,357,118050,1,10,0:0:0:0:
108,323,118204,2,0,P|83:327|42:350,2,50.0000001862644,4|0|2,1:2|0:0|0:2,0:0:0:0:
273,146,118511,53,0,0:0:0:0:
214,196,118665,1,14,0:0:0:0:
255,72,118819,1,0,0:0:0:0:
345,173,118973,1,6,1:2:0:0:
345,173,119280,54,0,P|425:164|517:249,1,192.000000715255,12|0,0:1|0:0,0:0:0:0:
382,362,119588,69,4,1:2:0:0:
382,362,119742,2,0,L|394:268,1,75.999998253703,0|8,0:0|0:0,0:0:0:0:
459,373,120050,2,0,L|471:279,1,75.999998253703,0|0,1:0|0:0,0:0:0:0:
442,224,120357,1,0,1:0:0:0:
234,140,120511,101,4,1:2:0:0:
234,140,120665,2,0,L|250:252,1,100.000000372529,0|8,0:0|0:0,0:0:0:0:
318,128,120973,2,0,L|334:240,1,100.000000372529,0|0,1:0|0:0,0:0:0:0:
304,307,121280,1,0,1:0:0:0:
36,359,121434,54,0,P|37:283|70:221,1,124.000001407981,4|0,1:2|0:0,0:0:0:0:
202,382,121742,2,0,P|224:324|221:262,1,124.000001407981,12|0,0:0|0:0,0:0:0:0:
221,262,121973,1,0,1:0:0:0:
221,262,122050,53,4,1:0:0:0:
296,238,122204,1,0,0:0:0:0:
160,208,122357,53,12,0:0:0:0:
139,333,122511,1,0,0:0:0:0:
234,186,122665,53,12,0:0:0:0:
80,74,122819,1,0,0:0:0:0:
221,262,122973,53,8,0:0:0:0:
483,183,123127,2,0,P|499:119|494:49,1,128.000000476837,4|0,1:0|0:0,0:0:0:0:
512,328,123434,54,0,P|505:285|485:260,1,64.0000002384184,0|0,1:0|0:0,0:0:0:0:
417,237,123588,1,8,0:0:0:0:
356,281,123742,1,4,0:3:0:0:
348,308,123896,2,0,P|386:319|426:321,1,80.000000298023,0|0,1:0|0:0,0:0:0:0:
191,119,124204,6,0,P|106:127|23:179,1,155.999993440032,12|0,0:0|0:0,0:0:0:0:
40,169,124511,53,4,1:0:0:0:
28,82,124665,2,0,P|77:86|113:120,1,80.000000298023,0|8,1:0|0:0,0:0:0:0:
151,267,124973,86,0,P|150:195|197:112,1,160.000000596046,4|0,1:2|1:0,0:0:0:0:
190,118,125434,1,8,0:0:0:0:
237,42,125588,102,0,P|277:92|269:159,1,103.999995626688,4|0,1:2|0:0,0:0:0:0:
144,191,125896,2,0,P|103:140|111:73,1,103.999995626688,0|8,1:0|0:0,0:0:0:0:
147,7,126511,101,0,1:0:0:0:
149,20,126665,2,0,L|155:50,1,23.999999356985,12|0,0:0|0:0,0:0:0:0:
40,169,126973,53,4,1:0:0:0:
28,82,127127,2,0,P|77:86|113:120,1,80.000000298023,0|8,1:0|0:0,0:0:0:0:
151,267,127434,86,0,P|150:195|197:112,1,160.000000596046,4|0,1:2|1:0,0:0:0:0:
190,118,127896,1,8,0:0:0:0:
467,191,128050,38,0,P|415:171|290:310,1,256.000000953674,4|0,1:0|1:0,0:0:0:0:
329,359,128511,1,8,0:0:0:0:
147,7,128973,37,0,1:0:0:0:
149,20,129127,2,0,L|155:50,1,23.999999356985,12|0,0:0|0:0,0:0:0:0:
40,169,129434,53,4,1:0:0:0:
28,82,129588,2,0,P|77:86|113:120,1,80.000000298023,0|8,1:0|0:0,0:0:0:0:
151,267,129896,86,0,P|150:195|197:112,1,160.000000596046,4|0,1:2|1:0,0:0:0:0:
190,118,130357,1,8,0:0:0:0:
237,42,130511,102,0,P|277:92|269:159,1,103.999995626688,4|0,1:2|0:0,0:0:0:0:
144,191,130819,2,0,P|103:140|111:73,1,103.999995626688,0|8,1:0|0:0,0:0:0:0:
467,191,131127,54,0,P|415:171|290:310,1,256.000000953674,4|0,1:2|1:0,0:0:0:0:
57,297,131588,6,0,P|181:274|339:374,1,303.999993014812,12|4,0:1|1:2,0:0:0:0:
401,322,132050,21,0,1:3:0:0:
401,322,132127,1,0,1:3:0:0:
401,322,132204,2,0,P|419:296|420:258,1,47.9999987139701,0|0,1:0|0:3,0:3:0:0:
493,241,132357,101,0,1:3:0:0:
493,241,132434,1,0,1:3:0:0:
493,241,132511,2,0,P|494:207|479:176,1,68.0000015503166,8|0,0:0|0:3,0:3:0:0:
341,138,132665,2,0,P|369:156|403:158,1,68.0000015503166,0|0,1:0|0:3,0:3:0:0:
507,56,132819,2,0,P|477:71|458:99,1,68.0000015503166,0|0,1:0|0:3,0:3:0:0:
355,237,132973,54,0,P|303:131|187:131,1,204.00000465095,12|0,0:1|0:0,0:0:0:0:
220,122,133280,1,0,1:0:0:0:
229,41,133434,53,8,0:0:0:0:
206,111,133510,5,8,0:3:0:0:
151,160,133587,101,4,0:3:0:0:
78,173,133664,5,0,1:0:0:0:
9,147,133742,38,0,L|25:8,1,136.000003100633,12|0,0:1|0:0,0:0:0:0:
314,180,134050,2,0,L|330:41,1,136.000003100633,12|0,0:1|0:0,0:0:0:0:
109,358,134357,86,0,L|91:252,1,103.999995626688,12|0,3:1|0:0,0:0:0:0:
78,173,134665,37,8,3:2:0:0:
299,259,134819,1,0,0:0:0:0:
185,57,134973,69,8,3:2:0:0:
152,209,135127,1,0,0:0:0:0:
253,124,135280,37,8,3:2:0:0:
177,135,135434,1,2,0:0:0:0:
177,135,135511,1,2,0:0:0:0:
177,135,135588,1,12,3:2:0:0:
225,198,135742,69,0,0:0:0:0:
330,115,135896,1,8,3:2:0:0:
204,61,136050,1,0,0:0:0:0:
99,147,136204,21,10,3:1:0:0:
99,147,136511,1,10,3:1:0:0:
99,147,136819,2,0,P|170:153|228:182,1,103.999995626688,14|0,3:1|0:0,0:0:0:0:
272,203,137127,5,8,3:2:0:0:
320,0,137280,1,0,0:0:0:0:
391,185,137434,69,8,3:2:0:0:
347,74,137588,1,0,0:0:0:0:
509,114,137742,37,8,3:2:0:0:
433,97,137896,1,2,0:0:0:0:
433,97,137973,1,2,0:0:0:0:
433,97,138050,1,12,3:2:0:0:
454,172,138204,1,0,0:0:0:0:
486,37,138357,69,8,3:2:0:0:
380,158,138511,1,0,0:0:0:0:
409,318,138665,1,14,3:2:0:0:
409,318,138973,22,0,L|542:298,1,103.999995626688,14|0,3:1|0:0,0:0:0:0:
80,190,139280,85,12,3:1:0:0:
210,227,139434,1,0,0:0:0:0:
190,300,139588,37,8,3:2:0:0:
81,14,139742,69,2,0:0:0:0:
81,14,139819,1,2,0:0:0:0:
81,14,139896,1,8,3:2:0:0:
136,245,140050,1,0,0:0:0:0:
285,205,140204,37,8,3:2:0:0:
154,170,140357,1,0,0:0:0:0:
59,268,140511,1,14,3:2:0:0:
59,268,140819,102,0,L|47:377,1,103.999995626688,14|0,3:1|0:0,0:0:0:0:
415,163,141127,5,12,3:2:0:0:
415,163,141434,102,0,L|390:11,1,143.99999614191,14|0,3:1|0:0,0:0:0:0:
490,192,141742,85,12,3:1:0:0:
439,321,141896,1,0,0:0:0:0:
428,242,142050,37,8,3:2:0:0:
507,276,142204,1,2,0:0:0:0:
507,276,142280,1,2,0:0:0:0:
507,276,142357,69,8,3:2:0:0:
365,294,142511,1,0,0:0:0:0:
375,372,142665,37,8,3:2:0:0:
269,357,142819,1,2,0:0:0:0:
269,357,142896,1,2,0:0:0:0:
269,357,142973,2,0,P|292:264|297:148,1,207.999991253376,12|10,3:2|3:2,0:0:0:0:
361,100,143434,69,2,0:0:0:0:
324,68,143511,1,2,0:0:0:0:
275,74,143588,1,8,3:2:0:0:
220,137,143742,1,0,0:0:0:0:
143,120,143896,2,0,P|117:71|138:6,1,103.999995626688,12|0,3:2|0:0,0:0:0:0:
379,113,144204,54,0,P|297:61|180:65,1,200.000000745057,4|8,1:0|0:0,0:0:0:0:
124,24,144665,1,0,0:0:0:0:
166,199,144819,2,0,P|135:226|75:224,1,100.000000372529,0|0,1:2|1:0,0:0:0:0:
135,122,145127,5,8,0:0:0:0:
220,137,145280,1,0,0:0:0:0:
220,137,145357,1,0,0:0:0:0:
220,137,145434,2,0,P|243:184|239:256,1,100.000000372529,4|0,1:2|0:0,0:0:0:0:
312,378,145742,2,0,P|332:303|458:272,1,200.000000745057,8|0,0:0|1:0,0:0:0:0:
472,340,146204,21,0,1:0:0:0:
508,219,146357,2,0,P|455:184|407:188,1,100.000000372529,8|0,0:0|0:0,0:0:0:0:
281,11,146665,69,4,1:0:0:0:
310,148,146819,1,0,0:0:0:0:
334,73,146973,1,8,0:0:0:0:
256,88,147127,1,0,0:0:0:0:
256,88,147280,2,0,P|203:84|146:64,1,100.000000372529,0|0,1:0|1:0,0:0:0:0:
119,341,147588,5,8,0:0:0:0:
72,272,147742,1,0,0:0:0:0:
72,272,147819,1,0,0:0:0:0:
72,272,147896,2,0,P|134:199|262:222,1,200.000000745057,4|8,1:2|0:0,0:0:0:0:
443,238,148357,2,0,P|455:264|455:296,2,50.0000001862644,2|0|0,0:0|0:0|1:0,0:0:0:0:
311,179,148665,21,0,1:0:0:0:
289,258,148819,2,0,P|355:292|402:273,1,100.000000372529,8|0,0:0|0:0,0:0:0:0:
507,183,149050,1,0,0:0:0:0:
507,183,149127,38,0,P|442:170|348:219,1,167.999995498895,12|0,0:1|0:0,0:0:0:0:
322,7,149434,2,0,P|330:100|278:174,1,167.999995498895,12|0,0:0|0:0,0:0:0:0:
452,335,149742,86,0,P|473:260|404:300,1,167.999995498895,12|0,0:0|0:0,0:0:0:0:
215,154,150050,2,0,P|185:89|256:87,1,167.999995498895,12|0,0:0|0:0,0:0:0:0:
328,358,150357,22,0,P|272:322|166:317,1,167.999995498895,12|0,0:0|0:0,0:0:0:0:
189,230,150665,86,0,P|242:187|310:198,1,140.000001856684,12|0,0:0|0:0,0:0:0:0:
168,97,150973,22,0,P|130:120|142:183,1,100.000000372529,12|0,0:0|0:0,0:0:0:0:
50,193,151280,86,0,P|20:194|4:168,1,64.0000002384184,12|0,0:0|0:0,0:0:0:0:
377,37,151588,21,12,0:1:0:0:
357,227,151742,1,8,0:0:0:0:
290,187,152050,85,8,0:0:0:0:
217,201,152357,37,8,0:0:0:0:
155,157,152665,101,8,0:0:0:0:
135,347,152819,2,0,L|71:355,1,64.0000002384184,4|4,1:0|0:1,0:0:0:0:
0,252,158973,101,4,1:2:0:0:
38,320,159127,1,2,0:0:0:0:
38,320,159280,2,0,P|75:314|125:297,1,71.9999980709551,2|0,1:2|0:0,0:0:0:0:
188,327,159588,21,2,1:2:0:0:
169,244,159742,1,0,0:0:0:0:
206,181,159896,1,0,1:0:0:0:
253,170,160050,2,0,P|289:183|342:187,1,71.9999980709551,2|0,0:0|0:0,0:0:0:0:
348,313,160357,1,0,0:0:0:0:
450,229,160511,2,0,P|402:233|365:253,1,71.9999980709551,2|0,1:2|0:0,0:0:0:0:
348,313,160819,2,0,L|362:399,1,71.9999980709551,2|0,0:0|0:0,0:0:0:0:
512,107,161127,101,8,0:0:0:0:
459,127,161203,1,8,0:0:0:0:
405,116,161280,1,8,0:0:0:0:
367,76,161357,1,8,0:0:0:0:
358,20,161434,1,14,0:1:0:0:
12,179,161742,53,14,0:1:0:0:
458,324,162050,5,6,1:0:0:0:
363,261,162204,1,0,0:0:0:0:
379,339,162357,1,8,0:0:0:0:
441,246,162511,1,4,1:2:0:0:
379,339,162819,101,0,1:0:0:0:
251,184,162973,1,12,0:0:0:0:
240,326,163127,1,0,1:0:0:0:
390,197,163280,1,12,0:0:0:0:
314,263,163434,53,0,0:0:0:0:
208,46,163588,1,8,0:0:0:0:
245,22,163664,1,8,0:0:0:0:
284,39,163741,1,8,0:0:0:0:
292,81,163818,1,8,0:0:0:0:
261,111,163896,2,0,P|170:83|96:110,1,128.000000476837,4|0,1:0|0:0,0:0:0:0:
225,339,164204,2,0,P|161:342|103:316,1,128.000000476837,10|0,0:0|0:0,0:0:0:0:
465,205,164511,53,2,1:2:0:0:
337,148,164665,2,0,P|298:205|304:250,1,100.000000372529,0|10,1:0|0:0,0:0:0:0:
390,317,164973,54,0,P|386:241|360:195,1,100.000000372529,4|2,1:2|0:0,0:0:0:0:
220,145,165280,1,0,1:0:0:0:
183,217,165434,2,0,P|132:210|90:186,1,75.999998253703,10|0,0:0|0:0,0:0:0:0:
351,56,165742,54,0,P|282:58|247:76,1,100.000000372529,6|0,1:2|0:0,0:0:0:0:
33,174,166050,1,14,0:0:0:0:
96,119,166204,1,0,0:0:0:0:
96,119,166280,1,0,0:0:0:0:
96,119,166357,54,0,P|122:208|111:284,1,128.000000476837,6|0,1:2|0:0,0:0:0:0:
336,71,166665,2,0,P|338:134|360:194,1,128.000000476837,10|0,0:0|0:0,0:0:0:0:
151,321,166973,53,2,1:2:0:0:
199,211,167127,2,0,P|274:220|291:238,1,100.000000372529,0|10,0:0|0:0,0:0:0:0:
201,383,167434,2,0,P|208:326|230:277,1,100.000000372529,4|2,1:2|0:2,0:0:0:0:
301,317,167742,53,0,0:0:0:0:
354,181,167896,2,0,P|344:126|326:91,1,75.999998253703,10|0,0:0|0:0,0:0:0:0:
512,350,168204,53,6,1:2:0:0:
512,350,168511,2,0,P|445:264|336:276,1,192.000000715255,12|0,0:1|0:0,0:0:0:0:
286,350,168819,5,4,1:2:0:0:
286,350,168973,2,0,L|296:258,1,75.999998253703,0|8,0:0|0:0,0:0:0:0:
429,366,169280,2,0,L|439:274,1,75.999998253703,0|0,1:0|0:0,0:0:0:0:
368,260,169588,1,0,1:0:0:0:
152,119,169742,101,4,1:2:0:0:
152,119,169896,2,0,L|165:229,1,100.000000372529,0|8,0:0|0:0,0:0:0:0:
305,104,170204,2,0,L|318:214,1,100.000000372529,0|0,1:0|0:0,0:0:0:0:
243,231,170511,1,0,1:0:0:0:
0,366,170665,54,0,P|7:264|43:207,1,124.000001407981,4|0,1:2|0:0,0:0:0:0:
151,383,170973,2,0,P|169:324|166:262,1,124.000001407981,12|0,0:2|0:0,0:0:0:0:
166,262,171204,1,0,1:0:0:0:
166,262,171280,69,4,1:0:0:0:
186,189,171434,1,4,0:3:0:0:
256,161,171588,1,8,0:0:0:0:
329,187,171742,1,4,0:3:0:0:
359,259,171896,1,8,0:0:0:0:
431,283,172050,1,8,0:3:0:0:
499,243,172204,1,4,0:3:0:0:
507,168,172357,2,0,L|478:161,1,23.999999356985,4|0,1:2|0:0,0:0:0:0:
429,99,172665,38,0,P|399:134|440:185,1,75.999998253703,12|0,0:0|0:0,0:0:0:0:
348,222,172819,54,0,P|346:246|367:270,1,51.999997813344,12|0,0:0|0:0,0:0:0:0:
512,308,172973,5,4,0:3:0:0:
421,323,173127,54,0,P|440:282|439:245,1,71.9999980709551,0|0,1:0|0:0,0:0:0:0:
80,37,173434,70,0,P|61:78|62:115,1,71.9999980709551,14|0,0:1|0:0,0:0:0:0:
60,104,173665,1,0,0:0:0:0:
60,104,173742,22,0,P|151:74|238:93,1,143.99999614191,4|0,1:0|0:0,0:0:0:0:
111,357,174050,2,0,P|182:358|248:331,1,143.99999614191,8|0,0:0|0:0,0:0:0:0:
447,105,174357,53,0,1:0:0:0:
278,52,174511,2,0,P|239:103|247:160,1,111.999996999264,0|8,1:0|0:0,0:0:0:0:
470,187,174819,54,0,P|414:127|323:123,1,167.999995498895,4|0,1:2|0:0,0:0:0:0:
323,126,175127,1,0,1:0:0:0:
161,70,175280,2,0,P|124:107|50:101,1,111.999996999264,8|0,0:0|0:0,0:0:0:0:
181,332,175588,54,0,P|192:264|220:221,1,111.999996999264,4|0,1:2|0:0,0:0:0:0:
301,216,175896,1,8,0:0:0:0:
402,336,176050,1,0,1:0:0:0:
402,336,176127,1,0,1:0:0:0:
402,336,176204,54,0,P|336:303|236:312,1,143.99999614191,4|0,1:0|0:0,0:0:0:0:
463,41,176511,2,0,P|391:39|328:7,1,143.99999614191,8|0,0:0|0:0,0:0:0:0:
83,240,176819,53,0,1:0:0:0:
116,81,176973,1,0,1:0:0:0:
143,170,177127,1,8,0:0:0:0:
54,151,177280,2,0,P|30:81|39:11,1,111.999996999264,4|0,1:2|0:0,0:0:0:0:
299,350,177588,53,0,1:0:0:0:
143,170,177742,1,8,0:0:0:0:
68,382,177896,1,0,1:0:0:0:
167,300,178050,1,0,1:0:0:0:
401,58,178357,53,12,0:0:0:0:
509,132,178511,1,0,1:0:0:0:
497,92,178588,1,0,1:0:0:0:
482,77,178665,1,4,1:0:0:0:
460,1,178819,53,2,0:0:0:0:
428,137,178973,1,8,0:0:0:0:
325,40,179127,1,2,0:0:0:0:
144,260,179280,53,0,1:0:0:0:
266,107,179434,1,2,0:0:0:0:
177,147,179588,1,8,0:0:0:0:
346,127,179742,2,0,P|367:162|374:200,2,55.9999984996318,6|0|0,0:0|0:0|1:0,0:0:0:0:
70,15,180050,53,2,0:0:0:0:
99,93,180204,1,8,0:0:0:0:
148,30,180357,1,2,0:0:0:0:
20,82,180511,2,0,P|2:148|8:205,1,111.999996999264,4|2,1:2|0:0,0:0:0:0:
84,212,180819,1,8,0:0:0:0:
7,301,180973,1,0,1:0:0:0:
3,290,181050,1,0,1:0:0:0:
23,267,181127,53,14,0:1:0:0:
304,215,181280,1,0,1:0:0:0:
112,372,181434,53,14,0:1:0:0:
208,102,181587,1,0,1:0:0:0:
246,347,181742,53,14,0:1:0:0:
60,128,181895,1,0,1:0:0:0:
112,188,182050,5,12,0:0:0:0:
133,115,182204,2,0,L|120:33,1,71.9999980709551,4|0,1:0|0:0,0:0:0:0:
60,0,182511,101,0,1:0:0:0:
191,171,182665,1,12,0:0:0:0:
142,351,182819,1,0,1:0:0:0:
92,356,182896,1,0,1:0:0:0:
140,335,182973,54,0,P|177:339|214:363,1,60.0000025123357,12|0,0:0|0:0,0:0:0:0:
23,299,183127,54,0,P|55:274|99:268,1,68.0000015503166,0|0,1:0|0:0,0:0:0:0:
269,381,183280,53,8,0:0:0:0:
274,364,183356,1,8,0:0:0:0:
276,348,183433,1,8,0:0:0:0:
274,331,183510,1,8,0:0:0:0:
218,272,183588,54,0,P|331:306|396:284,1,143.99999614191,4|0,1:0|0:0,0:0:0:0:
267,7,183896,2,0,P|338:5|402:36,1,143.99999614191,10|0,0:0|0:0,0:0:0:0:
53,267,184204,53,2,1:2:0:0:
165,214,184357,2,0,P|161:144|112:82,1,111.999996999264,0|10,1:0|0:0,0:0:0:0:
66,77,184665,54,0,P|32:92|6:94,2,55.9999984996318,4|0|2,1:2|0:0|0:0,0:0:0:0:
132,27,184973,1,0,1:0:0:0:
77,159,185127,1,14,0:0:0:0:
235,250,185280,53,0,0:0:0:0:
10,324,185434,2,0,P|112:207|194:229,1,223.999993998527,6|14,1:2|0:0,0:0:0:0:
446,52,185896,1,0,1:0:0:0:
446,52,185973,1,0,1:0:0:0:
446,52,186050,2,0,P|348:87|265:69,1,143.99999614191,6|0,1:2|0:0,0:0:0:0:
512,333,186357,2,0,P|440:334|375:365,1,143.99999614191,10|0,0:0|0:0,0:0:0:0:
237,118,186665,53,2,1:2:0:0:
359,151,186819,2,0,P|389:105|377:42,1,111.999996999264,0|10,1:0|0:0,0:0:0:0:
297,40,187127,1,6,1:2:0:0:
292,55,187204,1,2,0:0:0:0:
309,84,187280,53,2,0:2:0:0:
161,148,187433,1,0,1:0:0:0:
225,204,187588,53,10,0:0:0:0:
21,122,187742,1,0,0:0:0:0:
96,97,187896,53,6,1:2:0:0:
80,175,188050,1,0,1:0:0:0:
36,43,188204,1,12,0:1:0:0:
10,347,188511,69,4,1:2:0:0:
10,347,188665,2,0,L|27:239,1,95.9999974279402,0|8,0:0|0:0,0:0:0:0:
89,360,188973,2,0,L|106:252,1,95.9999974279402,0|0,1:0|0:0,0:0:0:0:
2,175,189280,1,0,1:0:0:0:
181,78,189434,101,4,1:2:0:0:
181,78,189588,2,0,L|198:216,1,128.000000476837,0|8,0:0|0:0,0:0:0:0:
277,66,189896,2,0,L|294:204,1,128.000000476837,0|0,1:0|0:0,0:0:0:0:
103,265,190204,1,0,1:0:0:0:
479,365,190357,54,0,P|504:274|498:203,1,147.999999986767,4|0,1:2|0:0,0:0:0:0:
271,337,190665,2,0,P|270:263|293:193,1,147.999999986767,12|0,0:2|0:0,0:0:0:0:
293,194,190896,1,0,1:0:0:0:
293,194,190973,53,4,1:0:0:0:
200,214,191127,1,0,0:0:0:0:
372,226,191280,53,12,0:0:0:0:
123,185,191434,1,0,0:0:0:0:
433,157,191588,53,12,0:0:0:0:
60,245,191742,1,0,0:0:0:0:
499,252,191896,53,8,0:0:0:0:
0,153,192050,2,0,P|17:52|52:-12,1,147.999999986767,4|0,1:0|0:0,0:0:0:0:
450,361,192357,54,0,P|439:312|418:279,1,73.9999999933837,0|0,1:0|0:0,0:0:0:0:
353,241,192511,1,8,0:0:0:0:
279,273,192665,1,4,0:3:0:0:
263,318,192819,1,0,1:0:0:0:
263,318,193127,6,0,P|327:347|376:352,1,111.999996999264,12|0,0:0|0:0,0:0:0:0:
417,168,193434,86,0,B|396:139|305:204|406:237|449:215|462:164|462:164|471:100|429:40|429:40|461:105|522:90,1,420.00001758635,4|2,1:0|0:0,0:0:0:0:
