osu file format v14

[General]
AudioFilename: audio.mp3
AudioLeadIn: 0
PreviewTime: 153588
Countdown: 0
SampleSet: Soft
StackLeniency: 0.7
Mode: 0
LetterboxInBreaks: 0
EpilepsyWarning: 1
WidescreenStoryboard: 1

[Editor]
DistanceSpacing: 1
BeatDivisor: 4
GridSize: 4
TimelineZoom: 1

[Metadata]
Title:Kanzen Shouri*Esper Girl
TitleUnicode:完全勝利☆エスパーガール
Artist:*namirin
ArtistUnicode:*namirin
Creator:Left
Version:Easy
Source:osu!
Tags:Mappers' Guild Island featured artist Affirmation
BeatmapID:2011464
BeatmapSetID:954272

[Difficulty]
HPDrainRate:3
CircleSize:2.6
OverallDifficulty:3
ApproachRate:4
SliderMultiplier:0.900000005960459
SliderTickRate:1

[Events]
//Background and Video events
0,0,"godstuff.jpg",0,0
//Break Periods
2,11280,19807
2,65634,71499
2,154249,157653
//Storyboard Layer 0 (Background)
//Storyboard Layer 1 (Fail)
//Storyboard Layer 2 (Pass)
//Storyboard Layer 3 (Foreground)
//Storyboard Sound Samples

[TimingPoints]
204,307.692307692308,4,2,7,72,1,0
11280,-100,4,2,7,55,0,0
20511,-100,4,2,7,65,0,0
40819,-100,4,2,7,75,0,0
42050,-100,4,2,7,63,0,0
42973,-100,4,2,7,70,0,0
43280,-100,4,2,7,80,0,1
53127,-100,4,2,8,80,0,1
62973,-100,4,2,8,72,0,0
72819,-100,4,2,7,65,0,0
104819,-100,4,2,7,80,0,1
124511,-100,4,2,7,65,0,0
132204,-100,4,2,7,68,0,0
132511,-100,4,2,7,73,0,0
132973,-100,4,2,7,85,0,0
149127,-100,4,2,7,95,0,1
152050,-100,4,2,7,85,0,1
152357,-100,4,2,7,75,0,1
152819,-100,4,2,7,65,0,1
154050,-100,4,2,77,50,0,0
158973,-100,4,2,7,55,0,0
161127,-100,4,2,7,80,0,0
161434,-100,4,2,7,80,0,1
172357,-100,4,2,8,80,0,0
173434,-100,4,2,8,95,0,0
173742,-100,4,2,7,95,0,1
183588,-100,4,2,8,95,0,1
193434,-100,4,2,8,95,0,0
194511,-100,4,2,7,30,0,0

[Colours]
Combo1 : 230,230,230
Combo2 : 153,204,255
Combo3 : 166,255,166
Combo4 : 255,131,70
Combo5 : 255,208,98
Combo6 : 92,92,92
Combo7 : 180,180,180
Combo8 : 255,74,74

[HitObjects]
461,247,819,118,0,L|474:140,1,90.0000005960459,8|12,0:0|0:0,0:0:0:0:
512,77,1434,6,0,P|427:47|323:57,1,180.000001192092,4|0,1:0|1:0,0:0:0:0:
223,124,2511,2,0,P|179:164|88:154,1,135.000000894069,4|8,1:2|0:0,0:0:0:0:
32,113,3280,1,4,1:2:0:0:
5,199,3588,1,12,0:0:0:0:
78,250,3896,6,0,P|163:220|267:230,1,180.000001192092,4|0,1:0|1:0,0:0:0:0:
367,297,4973,2,0,P|411:337|502:327,1,135.000000894069,4|8,1:2|0:0,0:0:0:0:
505,249,5742,1,14,0:1:0:0:
438,188,6050,2,0,L|447:78,1,90.0000005960459,14|0,0:1|1:0,0:0:0:0:
378,37,6665,101,12,0:0:0:0:
311,98,6973,2,0,L|168:92,1,135.000000894069,8|4,0:3|1:0,0:0:0:0:
88,195,7896,1,8,0:0:0:0:
126,276,8204,2,0,L|219:265,1,90.0000005960459,4|12,1:2|0:0,0:0:0:0:
296,226,8819,6,0,P|349:280|414:279,2,135.000000894069,4|4|4,1:0|1:2|1:0,0:0:0:0:
437,114,10357,2,0,L|441:16,1,90.0000005960459,8|12,0:0|0:1,0:0:0:0:
274,53,21127,102,0,P|362:48|458:75,1,180.000001192092,4|2,1:2|1:0,0:0:0:0:
470,159,22050,1,8,0:0:0:0:
436,242,22357,2,0,P|348:247|252:220,1,180.000001192092,4|2,1:2|1:0,0:0:0:0:
182,177,23280,1,10,0:1:0:0:
116,238,23588,6,0,P|103:276|107:339,1,90.0000005960459,4|8,1:2|0:0,0:0:0:0:
17,353,24204,2,0,P|14:255|52:168,1,180.000001192092,2|0,1:0|1:0,0:0:0:0:
127,146,25127,2,0,L|130:55,1,90.0000005960459,8|4,0:0|1:2,0:0:0:0:
214,25,25742,1,12,0:1:0:0:
250,107,26050,102,0,P|343:108|434:59,1,180.000001192092,4|2,1:2|1:0,0:0:0:0:
482,135,26973,1,8,0:0:0:0:
452,219,27280,2,0,P|359:218|268:267,1,180.000001192092,4|2,1:2|1:1,0:0:0:0:
227,326,28204,1,8,0:1:0:0:
137,319,28511,6,0,L|122:223,2,90.0000005960459,14|10|10,0:1|0:1|0:1,0:0:0:0:
3,342,29588,2,0,L|14:190,1,135.000000894069,12|8,0:0|0:0,0:0:0:0:
82,150,30357,1,8,0:0:0:0:
162,190,30665,2,0,L|263:179,1,90.0000005960459,12|4,0:1|1:2,0:0:0:0:
292,100,31280,21,8,0:0:0:0:
382,102,31588,2,0,P|404:144|397:201,1,90.0000005960459,0|8,1:0|0:0,0:0:0:0:
325,232,32204,2,0,P|303:274|310:331,1,90.0000005960459,0|8,1:0|0:0,0:0:0:0:
371,375,32819,2,0,L|476:359,2,90.0000005960459,0|8|0,1:0|0:0|1:0,0:0:0:0:
304,315,33742,5,8,0:0:0:0:
220,347,34050,2,0,P|196:310|198:257,1,90.0000005960459,0|8,1:0|0:0,0:0:0:0:
253,196,34665,2,0,P|180:245|83:252,1,180.000001192092,0|4,1:0|1:2,0:0:0:0:
22,193,35588,2,0,P|35:148|39:93,1,90.0000005960459,8|4,0:0|1:0,0:0:0:0:
22,16,36204,102,0,P|96:34|124:135,1,180.000001192092,8|12,0:0|0:0,0:0:0:0:
286,209,37434,2,0,P|360:191|388:90,1,180.000001192092,8|12,0:0|0:1,0:0:0:0:
340,25,38357,5,0,1:2:0:0:
251,43,38665,2,0,P|238:102|242:151,1,90.0000005960459,8|0,0:0|1:0,0:0:0:0:
286,209,39280,1,8,0:0:0:0:
221,272,39588,2,0,L|118:269,1,90.0000005960459,0|8,1:0|0:0,0:0:0:0:
130,359,40204,2,0,L|233:362,1,90.0000005960459,0|8,1:0|0:0,0:0:0:0:
298,318,40819,2,0,P|310:181|118:87,1,360.000002384184,12|4,0:0|1:0,0:0:0:0:
394,6,42973,1,8,0:0:0:0:
454,72,43280,22,0,L|447:181,1,90.0000005960459,4|8,1:0|0:0,0:0:0:0:
378,219,43896,2,0,L|406:364,2,135.000000894069,0|4|8,1:0|1:2|0:0,0:0:0:0:
300,173,45127,1,4,1:2:0:0:
235,235,45434,1,8,0:0:0:0:
146,216,45742,54,0,P|129:154|132:113,1,90.0000005960459,4|8,1:0|0:0,0:0:0:0:
52,82,46357,2,0,P|127:38|179:54,1,135.000000894069,0|4,1:0|1:2,0:0:0:0:
276,130,47280,1,8,0:0:0:0:
365,122,47588,1,0,1:2:0:0:
454,116,47896,2,0,L|441:215,1,90.0000005960459,12|4,0:0|1:0,0:0:0:0:
369,257,48511,53,8,0:0:0:0:
423,328,48819,2,0,P|343:301|285:309,1,135.000000894069,0|2,1:0|0:0,0:0:0:0:
171,363,49742,1,8,0:0:0:0:
82,344,50050,2,0,L|72:251,1,90.0000005960459,0|12,1:0|0:0,0:0:0:0:
144,199,50665,53,14,0:1:0:0:
88,127,50973,1,14,0:1:0:0:
147,59,51280,2,0,P|244:61|291:79,1,135.000000894069,6|4,1:0|1:2,0:0:0:0:
377,166,52204,2,0,P|427:146|479:151,1,90.0000005960459,12|12,0:0|0:0,0:0:0:0:
442,234,52819,1,12,0:0:0:0:
419,321,53127,54,0,L|317:313,1,90.0000005960459,4|10,1:0|0:0,0:0:0:0:
264,251,53742,2,0,L|165:263,1,90.0000005960459,2|10,1:2|0:0,0:0:0:0:
86,243,54357,2,0,P|69:293|71:336,2,90.0000005960459,2|10|6,0:0|0:0|1:2,0:0:0:0:
147,177,55280,1,14,0:0:0:0:
122,90,55588,54,0,L|214:76,1,90.0000005960459,6|10,1:2|0:0,0:0:0:0:
291,35,56204,2,0,P|317:85|320:133,1,90.0000005960459,2|10,1:2|0:0,0:0:0:0:
308,207,56819,1,2,0:2:0:0:
397,220,57127,2,0,L|489:206,2,90.0000005960459,10|6|12,0:0|1:2|0:1,0:0:0:0:
340,290,58050,54,0,P|277:254|213:270,1,135.000000894069,4|0,1:2|1:0,0:0:0:0:
84,252,58973,2,0,P|146:215|164:152,1,135.000000894069,4|0,1:2|1:0,0:0:0:0:
249,53,59896,2,0,P|249:125|271:148,1,90.0000005960459,4|12,1:2|0:2,0:0:0:0:
331,188,60511,54,0,L|528:163,1,180.000001192092,4|12,1:0|0:0,0:0:0:0:
488,298,61588,2,0,L|394:292,1,90.0000005960459,12|0,0:1|1:0,0:0:0:0:
356,273,62050,2,0,P|332:347|230:373,1,180.000001192092,8|12,0:0|0:0,0:0:0:0:
256,192,62973,12,4,65434,1:0:0:0:
49,348,72819,86,0,L|58:253,1,90.0000005960459,4|10,1:0|0:0,0:0:0:0:
143,232,73434,2,0,L|118:52,1,180.000001192092,2|0,1:2|1:0,0:0:0:0:
200,16,74357,1,10,0:0:0:0:
235,98,74665,2,0,P|279:99|323:88,1,90.0000005960459,2|10,1:0|0:1,0:0:0:0:
349,1,75280,6,0,P|411:61|391:148,1,180.000001192092,6|2,1:2|1:2,0:0:0:0:
429,321,76511,2,0,L|330:317,1,90.0000005960459,0|8,1:0|0:0,0:0:0:0:
297,236,77127,1,0,1:0:0:0:
213,269,77434,1,12,0:1:0:0:
132,227,77742,102,0,P|115:169|118:133,1,90.0000005960459,6|10,1:2|0:0,0:0:0:0:
70,62,78357,2,0,P|147:52|208:142,1,180.000001192092,2|0,1:2|1:0,0:0:0:0:
292,154,79280,1,10,0:0:0:0:
335,75,79588,2,0,L|438:83,1,90.0000005960459,2|10,1:0|0:1,0:0:0:0:
477,155,80204,6,0,P|500:244|505:302,1,135.000000894069,4|0,1:2|1:0,0:0:0:0:
458,364,80973,1,0,1:0:0:0:
371,338,81280,2,0,L|231:349,1,135.000000894069,2|8,1:2|0:0,0:0:0:0:
160,299,82050,101,12,0:0:0:0:
174,210,82357,1,12,0:0:0:0:
189,121,82665,2,0,P|275:88|376:90,1,180.000001192092,4|2,1:0|1:0,0:0:0:0:
412,161,83588,1,8,0:0:0:0:
399,250,83896,2,0,P|313:283|212:281,1,180.000001192092,4|2,1:2|1:0,0:0:0:0:
174,210,84819,1,10,0:1:0:0:
227,137,85127,6,0,P|244:89|243:45,1,90.0000005960459,4|8,1:2|0:0,0:0:0:0:
331,27,85742,2,0,P|333:101|283:213,1,180.000001192092,2|0,1:0|1:0,0:0:0:0:
208,226,86665,2,0,L|235:331,1,90.0000005960459,8|4,0:1|1:2,0:0:0:0:
317,336,87280,1,12,0:1:0:0:
397,295,87588,102,0,P|395:198|432:108,1,180.000001192092,4|2,1:2|1:0,0:0:0:0:
352,65,88511,1,8,0:0:0:0:
268,99,88819,2,0,P|270:196|233:286,1,180.000001192092,4|2,1:2|1:1,0:0:0:0:
157,306,89742,1,8,0:1:0:0:
77,262,90050,6,0,L|60:166,2,90.0000005960459,14|10|10,0:1|0:1|0:1,0:0:0:0:
210,279,91127,2,0,L|222:129,1,135.000000894069,12|8,0:0|0:0,0:0:0:0:
209,55,91896,1,8,0:0:0:0:
297,73,92204,2,0,L|389:62,1,90.0000005960459,12|4,0:1|1:2,0:0:0:0:
472,88,92819,21,8,0:0:0:0:
440,172,93127,2,0,P|429:226|428:271,1,90.0000005960459,0|8,1:0|0:0,0:0:0:0:
447,348,93742,2,0,P|385:341|357:315,1,90.0000005960459,0|8,1:0|0:0,0:0:0:0:
278,299,94357,2,0,P|216:306|188:332,2,90.0000005960459,0|8|0,1:0|0:0|1:0,0:0:0:0:
342,235,95280,5,8,0:0:0:0:
309,151,95588,2,0,L|317:46,1,90.0000005960459,0|8,1:0|0:0,0:0:0:0:
229,35,96204,2,0,L|213:229,1,180.000001192092,0|0,1:0|1:2,0:0:0:0:
167,291,97127,2,0,P|118:289|79:262,1,90.0000005960459,8|4,0:0|1:0,0:0:0:0:
16,327,97742,102,0,P|2:225|58:179,1,180.000001192092,8|12,0:0|0:0,0:0:0:0:
233,200,98973,2,0,P|247:98|191:52,1,180.000001192092,8|12,0:0|0:1,0:0:0:0:
112,89,99896,5,0,1:0:0:0:
150,170,100204,2,0,L|139:269,1,90.0000005960459,8|0,0:0|1:0,0:0:0:0:
180,339,100819,1,8,0:0:0:0:
260,298,101127,2,0,P|311:299|354:320,1,90.0000005960459,0|8,1:0|0:0,0:0:0:0:
417,370,101742,2,0,P|435:331|423:269,1,90.0000005960459,0|8,1:0|0:0,0:0:0:0:
365,223,102357,2,0,P|345:76|510:87,1,360.000002384184,12|4,0:0|1:0,0:0:0:0:
246,30,104511,1,8,0:0:0:0:
158,50,104819,22,0,P|137:93|137:149,1,90.0000005960459,4|8,1:0|0:0,0:0:0:0:
55,177,105434,2,0,P|56:247|103:315,2,135.000000894069,0|4|8,1:0|1:2|0:0,0:0:0:0:
134,134,106665,1,4,1:2:0:0:
221,156,106973,1,8,0:0:0:0:
264,77,107280,54,0,L|358:66,1,90.0000005960459,4|8,1:0|0:0,0:0:0:0:
421,6,107896,2,0,L|406:156,1,135.000000894069,0|4,1:0|1:2,0:0:0:0:
377,272,108819,2,0,L|471:261,1,90.0000005960459,8|0,0:0|1:2,0:0:0:0:
463,351,109434,2,0,L|369:362,1,90.0000005960459,12|4,0:0|1:0,0:0:0:0:
295,316,110050,53,8,0:0:0:0:
207,338,110357,2,0,P|173:280|181:206,1,135.000000894069,0|2,1:0|0:0,0:0:0:0:
268,114,111280,1,8,0:0:0:0:
225,34,111588,2,0,L|129:48,1,90.0000005960459,0|12,1:0|0:0,0:0:0:0:
81,118,112204,53,14,0:1:0:0:
110,202,112511,1,14,0:1:0:0:
32,248,112819,2,0,P|101:249|168:286,1,135.000000894069,6|4,1:0|1:2,0:0:0:0:
272,352,113742,2,0,P|326:324|366:326,1,90.0000005960459,8|12,0:0|0:0,0:0:0:0:
441,344,114357,1,8,0:0:0:0:
414,257,114665,54,0,L|421:160,1,90.0000005960459,4|10,1:0|0:0,0:0:0:0:
452,82,115280,2,0,P|405:57|356:61,1,90.0000005960459,2|10,1:2|0:0,0:0:0:0:
280,38,115896,2,0,P|233:63|184:59,2,90.0000005960459,2|10|6,0:2|0:0|1:2,0:0:0:0:
340,105,116819,1,14,0:0:0:0:
288,179,117127,54,0,L|277:274,1,90.0000005960459,6|10,1:2|0:0,0:0:0:0:
204,321,117742,2,0,P|150:299|101:299,1,90.0000005960459,2|10,1:2|0:0,0:0:0:0:
33,325,118357,1,2,0:2:0:0:
6,239,118665,2,0,L|10:141,2,90.0000005960459,14|6|12,0:0|1:2|0:1,0:0:0:0:
77,293,119588,54,0,P|130:269|154:196,1,135.000000894069,4|0,1:2|1:0,0:0:0:0:
233,90,120511,2,0,P|227:147|278:205,1,135.000000894069,4|0,1:2|1:0,0:0:0:0:
324,329,121434,2,0,P|276:295|236:299,1,90.0000005960459,4|12,1:2|0:0,0:0:0:0:
176,351,122050,54,0,P|201:280|204:157,1,180.000001192092,4|12,1:0|0:0,0:0:0:0:
197,41,123127,2,0,P|244:45|283:69,1,90.0000005960459,4|0,1:0|1:0,0:0:0:0:
308,101,123588,2,0,L|409:91,1,90.0000005960459,8|0,0:0|1:0,0:0:0:0:
486,78,124204,1,12,0:0:0:0:
475,167,124511,38,0,P|492:237|493:304,1,135.000000894069,4|4,1:0|1:2,0:0:0:0:
314,324,125588,2,0,P|297:254|296:187,1,135.000000894069,4|8,1:2|0:0,0:0:0:0:
121,143,126665,1,12,0:0:0:0:
37,175,126973,22,0,P|20:105|19:38,1,135.000000894069,4|4,1:0|1:2,0:0:0:0:
198,18,128050,2,0,P|215:88|216:155,1,135.000000894069,4|8,1:0|0:0,0:0:0:0:
388,203,129127,1,12,0:0:0:0:
376,292,129434,86,0,P|302:312|235:309,1,135.000000894069,4|4,1:0|1:2,0:0:0:0:
189,138,130511,2,0,P|155:123|94:123,1,90.0000005960459,4|0,1:2|1:0,0:0:0:0:
28,172,131127,2,0,L|14:324,1,135.000000894069,4|12,1:2|0:1,0:0:0:0:
87,360,131896,22,0,P|201:359|241:215,1,270.000001788138,4|0,1:2|1:0,0:0:0:0:
208,204,132973,2,0,L|192:50,1,135.000000894069,12|8,0:1|0:0,0:0:0:0:
261,9,133742,1,12,0:1:0:0:
339,52,134050,1,12,0:1:0:0:
427,36,134357,70,0,P|447:86|443:132,1,90.0000005960459,12|8,3:1|3:2,0:0:0:0:
387,190,134973,2,0,L|294:184,1,90.0000005960459,8|8,3:2|3:2,0:0:0:0:
240,253,135588,2,0,P|220:303|224:349,1,90.0000005960459,12|8,3:2|3:2,0:0:0:0:
133,358,136204,22,0,P|131:287|183:178,1,180.000001192092,10|14,3:1|3:1,0:0:0:0:
259,162,137127,85,8,3:2:0:0:
234,75,137434,2,0,L|142:63,1,90.0000005960459,8|8,3:2|3:2,0:0:0:0:
62,101,138050,2,0,P|38:56|37:11,2,90.0000005960459,12|8|14,3:2|3:2|3:2,0:0:0:0:
136,150,138973,21,14,3:1:0:0:
107,235,139280,86,0,P|144:205|290:184,1,180.000001192092,12|8,3:1|3:2,0:0:0:0:
350,222,140204,1,8,3:2:0:0:
427,176,140511,22,0,P|459:125|472:90,1,90.0000005960459,14|14,3:2|3:1,0:0:0:0:
391,54,141127,2,0,P|358:104|345:139,1,90.0000005960459,12|14,3:2|3:1,0:0:0:0:
327,220,141742,86,0,L|343:321,2,90.0000005960459,12|8|8,3:1|3:2|3:2,0:0:0:0:
259,160,142665,1,8,3:2:0:0:
278,71,142973,2,0,P|195:133|110:128,1,180.000001192092,12|8,3:2|3:2,0:0:0:0:
93,46,143896,1,12,3:2:0:0:
19,98,144204,54,0,P|-4:179|0:283,1,180.000001192092,4|0,1:0|1:2,0:0:0:0:
67,332,145127,1,8,0:0:0:0:
149,296,145434,2,0,P|195:298|245:326,1,90.0000005960459,4|8,1:2|0:0,0:0:0:0:
303,374,146050,1,0,1:0:0:0:
389,350,146357,1,8,0:0:0:0:
427,268,146665,6,0,L|399:89,1,180.000001192092,4|0,1:0|1:0,0:0:0:0:
318,50,147588,1,8,0:0:0:0:
250,110,147896,2,0,L|238:204,2,90.0000005960459,4|8|0,1:2|0:0|1:0,0:0:0:0:
171,65,148819,1,8,0:0:0:0:
107,129,149127,70,0,P|70:118|14:121,1,90.0000005960459,12|12,0:1|0:0,0:0:0:0:
10,209,149742,2,0,P|47:220|103:217,1,90.0000005960459,12|12,0:0|0:0,0:0:0:0:
163,279,150357,1,12,0:0:0:0:
250,258,150665,1,12,0:0:0:0:
314,320,150973,2,0,L|416:314,1,90.0000005960459,12|12,0:0|0:0,0:0:0:0:
463,247,151588,86,0,P|475:180|472:100,1,135.000000894069,12|8,0:1|0:0,0:0:0:0:
460,24,152357,2,0,P|420:34|392:74,1,90.0000005960459,8|8,0:0|0:0,0:0:0:0:
383,116,152819,2,0,P|279:151|94:14,1,360.000002384184,4|4,1:0|0:1,0:0:0:0:
56,260,158973,6,0,L|46:355,2,90.0000005960459,4|2|2,1:2|1:2|1:2,0:0:0:0:
132,212,159896,1,0,1:0:0:0:
192,278,160204,2,0,L|373:261,1,180.000001192092,0|2,0:0|0:0,0:0:0:0:
460,247,161127,1,8,0:0:0:0:
473,158,161434,6,0,P|434:136|373:139,1,90.0000005960459,14|14,0:1|0:1,0:0:0:0:
329,66,162050,2,0,P|271:111|198:109,1,135.000000894069,6|4,1:0|1:2,0:0:0:0:
87,59,162973,1,12,0:0:0:0:
59,144,163280,1,12,0:0:0:0:
119,210,163588,1,8,0:0:0:0:
99,297,163896,54,0,P|145:308|205:304,1,90.0000005960459,4|10,1:0|0:0,0:0:0:0:
239,380,164511,2,0,P|277:313|256:249,1,135.000000894069,2|4,1:2|1:2,0:0:0:0:
166,166,165434,1,10,0:0:0:0:
182,77,165742,2,0,L|283:70,1,90.0000005960459,6|14,1:2|0:0,0:0:0:0:
350,27,166357,54,0,P|377:87|372:126,1,90.0000005960459,6|10,1:2|0:0,0:0:0:0:
327,185,166973,2,0,P|416:191|459:148,2,135.000000894069,2|4|10,1:2|1:2|0:0,0:0:0:0:
266,118,168204,2,0,P|239:178|244:217,1,90.0000005960459,6|12,1:2|0:1,0:0:0:0:
296,271,168819,54,0,P|193:246|152:252,1,135.000000894069,4|0,1:2|1:0,0:0:0:0:
30,256,169742,2,0,P|103:179|118:140,1,135.000000894069,4|0,1:2|1:0,0:0:0:0:
176,34,170665,2,0,P|189:100|213:133,1,90.0000005960459,4|12,1:2|0:2,0:0:0:0:
267,178,171280,54,0,L|456:162,1,180.000001192092,4|8,1:0|0:0,0:0:0:0:
416,294,172357,2,0,L|313:284,1,90.0000005960459,4|12,1:2|0:0,0:0:0:0:
285,264,172819,1,12,0:0:0:0:
218,324,173127,2,0,P|199:288|202:228,1,90.0000005960459,0|14,1:0|0:1,0:0:0:0:
114,205,173742,54,0,P|127:156|129:114,1,90.0000005960459,4|8,1:0|0:0,0:0:0:0:
207,71,174357,2,0,P|153:28|78:43,2,135.000000894069,0|4|8,1:0|1:2|0:0,0:0:0:0:
251,149,175588,1,4,1:2:0:0:
335,117,175896,1,8,0:0:0:0:
405,173,176204,54,0,L|393:275,1,90.0000005960459,4|8,1:0|0:0,0:0:0:0:
345,338,176819,2,0,P|300:351|204:353,1,135.000000894069,0|4,1:0|1:2,0:0:0:0:
93,289,177742,1,8,0:0:0:0:
109,200,178050,1,0,1:0:0:0:
124,111,178357,2,0,L|234:99,1,90.0000005960459,12|4,0:0|1:0,0:0:0:0:
289,52,178973,53,8,0:0:0:0:
318,136,179280,2,0,L|463:145,1,135.000000894069,0|6,1:0|0:0,0:0:0:0:
503,269,180204,1,8,0:0:0:0:
423,309,180511,2,0,P|398:275|395:223,1,90.0000005960459,4|8,1:2|0:0,0:0:0:0:
424,143,181127,53,14,0:1:0:0:
384,62,181434,1,14,0:1:0:0:
304,104,181742,2,0,P|237:105|153:80,1,135.000000894069,14|4,0:1|1:0,0:0:0:0:
58,14,182665,2,0,P|39:59|38:110,1,90.0000005960459,12|12,0:0|0:0,0:0:0:0:
108,153,183280,1,8,0:0:0:0:
102,242,183588,54,0,L|199:235,1,90.0000005960459,4|10,1:0|0:0,0:0:0:0:
274,199,184204,2,0,P|296:240|297:287,1,90.0000005960459,2|10,1:2|0:0,0:0:0:0:
386,298,184819,2,0,L|483:291,2,90.0000005960459,2|14|6,0:0|0:0|1:2,0:0:0:0:
297,282,185742,1,14,0:0:0:0:
355,213,186050,54,0,P|366:167|362:116,1,90.0000005960459,6|10,1:2|0:0,0:0:0:0:
320,45,186665,2,0,L|228:39,1,90.0000005960459,2|10,1:2|0:0,0:0:0:0:
194,121,187280,1,2,0:2:0:0:
104,116,187588,2,0,P|80:65|78:25,2,90.0000005960459,10|6|12,0:0|1:2|0:1,0:0:0:0:
144,196,188511,54,0,P|215:163|270:174,1,135.000000894069,4|0,1:2|1:0,0:0:0:0:
387,108,189434,2,0,P|380:185|343:228,1,135.000000894069,4|0,1:2|1:0,0:0:0:0:
350,362,190357,2,0,P|285:317|280:300,1,90.0000005960459,4|12,1:2|0:2,0:0:0:0:
257,223,190973,54,0,P|205:264|222:376,1,180.000001192092,4|12,1:0|0:0,0:0:0:0:
350,362,192050,2,0,L|332:253,1,90.0000005960459,4|0,1:0|1:0,0:0:0:0:
369,243,192511,2,0,L|381:51,1,180.000001192092,8|12,0:0|0:0,0:0:0:0:
295,34,193434,38,0,P|185:39|111:221,1,315.000002086161,4|2,1:0|0:0,0:0:0:0:
