osu file format v14

[General]
AudioFilename: audio.mp3
AudioLeadIn: 0
PreviewTime: 153588
Countdown: 0
SampleSet: Soft
StackLeniency: 0.7
Mode: 0
LetterboxInBreaks: 0
EpilepsyWarning: 1
WidescreenStoryboard: 1

[Editor]
DistanceSpacing: 1.2
BeatDivisor: 4
GridSize: 4
TimelineZoom: 1.6

[Metadata]
Title:Kanzen Shouri*Esper Girl
TitleUnicode:完全勝利☆エスパーガール
Artist:*namirin
ArtistUnicode:*namirin
Creator:Left
Version:AF's Insane
Source:osu!
Tags:Mappers' Guild Island featured artist Affirmation
BeatmapID:2011463
BeatmapSetID:954272

[Difficulty]
HPDrainRate:5.3
CircleSize:4
OverallDifficulty:7.8
ApproachRate:9
SliderMultiplier:1.00000000596046
SliderTickRate:1

[Events]
//Background and Video events
0,0,"godstuff.jpg",0,0
//Break Periods
2,11278,19894
2,63788,72219
2,154048,160527
//Storyboard Layer 0 (Background)
//Storyboard Layer 1 (Fail)
//Storyboard Layer 2 (Pass)
//Storyboard Layer 3 (Foreground)
//Storyboard Sound Samples

[TimingPoints]
204,307.692307692308,4,2,7,50,1,0
819,-62.5,4,2,7,50,0,0
11280,-83.3333333333333,4,2,7,50,0,0
21127,-71.4285714285714,4,2,7,50,0,0
43280,-62.5,4,2,7,80,0,1
62973,-100,4,2,7,50,0,0
72819,-71.4285714285714,4,2,7,50,0,0
104819,-62.5,4,2,7,80,0,1
124511,-71.4285714285714,4,2,7,50,0,0
163896,-62.5,4,2,7,80,0,1
193434,-100,4,2,7,50,0,0
194511,-100,4,2,7,30,0,0

[Colours]
Combo1 : 230,230,230
Combo2 : 153,204,255
Combo3 : 166,255,166
Combo4 : 255,131,70
Combo5 : 255,208,98
Combo6 : 92,92,92
Combo7 : 180,180,180
Combo8 : 255,74,74

[HitObjects]
119,102,819,118,0,L|198:97,1,80.0000004768368,8|0,0:0|1:0,0:0:0:0:
385,45,1127,1,12,0:0:0:0:
385,45,1434,6,0,B|377:104|377:104|395:149|395:149|387:200,1,160.000000953674,4|8,1:0|0:0,0:0:0:0:
320,258,1896,1,0,0:0:0:0:
385,316,2050,2,0,P|424:311|464:305,2,80.0000004768368,0|0|8,1:0|1:0|0:0,0:0:0:0:
267,377,2511,6,0,P|187:368|107:361,1,160.000000953674,4|0,1:2|1:0,0:0:0:0:
27,323,2973,1,8,0:0:0:0:
88,260,3127,1,0,0:0:0:0:
29,194,3280,2,0,L|18:114,1,80.0000004768368,4|0,1:2|0:0,0:0:0:0:
100,78,3589,2,0,L|89:-1,1,80.0000004768368,12|0,0:0|0:0,0:0:0:0:
190,98,3896,102,0,P|268:114|345:135,1,160.000000953674,4|8,1:0|0:0,0:0:0:0:
419,87,4357,1,0,0:0:0:0:
482,147,4511,2,0,P|470:185|461:224,1,80.0000004768368,0|0,1:0|1:0,0:0:0:0:
510,298,4819,1,8,0:0:0:0:
360,384,4973,6,0,P|354:304|348:224,1,160.000000953674,4|0,1:2|1:0,0:0:0:0:
346,136,5434,2,0,P|307:146|268:156,1,80.0000004768368,8|0,0:0|0:0,0:0:0:0:
183,181,5742,1,14,0:1:0:0:
456,106,6050,1,14,0:1:0:0:
456,105,6357,102,0,P|461:66|469:27,1,80.0000004768368,0|0,1:0|1:0,0:0:0:0:
406,169,6665,2,0,P|417:248|429:327,1,160.000000953674,12|8,0:0|0:3,0:0:0:0:
498,382,7127,2,0,P|515:347|515:307,1,80.0000004768368,4|8,0:3|0:0,0:0:0:0:
396,179,7434,6,0,P|407:258|419:337,1,160.000000953674,4|0,1:0|1:0,0:0:0:0:
335,310,7896,1,8,0:0:0:0:
267,366,8050,1,0,0:0:0:0:
214,295,8204,2,0,P|174:288|134:286,1,80.0000004768368,4|0,1:2|0:0,0:0:0:0:
94,365,8511,2,0,P|54:371|14:373,1,80.0000004768368,12|0,0:0|0:0,0:0:0:0:
111,213,8819,102,0,P|190:214|267:235,1,160.000000953674,4|8,1:0|0:0,0:0:0:0:
335,310,9280,2,0,P|414:308|491:287,1,160.000000953674,4|0,1:2|1:0,0:0:0:0:
464,202,9742,6,0,B|436:141|476:49|476:49|416:109|328:103,1,320.000001907347,4|8,1:0|0:0,0:0:0:0:
251,60,10511,1,0,0:0:0:0:
251,60,10588,1,0,0:0:0:0:
251,60,10665,1,12,0:1:0:0:
464,202,10819,1,8,0:0:0:0:
56,102,20511,102,0,P|48:73|44:43,1,59.999998526573,12|0,0:0|0:0,0:0:0:0:
164,164,20819,2,0,P|160:134|152:105,1,59.999998526573,12|0,0:0|0:0,0:0:0:0:
57,243,21127,5,4,1:2:0:0:
57,243,21280,1,0,0:0:0:0:
131,279,21434,2,0,P|165:272|199:264,1,69.9999982810018,8|0,0:0|0:0,0:0:0:0:
259,204,21742,2,0,P|317:242|386:239,1,139.999996562004,2|8,1:0|0:0,0:0:0:0:
458,195,22204,1,0,0:0:0:0:
502,265,22357,102,0,P|497:299|493:334,1,69.9999982810018,4|0,1:2|0:0,0:0:0:0:
408,342,22665,2,0,P|373:346|338:350,1,69.9999982810018,8|0,0:0|0:0,0:0:0:0:
258,377,22973,2,0,P|224:317|244:252,1,139.999996562004,2|10,1:0|0:1,0:0:0:0:
297,187,23434,1,0,0:0:0:0:
227,139,23588,6,0,L|88:159,1,139.999996562004,4|8,1:2|0:0,0:0:0:0:
36,226,24050,1,0,0:0:0:0:
106,273,24204,2,0,L|244:252,1,139.999996562004,2|8,1:0|0:0,0:0:0:0:
351,202,24665,102,0,P|341:235|334:269,1,69.9999982810018,2|0,0:1|1:0,0:0:0:0:
368,347,24973,2,0,P|435:329|503:311,1,139.999996562004,2|0,1:1|0:0,0:0:0:0:
496,227,25434,1,4,1:2:0:0:
221,359,25742,1,12,0:1:0:0:
221,359,26050,6,0,P|208:326|192:295,1,69.9999982810018,4|0,1:2|0:0,0:0:0:0:
274,274,26357,2,0,P|286:241|302:210,1,69.9999982810018,8|0,0:0|0:0,0:0:0:0:
235,156,26665,2,0,P|176:191|106:194,1,139.999996562004,2|8,1:0|0:0,0:0:0:0:
42,248,27127,1,0,0:0:0:0:
25,124,27280,102,0,P|20:89|16:54,1,69.9999982810018,4|0,1:2|0:2,0:0:0:0:
93,19,27588,2,0,P|97:53|101:88,1,69.9999982810018,8|0,0:2|0:0,0:0:0:0:
185,98,27896,2,0,P|180:63|176:28,2,69.9999982810018,2|0|8,1:1|0:0|0:1,0:0:0:0:
261,63,28357,1,2,0:0:0:0:
327,113,28511,6,0,P|395:100|464:88,2,139.999996562004,14|10|10,0:1|0:1|0:1,0:0:0:0:
457,99,29434,1,0,1:0:0:0:
320,124,29588,102,0,P|388:111|457:99,1,139.999996562004,12|0,0:0|1:0,0:0:0:0:
458,183,30050,2,0,P|453:217|451:252,1,69.9999982810018,8|0,0:0|1:0,0:0:0:0:
490,327,30357,1,8,0:0:0:0:
347,294,30511,1,0,1:0:0:0:
347,294,30588,1,0,1:0:0:0:
347,294,30665,1,12,0:1:0:0:
347,294,30973,54,0,P|312:300|278:308,1,69.9999982810018,4|2,1:2|0:0,0:0:0:0:
340,286,31280,2,0,P|305:292|271:300,1,69.9999982810018,8|2,0:0|0:0,0:0:0:0:
333,278,31588,1,0,1:0:0:0:
333,278,31742,2,0,P|298:284|264:292,1,69.9999982810018,2|8,0:0|0:0,0:0:0:0:
196,342,32050,1,2,0:0:0:0:
76,239,32204,102,0,P|110:245|144:253,1,69.9999982810018,0|2,1:0|0:0,0:0:0:0:
83,231,32511,2,0,P|117:237|151:245,1,69.9999982810018,8|2,0:0|0:0,0:0:0:0:
90,223,32819,2,0,P|124:229|158:237,1,69.9999982810018,0|2,1:0|0:0,0:0:0:0:
233,140,33127,2,0,P|198:146|164:154,1,69.9999982810018,8|2,0:0|0:0,0:0:0:0:
153,155,33588,6,0,P|156:120|161:85,2,69.9999982810018,2|8|2,0:0|0:0|0:0,0:0:0:0:
152,81,34050,2,0,P|147:115|144:150,1,69.9999982810018,0|2,1:0|0:0,0:0:0:0:
142,75,34357,2,0,P|137:109|134:144,1,69.9999982810018,8|2,0:0|0:0,0:0:0:0:
247,205,34665,102,0,P|251:170|254:135,1,69.9999982810018,0|2,1:0|0:0,0:0:0:0:
299,63,34973,2,0,P|365:87|434:80,2,139.999996562004,8|4|8,0:0|1:2|0:0,0:0:0:0:
408,226,35896,6,0,P|443:225|478:222,1,69.9999982810018,4|2,1:0|0:0,0:0:0:0:
403,239,36204,2,0,P|437:237|472:234,1,69.9999982810018,8|2,0:0|0:0,0:0:0:0:
472,234,36665,1,8,0:0:0:0:
333,307,36819,1,12,0:0:0:0:
103,226,37127,102,0,P|68:225|33:222,1,69.9999982810018,0|2,1:0|0:0,0:0:0:0:
109,239,37435,2,0,P|74:237|39:234,1,69.9999982810018,8|2,0:0|0:0,0:0:0:0:
40,234,37896,1,10,0:0:0:0:
179,307,38050,1,12,0:1:0:0:
178,307,38357,6,0,P|191:238|178:170,1,139.999996562004,0|8,1:2|0:0,0:0:0:0:
108,122,38819,1,2,0:0:0:0:
168,64,38973,2,0,P|203:57|238:52,1,69.9999982810018,0|0,1:0|0:0,0:0:0:0:
297,112,39280,2,0,P|331:118|366:123,1,69.9999982810018,8|2,0:0|0:0,0:0:0:0:
500,165,39588,102,0,P|433:169|397:225,2,139.999996562004,0|8|0,1:0|0:0|1:0,0:0:0:0:
485,83,40357,1,0,0:0:0:0:
401,95,40511,2,0,P|366:90|331:84,1,69.9999982810018,8|2,0:0|0:0,0:0:0:0:
220,32,40819,5,12,0:0:0:0:
256,192,40896,12,0,42050,0:0:0:0:
79,242,42973,85,8,0:0:0:0:
79,242,43050,1,8,0:0:0:0:
79,242,43127,1,8,0:0:0:0:
79,242,43204,1,8,0:0:0:0:
79,242,43280,54,0,L|157:227,1,80.0000004768368,4|0,1:0|0:0,0:0:0:0:
270,170,43588,2,0,L|244:246,1,80.0000004768368,8|0,0:0|0:0,0:0:0:0:
236,371,43896,2,0,L|183:310,1,80.0000004768368,0|0,1:0|1:0,0:0:0:0:
157,227,44204,1,8,0:0:0:0:
352,179,44357,54,0,P|378:252|357:328,1,160.000000953674,4|0,1:2|1:0,0:0:0:0:
236,371,44819,2,0,P|196:366|156:361,1,80.0000004768368,8|0,0:0|0:0,0:0:0:0:
244,245,45127,2,0,P|165:259|87:276,1,160.000000953674,4|8,1:2|0:0,0:0:0:0:
20,334,45588,1,0,1:0:0:0:
44,161,45742,54,0,P|58:124|71:86,1,80.0000004768368,4|0,1:0|0:0,0:0:0:0:
207,93,46050,2,0,P|192:55|179:17,1,80.0000004768368,8|0,0:0|0:0,0:0:0:0:
304,186,46357,1,0,1:0:0:0:
304,186,46511,2,0,P|318:148|331:110,1,80.0000004768368,0|8,1:0|0:0,0:0:0:0:
226,247,46819,54,0,P|299:218|376:233,1,160.000000953674,4|0,1:2|1:0,0:0:0:0:
457,349,47280,2,0,P|465:309|474:270,1,80.0000004768368,8|0,0:0|1:0,0:0:0:0:
474,270,47511,1,0,1:0:0:0:
474,270,47588,1,0,1:2:0:0:
331,359,47742,1,0,0:0:0:0:
331,359,47896,2,0,P|273:342|215:326,1,120.000000715255,12|0,0:0|1:0,0:0:0:0:
206,323,48204,54,0,P|245:315|284:307,1,80.0000004768368,4|2,1:0|0:0,0:0:0:0:
383,242,48511,2,0,P|343:234|304:226,1,80.0000004768368,8|2,0:0|0:0,0:0:0:0:
134,197,48819,1,0,1:0:0:0:
208,162,48973,2,0,B|220:200|220:200|207:238,1,80.0000004768368,2|8,1:2|0:0,0:0:0:0:
128,350,49280,54,0,B|111:310|111:310|133:196,1,160.000000953674,2|2,0:0|1:2,0:0:0:0:
98,101,49742,2,0,P|59:111|20:117,1,80.0000004768368,8|0,0:0|0:0,0:0:0:0:
192,29,50050,1,0,1:0:0:0:
335,80,50204,1,2,1:2:0:0:
192,29,50357,2,0,P|199:68|207:107,1,80.0000004768368,12|2,0:0|0:0,0:0:0:0:
336,216,50665,54,0,P|373:204|412:194,1,80.0000004768368,14|0,0:1|0:0,0:0:0:0:
314,373,50973,1,14,0:1:0:0:
432,180,51127,1,0,0:1:0:0:
250,234,51280,1,6,1:0:0:0:
411,320,51434,2,0,P|452:311|505:303,1,80.0000004768368,0|8,1:0|0:0,0:0:0:0:
298,299,51742,54,0,P|224:268|145:275,1,160.000000953674,4|0,1:2|1:0,0:0:0:0:
26,381,52204,2,0,B|37:325|37:325|23:272|23:272|27:224,1,160.000000953674,12|12,0:0|0:0,0:0:0:0:
137,77,52665,1,0,0:0:0:0:
16,128,52819,1,12,0:0:0:0:
16,128,52896,1,8,0:0:0:0:
16,128,52973,1,8,0:0:0:0:
16,128,53050,1,8,0:0:0:0:
16,128,53127,54,0,P|54:140|91:154,1,80.0000004768368,4|0,1:0|0:0,0:0:0:0:
240,34,53434,2,0,P|201:46|164:60,1,80.0000004768368,10|0,0:0|0:0,0:0:0:0:
327,143,53742,2,0,P|362:74|323:8,1,160.000000953674,2|10,1:2|0:0,0:0:0:0:
224,131,54204,54,0,B|218:224|270:186|262:281,1,160.000000953674,4|0,1:2|1:0,0:0:0:0:
132,368,54665,2,0,P|124:329|116:290,1,80.0000004768368,10|0,0:0|0:0,0:0:0:0:
380,368,54973,2,0,P|387:329|395:290,1,80.0000004768368,6|0,1:2|0:2,0:0:0:0:
399,103,55280,1,14,0:0:0:0:
351,182,55434,1,0,0:0:0:0:
501,272,55588,54,0,P|493:232|485:193,1,80.0000004768368,6|0,1:2|0:0,0:0:0:0:
400,18,55896,2,0,P|439:26|478:33,1,80.0000004768368,10|0,0:0|0:0,0:0:0:0:
352,169,56204,1,2,1:2:0:0:
267,16,56357,2,0,P|227:24|188:31,1,80.0000004768368,0|10,0:0|0:0,0:0:0:0:
94,211,56665,54,0,B|122:161|122:161|92:62,1,160.000000953674,4|0,1:2|1:0,0:0:0:0:
58,296,57127,2,0,P|97:292|137:287,1,80.0000004768368,10|0,0:0|0:0,0:0:0:0:
278,192,57434,1,6,1:2:0:0:
223,353,57588,1,0,0:0:0:0:
198,142,57742,1,12,0:1:0:0:
197,142,58050,54,0,L|193:221,1,80.0000004768368,4|0,1:2|0:0,0:0:0:0:
328,327,58357,1,8,0:0:0:0:
370,249,58511,2,0,L|360:89,1,160.000000953674,0|0,1:0|1:0,0:0:0:0:
198,46,58973,54,0,P|237:38|275:27,1,80.0000004768368,4|0,1:2|0:0,0:0:0:0:
179,203,59280,1,8,0:0:0:0:
126,130,59434,2,0,P|50:125|1:185,1,160.000000953674,0|0,1:0|1:0,0:0:0:0:
61,318,59896,2,0,P|65:278|71:238,1,80.0000004768368,4|0,1:2|0:0,0:0:0:0:
210,191,60204,2,0,P|204:230|199:270,1,80.0000004768368,12|0,0:2|0:0,0:0:0:0:
371,360,60511,54,0,B|403:327|403:327|370:217,1,160.000000953674,4|12,1:0|0:0,0:0:0:0:
322,61,60973,1,0,0:0:0:0:
265,128,61127,2,0,P|341:106|419:85,1,160.000000953674,12|0,0:0|1:0,0:0:0:0:
506,196,61588,54,0,P|443:240|369:216,1,160.000000953674,12|0,0:1|1:0,0:0:0:0:
256,118,62050,1,8,0:0:0:0:
210,278,62204,1,4,0:3:0:0:
90,177,62357,1,0,1:0:0:0:
219,371,62511,1,0,0:0:0:0:
329,97,62665,1,12,0:0:0:0:
101,370,62973,54,0,B|83:295|83:295|104:243|104:243|91:178,1,200.000001192092,4|0,1:0|1:0,0:0:0:0:
66,87,72819,22,0,L|135:79,1,69.9999982810018,4|0,1:0|0:0,0:0:0:0:
112,160,73127,2,0,L|181:152,1,69.9999982810018,10|0,0:0|0:0,0:0:0:0:
227,82,73434,2,0,B|220:168|261:135|250:216,1,139.999996562004,2|8,1:2|0:0,0:0:0:0:
195,281,73896,1,2,0:0:0:0:
291,361,74050,6,0,P|301:327|308:293,1,69.9999982810018,0|2,1:0|0:0,0:0:0:0:
388,266,74357,2,0,P|378:232|371:198,1,69.9999982810018,10|0,0:0|0:0,0:0:0:0:
351,115,74665,2,0,L|420:116,1,69.9999982810018,2|0,1:0|0:0,0:0:0:0:
365,31,74973,2,0,L|435:33,1,69.9999982810018,10|0,0:1|0:0,0:0:0:0:
280,64,75280,102,0,P|214:77|162:34,1,139.999996562004,6|10,1:2|0:0,0:0:0:0:
86,72,75742,1,0,0:0:0:0:
133,141,75896,2,0,P|129:210|125:280,1,139.999996562004,2|8,1:2|0:0,0:0:0:0:
94,359,76357,1,2,0:0:0:0:
31,302,76511,5,0,1:0:0:0:
94,359,76665,2,0,P|162:344|231:332,1,139.999996562004,2|2,0:0|0:0,0:0:0:0:
305,290,77127,2,0,L|304:359,1,69.9999982810018,0|0,1:0|0:0,0:0:0:0:
385,311,77434,2,0,L|385:381,1,69.9999982810018,12|0,0:1|0:0,0:0:0:0:
470,304,77743,102,0,L|459:164,1,139.999996562004,6|10,1:2|0:0,0:0:0:0:
395,110,78204,1,0,0:0:0:0:
435,37,78357,2,0,P|371:63|304:48,1,139.999996562004,2|8,1:2|0:0,0:0:0:0:
230,6,78819,1,2,0:0:0:0:
161,53,78973,6,0,P|160:88|163:123,1,69.9999982810018,0|2,1:0|0:0,0:0:0:0:
178,206,79280,2,0,P|143:208|108:208,1,69.9999982810018,10|0,0:0|0:0,0:0:0:0:
51,271,79588,2,0,L|55:340,1,69.9999982810018,2|0,1:0|0:0,0:0:0:0:
134,284,79896,2,0,L|139:354,1,69.9999982810018,10|0,0:1|0:0,0:0:0:0:
106,207,80204,102,0,B|102:116|66:173|63:79,1,139.999996562004,4|2,1:2|0:0,0:0:0:0:
136,37,80665,2,0,B|139:131|175:74|179:165,1,139.999996562004,0|0,1:0|1:0,0:0:0:0:
249,118,81127,1,0,0:0:0:0:
307,176,81280,6,0,P|375:186|425:141,1,139.999996562004,2|0,1:2|1:0,0:0:0:0:
509,156,81742,1,8,0:0:0:0:
463,226,81896,1,0,1:0:0:0:
503,299,82050,2,0,L|499:368,1,69.9999982810018,12|0,0:0|0:0,0:0:0:0:
419,300,82357,2,0,L|415:369,1,69.9999982810018,12|0,0:0|0:0,0:0:0:0:
348,238,82665,102,0,P|315:252|282:262,1,69.9999982810018,4|0,1:0|0:0,0:0:0:0:
217,316,82973,2,0,P|184:302|151:292,1,69.9999982810018,8|0,0:0|0:0,0:0:0:0:
73,325,83280,2,0,P|70:255|67:185,1,139.999996562004,2|8,1:0|0:0,0:0:0:0:
28,110,83742,1,0,0:0:0:0:
84,48,83896,6,0,P|145:70|147:136,1,139.999996562004,4|8,1:2|0:0,0:0:0:0:
230,125,84357,1,0,0:0:0:0:
278,192,84511,2,0,P|271:227|269:262,1,69.9999982810018,2|0,1:0|0:0,0:0:0:0:
351,283,84819,2,0,P|357:248|359:213,1,69.9999982810018,10|0,0:1|0:0,0:0:0:0:
342,130,85127,102,0,P|411:129|478:110,1,139.999996562004,4|8,1:2|0:0,0:0:0:0:
463,27,85588,1,0,0:0:0:0:
381,49,85742,2,0,P|347:48|313:40,1,69.9999982810018,2|0,1:0|1:1,0:0:0:0:
231,20,86050,1,8,0:1:0:0:
173,81,86204,6,0,L|175:150,2,69.9999982810018,2|0|2,0:1|1:0|0:1,0:0:0:0:
67,212,86819,2,0,L|69:142,2,69.9999982810018,0|4|0,0:0|1:2|0:0,0:0:0:0:
118,276,87280,2,0,P|153:280|187:273,1,69.9999982810018,12|0,0:1|0:0,0:0:0:0:
262,232,87588,101,4,1:2:0:0:
334,274,87742,1,0,0:0:0:0:
403,227,87896,2,0,P|413:261|412:296,1,69.9999982810018,8|0,0:0|0:0,0:0:0:0:
335,172,88204,2,0,P|327:102|333:32,1,139.999996562004,2|8,1:0|0:0,0:0:0:0:
254,4,88665,1,0,0:0:0:0:
186,54,88819,6,0,P|151:54|116:55,1,69.9999982810018,4|0,1:2|0:0,0:0:0:0:
83,133,89127,2,0,P|117:132|152:131,1,69.9999982810018,8|0,0:0|0:0,0:0:0:0:
231,160,89434,2,0,B|224:213|224:213|240:253|240:253|235:296,1,139.999996562004,2|8,1:1|0:1,0:0:0:0:
178,359,89896,1,0,0:0:0:0:
121,294,90050,102,0,P|55:298|28:359,2,139.999996562004,14|10|10,0:1|0:1|0:1,0:0:0:0:
394,346,90973,5,0,1:0:0:0:
313,368,91127,2,0,P|306:298|300:228,1,139.999996562004,12|0,0:0|1:0,0:0:0:0:
332,151,91588,2,0,P|366:141|400:131,1,69.9999982810018,8|0,0:0|1:0,0:0:0:0:
454,66,91896,2,0,P|420:56|386:46,1,69.9999982810018,8|0,0:0|1:0,0:0:0:0:
386,46,92127,1,0,1:0:0:0:
386,46,92204,1,12,0:1:0:0:
165,90,92511,22,0,P|200:84|234:76,1,69.9999982810018,4|2,1:2|0:0,0:0:0:0:
172,98,92819,2,0,P|207:92|241:84,1,69.9999982810018,8|2,0:0|0:0,0:0:0:0:
179,106,93126,1,0,1:0:0:0:
179,106,93280,2,0,P|214:100|248:92,1,69.9999982810018,2|8,1:2|0:0,0:0:0:0:
316,42,93588,1,2,0:0:0:0:
436,145,93742,6,0,P|402:139|368:131,1,69.9999982810018,0|2,1:0|0:0,0:0:0:0:
429,153,94050,2,0,P|395:147|361:139,1,69.9999982810018,8|2,0:0|0:0,0:0:0:0:
422,161,94357,2,0,P|388:155|354:147,1,69.9999982810018,0|2,1:0|0:0,0:0:0:0:
279,244,94665,2,0,P|314:238|348:230,1,69.9999982810018,8|2,0:0|0:0,0:0:0:0:
359,229,95126,102,0,P|356:264|351:299,2,69.9999982810018,2|8|2,0:0|0:0|0:0,0:0:0:0:
360,303,95588,2,0,P|365:269|368:234,1,69.9999982810018,0|2,1:0|0:0,0:0:0:0:
370,309,95896,2,0,P|375:275|378:240,1,69.9999982810018,8|2,0:0|0:0,0:0:0:0:
265,179,96204,6,0,P|261:214|258:249,1,69.9999982810018,0|2,1:0|0:0,0:0:0:0:
213,321,96511,2,0,P|147:297|78:304,1,139.999996562004,8|0,0:0|1:2,0:0:0:0:
14,358,96973,1,2,0:0:0:0:
14,358,97127,1,8,0:0:0:0:
104,158,97434,102,0,P|69:159|34:162,1,69.9999982810018,4|2,1:0|0:0,0:0:0:0:
109,145,97742,2,0,P|75:147|40:150,1,69.9999982810018,8|2,0:0|0:0,0:0:0:0:
40,150,98203,1,10,0:0:0:0:
179,77,98357,1,12,0:0:0:0:
409,158,98665,6,0,P|444:159|479:162,1,69.9999982810018,0|2,1:0|0:0,0:0:0:0:
403,145,98973,2,0,P|438:147|473:150,1,69.9999982810018,8|2,0:0|0:0,0:0:0:0:
472,150,99434,1,10,0:0:0:0:
333,77,99588,1,12,0:1:0:0:
334,77,99896,102,0,P|321:146|334:214,1,139.999996562004,0|8,1:0|0:0,0:0:0:0:
404,262,100357,1,2,0:0:0:0:
344,320,100511,2,0,P|309:327|274:332,1,69.9999982810018,0|0,1:0|0:0,0:0:0:0:
215,272,100819,2,0,P|181:266|146:261,1,69.9999982810018,8|2,0:0|0:0,0:0:0:0:
12,219,101126,6,0,P|79:215|115:159,2,139.999996562004,0|8|0,1:0|0:0|1:0,0:0:0:0:
27,301,101895,1,0,0:0:0:0:
111,289,102050,2,0,P|146:294|181:300,1,69.9999982810018,8|2,0:0|0:0,0:0:0:0:
292,352,102357,101,12,0:0:0:0:
256,192,102434,12,0,103588,0:0:0:0:
433,242,104511,21,8,0:0:0:0:
433,242,104588,1,8,0:0:0:0:
433,242,104665,1,8,0:0:0:0:
433,242,104742,1,8,0:0:0:0:
433,242,104819,6,0,L|354:226,1,80.0000004768368,8|0,0:0|0:0,0:0:0:0:
242,170,105126,2,0,L|268:246,1,80.0000004768368,8|0,0:0|0:0,0:0:0:0:
355,227,105434,1,0,1:0:0:0:
276,371,105589,2,0,L|329:310,1,80.0000004768368,0|8,1:0|0:0,0:0:0:0:
160,179,105896,54,0,P|134:252|155:328,1,160.000000953674,4|0,1:2|1:0,0:0:0:0:
276,371,106357,2,0,P|316:366|356:361,1,80.0000004768368,8|0,0:0|0:0,0:0:0:0:
268,245,106665,2,0,P|347:259|425:276,1,160.000000953674,4|8,1:2|0:0,0:0:0:0:
492,334,107126,1,0,1:0:0:0:
461,189,107280,54,0,P|447:152|434:114,1,80.0000004768368,4|0,1:0|0:0,0:0:0:0:
306,109,107588,2,0,P|321:71|334:33,1,80.0000004768368,8|0,0:0|0:0,0:0:0:0:
286,247,107895,1,0,1:0:0:0:
210,179,108050,2,0,P|196:141|183:103,1,80.0000004768368,0|8,1:0|0:0,0:0:0:0:
286,247,108357,54,0,P|213:218|136:233,1,160.000000953674,4|0,1:2|1:0,0:0:0:0:
55,349,108819,2,0,P|47:309|38:270,1,80.0000004768368,8|0,0:0|1:0,0:0:0:0:
38,270,109049,1,0,1:0:0:0:
38,270,109126,1,0,1:2:0:0:
181,359,109280,1,0,0:0:0:0:
181,359,109434,2,0,P|239:342|297:326,1,120.000000715255,12|0,0:0|1:0,0:0:0:0:
306,323,109742,54,0,P|267:315|228:307,1,80.0000004768368,4|2,1:0|0:0,0:0:0:0:
129,242,110050,2,0,P|169:234|208:226,1,80.0000004768368,8|2,0:0|0:0,0:0:0:0:
378,197,110357,1,0,1:0:0:0:
304,162,110511,2,0,B|292:200|292:200|305:238,1,80.0000004768368,2|8,0:0|0:0,0:0:0:0:
384,350,110819,54,0,B|401:310|401:310|379:196,1,160.000000953674,2|2,0:0|0:0,0:0:0:0:
414,101,111280,2,0,P|453:111|492:117,1,80.0000004768368,8|0,0:0|0:0,0:0:0:0:
320,29,111588,1,0,1:0:0:0:
177,80,111742,1,2,0:0:0:0:
320,29,111896,2,0,P|313:68|305:107,1,80.0000004768368,12|0,0:0|0:0,0:0:0:0:
176,216,112203,54,0,P|139:204|100:194,1,80.0000004768368,14|0,0:1|0:0,0:0:0:0:
214,299,112511,1,14,0:1:0:0:
128,112,112665,1,0,0:0:0:0:
275,174,112818,1,6,1:0:0:0:
104,289,112973,2,0,P|63:280|10:272,1,80.0000004768368,0|8,1:2|0:0,0:0:0:0:
214,299,113280,54,0,P|288:268|367:275,1,160.000000953674,4|0,1:2|1:0,0:0:0:0:
486,381,113742,2,0,B|475:325|475:325|489:272|489:272|485:224,1,160.000000953674,8|12,0:0|0:0,0:0:0:0:
375,77,114203,1,0,1:0:0:0:
496,128,114357,1,8,0:0:0:0:
496,128,114434,1,8,0:0:0:0:
496,128,114511,1,8,0:0:0:0:
496,128,114588,1,8,0:0:0:0:
496,128,114665,54,0,P|458:140|421:154,1,80.0000004768368,4|0,1:0|0:0,0:0:0:0:
272,34,114973,2,0,P|311:46|348:60,1,80.0000004768368,10|0,0:0|0:0,0:0:0:0:
179,127,115280,1,2,1:2:0:0:
178,126,115434,2,0,P|163:89|172:51,1,80.0000004768368,0|10,0:0|0:0,0:0:0:0:
288,131,115742,54,0,B|294:224|242:186|250:281,1,160.000000953674,4|0,1:2|0:0,0:0:0:0:
315,383,116203,2,0,P|323:344|331:305,1,80.0000004768368,10|0,0:0|0:0,0:0:0:0:
153,340,116511,2,0,P|146:301|138:262,1,80.0000004768368,6|0,1:2|0:0,0:0:0:0:
113,103,116818,1,14,0:0:0:0:
161,182,116972,1,0,0:0:0:0:
11,272,117126,54,0,P|19:232|27:193,1,80.0000004768368,6|0,1:2|0:0,0:0:0:0:
112,18,117434,2,0,P|73:26|34:33,1,80.0000004768368,10|0,0:0|0:0,0:0:0:0:
160,169,117742,1,2,1:2:0:0:
245,16,117896,2,0,P|285:24|324:31,1,80.0000004768368,0|10,1:0|0:0,0:0:0:0:
418,211,118204,54,0,B|390:161|390:161|420:62,1,160.000000953674,4|0,1:2|0:0,0:0:0:0:
454,296,118665,2,0,P|415:292|375:287,1,80.0000004768368,14|0,0:0|0:0,0:0:0:0:
234,192,118972,1,6,1:2:0:0:
289,353,119126,1,0,0:0:0:0:
314,142,119280,1,12,0:1:0:0:
315,142,119588,54,0,L|319:221,1,80.0000004768368,4|0,1:2|0:0,0:0:0:0:
184,327,119895,1,8,0:0:0:0:
142,249,120049,2,0,L|152:89,1,160.000000953674,0|0,1:0|1:0,0:0:0:0:
314,46,120511,54,0,P|275:38|237:27,1,80.0000004768368,4|0,1:2|0:0,0:0:0:0:
333,203,120818,1,8,0:0:0:0:
386,130,120972,2,0,P|462:125|511:185,1,160.000000953674,0|0,1:0|1:0,0:0:0:0:
451,318,121434,2,0,P|447:278|441:238,1,80.0000004768368,4|0,1:2|0:0,0:0:0:0:
302,191,121742,2,0,P|308:230|313:270,1,80.0000004768368,12|0,0:0|0:0,0:0:0:0:
141,360,122049,54,0,B|109:327|109:327|142:217,1,160.000000953674,4|12,1:0|0:0,0:0:0:0:
190,61,122511,1,0,0:0:0:0:
247,128,122665,2,0,P|171:106|93:85,1,160.000000953674,12|8,0:0|0:0,0:0:0:0:
6,196,123126,54,0,P|69:240|143:216,1,160.000000953674,4|0,1:0|1:0,0:0:0:0:
256,118,123588,1,8,0:0:0:0:
302,278,123742,1,4,0:3:0:0:
420,177,123896,1,0,1:0:0:0:
299,382,124050,1,0,0:0:0:0:
256,118,124203,1,12,0:0:0:0:
465,353,124511,38,0,P|504:298|479:236,1,139.999996562004,4|8,1:0|0:0,0:0:0:0:
420,177,124973,2,0,P|380:122|405:60,1,139.999996562004,4|0,1:2|1:0,0:0:0:0:
486,78,125434,1,8,0:0:0:0:
316,22,125588,22,0,L|177:44,1,139.999996562004,4|0,1:2|1:0,0:0:0:0:
32,71,126050,1,8,0:0:0:0:
32,71,126973,86,0,L|45:139,1,69.9999982810018,4|0,1:0|1:0,0:0:0:0:
91,210,127280,1,8,0:0:0:0:
146,146,127434,2,0,B|217:141|194:205|269:195,1,139.999996562004,4|0,1:2|1:0,0:0:0:0:
343,155,127896,1,8,0:0:0:0:
414,200,128050,22,0,P|425:130|439:62,1,139.999996562004,4|0,1:0|1:0,0:0:0:0:
343,155,128511,1,8,0:0:0:0:
343,155,128973,1,0,1:0:0:0:
441,315,129127,1,12,0:0:0:0:
441,315,129434,86,0,L|371:307,1,69.9999982810018,4|0,1:0|1:0,0:0:0:0:
301,354,129742,1,8,0:0:0:0:
243,292,129896,2,0,P|176:283|129:332,1,139.999996562004,4|0,1:2|1:0,0:0:0:0:
57,289,130357,1,8,0:0:0:0:
104,219,130511,22,0,L|90:79,1,139.999996562004,4|0,1:2|1:0,0:0:0:0:
54,2,130973,1,8,0:0:0:0:
100,85,131128,2,0,L|114:225,1,139.999996562004,4|0,1:2|1:0,0:0:0:0:
241,267,131588,2,0,P|252:233|252:199,1,69.9999982810018,12|0,0:1|0:0,0:0:0:0:
203,129,131896,53,4,1:2:0:0:
367,163,132204,1,0,1:0:0:0:
203,129,132511,1,8,0:0:0:0:
367,163,132819,1,0,1:0:0:0:
313,97,132973,38,0,B|285:135|285:135|292:227,1,139.999996562004,12|0,0:1|1:0,0:0:0:0:
353,285,133434,2,0,L|422:277,1,69.9999982810018,8|4,0:0|0:3,0:0:0:0:
230,356,133742,2,0,L|160:348,1,69.9999982810018,12|0,0:1|0:0,0:0:0:0:
93,213,134051,2,0,L|23:205,1,69.9999982810018,12|0,0:1|0:0,0:0:0:0:
178,261,134357,85,12,3:1:0:0:
177,261,134665,2,0,P|182:226|188:191,1,69.9999982810018,8|0,3:2|0:0,0:0:0:0:
295,204,134973,2,0,P|290:169|284:134,1,69.9999982810018,8|0,3:2|0:0,0:0:0:0:
176,29,135280,1,8,3:2:0:0:
291,103,135434,1,2,0:0:0:0:
132,142,135588,6,0,P|65:120|0:97,2,139.999996562004,12|8|10,3:2|3:2|3:1,0:0:0:0:
291,103,136357,1,0,0:0:0:0:
176,29,136511,1,10,3:1:0:0:
175,29,136819,102,0,P|141:34|106:39,1,69.9999982810018,14|0,3:1|0:0,0:0:0:0:
279,119,137127,2,0,P|244:113|209:108,1,69.9999982810018,8|0,3:2|0:0,0:0:0:0:
385,19,137434,2,0,P|350:24|315:29,1,69.9999982810018,8|0,3:2|0:0,0:0:0:0:
451,109,137742,1,8,3:2:0:0:
280,207,137896,1,2,0:0:0:0:
388,293,138050,6,0,P|403:226|381:161,2,139.999996562004,12|8|14,3:2|3:2|3:2,0:0:0:0:
185,280,138819,1,0,0:0:0:0:
321,351,138973,1,14,3:1:0:0:
320,351,139280,102,0,P|354:340|388:332,1,69.9999982810018,12|0,3:1|0:0,0:0:0:0:
185,280,139588,2,0,P|219:287|252:298,1,69.9999982810018,8|2,3:2|0:0,0:0:0:0:
326,362,139896,2,0,P|359:351|393:343,1,69.9999982810018,8|0,3:2|0:0,0:0:0:0:
190,290,140204,2,0,P|224:297|257:308,1,69.9999982810018,8|0,3:2|0:0,0:0:0:0:
56,328,140511,6,0,L|46:258,1,69.9999982810018,14|0,3:2|0:0,0:0:0:0:
190,290,140819,2,0,L|199:220,1,69.9999982810018,14|0,3:1|0:0,0:0:0:0:
65,322,141127,2,0,L|55:252,1,69.9999982810018,12|0,3:2|0:0,0:0:0:0:
199,284,141435,2,0,L|208:214,1,69.9999982810018,14|0,3:1|0:0,0:0:0:0:
139,53,141742,102,0,P|132:88|136:123,1,69.9999982810018,12|0,3:1|0:0,0:0:0:0:
271,161,142050,2,0,L|340:151,1,69.9999982810018,8|2,3:2|0:0,0:0:0:0:
388,21,142357,2,0,L|318:30,1,69.9999982810018,8|0,3:2|0:0,0:0:0:0:
459,184,142665,2,0,B|472:150|472:150|464:117,1,69.9999982810018,8|2,3:2|0:0,0:0:0:0:
357,209,142973,6,0,L|372:348,1,139.999996562004,12|10,3:2|3:2,0:0:0:0:
254,382,143434,2,0,L|239:243,1,139.999996562004,2|0,0:0|0:0,0:0:0:0:
228,85,143896,1,12,3:2:0:0:
334,261,144204,37,4,1:0:0:0:
335,261,144512,2,0,P|330:226|324:191,1,69.9999982810018,8|0,0:0|0:0,0:0:0:0:
217,204,144820,2,0,P|222:169|228:134,1,69.9999982810018,0|0,1:2|1:0,0:0:0:0:
336,29,145127,1,8,0:0:0:0:
221,103,145281,1,0,0:0:0:0:
380,142,145435,6,0,P|447:120|512:97,2,139.999996562004,4|8|0,1:2|0:0|1:0,0:0:0:0:
221,103,146204,1,0,1:0:0:0:
336,29,146358,1,8,0:0:0:0:
337,29,146666,102,0,P|371:34|406:39,1,69.9999982810018,4|0,1:0|0:0,0:0:0:0:
233,119,146974,2,0,P|268:113|303:108,1,69.9999982810018,8|0,0:0|0:0,0:0:0:0:
127,19,147281,2,0,P|162:24|197:29,1,69.9999982810018,0|0,1:0|1:0,0:0:0:0:
61,109,147589,1,8,0:0:0:0:
232,207,147743,1,0,0:0:0:0:
124,293,147897,6,0,P|109:226|131:161,2,139.999996562004,4|8|0,1:2|0:0|1:0,0:0:0:0:
327,280,148666,1,0,1:0:0:0:
191,351,148820,1,8,0:0:0:0:
191,351,149127,70,0,L|123:369,1,69.9999982810018,12|0,0:1|0:0,0:0:0:0:
321,351,149434,2,0,L|388:369,1,69.9999982810018,12|0,0:0|0:0,0:0:0:0:
166,262,149742,2,0,L|96:254,1,69.9999982810018,12|0,0:0|0:0,0:0:0:0:
346,262,150050,2,0,L|415:254,1,69.9999982810018,12|0,0:0|0:0,0:0:0:0:
321,33,150357,86,0,L|388:14,1,69.9999982810018,12|0,0:0|0:0,0:0:0:0:
191,33,150665,2,0,L|123:14,1,69.9999982810018,12|0,0:0|0:0,0:0:0:0:
346,122,150973,2,0,L|415:129,1,69.9999982810018,12|0,0:0|0:0,0:0:0:0:
166,122,151280,2,0,L|96:129,1,69.9999982810018,12|0,0:0|0:0,0:0:0:0:
257,194,151588,37,12,0:1:0:0:
191,33,151742,1,8,0:0:0:0:
257,194,152050,86,0,L|249:333,2,139.999996562004,8|8|8,0:0|0:0|0:0,0:0:0:0:
315,42,152819,1,4,1:0:0:0:
78,112,161127,69,8,0:0:0:0:
78,112,161204,1,8,0:0:0:0:
78,112,161280,1,8,0:0:0:0:
78,112,161357,1,8,0:0:0:0:
78,112,161434,54,0,L|146:99,1,69.9999982810018,14|0,0:1|0:0,0:0:0:0:
194,207,161742,2,0,L|181:275,1,69.9999982810018,14|0,0:1|0:0,0:0:0:0:
284,117,162050,2,0,L|271:48,1,69.9999982810018,6|0,1:0|0:0,0:0:0:0:
383,121,162357,1,8,0:0:0:0:
236,195,162511,54,0,P|166:185|97:176,1,139.999996562004,4|0,1:2|1:0,0:0:0:0:
196,344,162973,2,0,P|211:312|210:277,1,69.9999982810018,12|0,0:0|1:0,0:0:0:0:
328,49,163280,2,0,P|313:80|314:115,1,69.9999982810018,12|0,0:0|0:0,0:0:0:0:
433,244,163588,1,8,0:0:0:0:
433,244,163665,1,8,0:0:0:0:
433,244,163742,1,8,0:0:0:0:
433,244,163819,1,8,0:0:0:0:
433,244,163896,54,0,L|354:228,1,80.0000004768368,10|0,0:0|0:0,0:0:0:0:
242,172,164203,2,0,L|268:248,1,80.0000004768368,10|0,0:0|0:0,0:0:0:0:
276,373,164511,2,0,L|329:312,1,80.0000004768368,2|0,1:2|1:0,0:0:0:0:
355,229,164819,1,10,0:0:0:0:
160,181,164972,54,0,P|134:254|155:330,1,160.000000953674,4|0,1:2|1:0,0:0:0:0:
276,373,165434,2,0,P|316:368|356:363,1,80.0000004768368,10|0,0:0|0:0,0:0:0:0:
268,247,165742,2,0,P|347:261|425:278,1,160.000000953674,6|14,1:2|0:0,0:0:0:0:
492,336,166203,1,0,0:0:0:0:
468,163,166357,54,0,P|454:126|441:88,1,80.0000004768368,6|0,1:2|0:0,0:0:0:0:
305,95,166665,2,0,P|320:57|333:19,1,80.0000004768368,10|0,0:0|0:0,0:0:0:0:
208,188,166972,1,2,1:2:0:0:
208,188,167126,2,0,P|194:150|181:112,1,80.0000004768368,0|10,0:0|0:0,0:0:0:0:
286,249,167434,54,0,P|213:220|136:235,1,160.000000953674,4|0,1:2|0:0,0:0:0:0:
55,351,167896,2,0,P|47:311|38:272,1,80.0000004768368,10|0,0:0|0:0,0:0:0:0:
38,272,168126,1,0,0:0:0:0:
38,272,168203,1,6,1:2:0:0:
181,361,168357,1,0,0:0:0:0:
181,361,168511,2,0,P|239:344|297:328,1,120.000000715255,12|0,0:1|0:0,0:0:0:0:
307,320,168819,54,0,P|293:283|284:244,1,80.0000004768368,4|0,1:2|0:0,0:0:0:0:
362,123,169127,1,8,0:0:0:0:
432,194,169280,2,0,P|433:273|428:353,1,160.000000953674,0|0,1:0|1:0,0:0:0:0:
273,248,169742,54,0,P|311:237|351:240,1,80.0000004768368,4|0,1:2|0:0,0:0:0:0:
187,339,170050,1,8,0:0:0:0:
76,283,170204,2,0,L|80:123,1,160.000000953674,0|0,1:0|1:0,0:0:0:0:
203,34,170665,2,0,P|169:53|129:57,1,80.0000004768368,4|0,1:2|0:0,0:0:0:0:
327,146,170973,2,0,P|292:126|252:122,1,80.0000004768368,12|0,0:2|0:0,0:0:0:0:
64,196,171280,70,0,B|143:183|135:223|221:207,1,160.000000953674,4|8,1:0|0:0,0:0:0:0:
408,152,171742,1,4,0:3:0:0:
252,122,171896,2,0,L|268:281,1,160.000000953674,8|4,0:0|0:3,0:0:0:0:
399,346,172357,1,4,1:2:0:0:
399,346,172665,53,12,0:0:0:0:
323,194,172819,2,0,P|362:198|402:204,1,80.0000004768368,12|4,0:0|0:3,0:0:0:0:
173,132,173127,2,0,P|212:127|252:121,1,80.0000004768368,0|0,1:0|0:0,0:0:0:0:
79,242,173434,1,14,0:1:0:0:
79,242,173742,38,0,P|118:239|157:227,1,80.0000004768368,4|0,1:0|0:0,0:0:0:0:
269,170,174050,2,0,P|253:207|244:246,1,80.0000004768368,8|0,0:0|0:0,0:0:0:0:
235,368,174358,2,0,P|213:335|183:310,1,80.0000004768368,0|0,1:0|1:0,0:0:0:0:
94,342,174666,1,8,0:0:0:0:
352,179,174819,54,0,P|378:252|357:328,1,160.000000953674,4|0,1:2|1:0,0:0:0:0:
236,371,175281,2,0,P|196:366|156:361,1,80.0000004768368,8|0,0:0|0:0,0:0:0:0:
260,223,175589,2,0,P|181:237|103:254,1,160.000000953674,4|8,1:2|0:0,0:0:0:0:
20,334,176050,1,0,1:0:0:0:
44,161,176204,54,0,P|58:124|71:86,1,80.0000004768368,4|0,1:0|0:0,0:0:0:0:
208,77,176512,2,0,P|193:39|180:1,1,80.0000004768368,8|0,0:0|0:0,0:0:0:0:
304,186,176819,1,0,1:0:0:0:
304,186,176973,2,0,P|318:148|331:110,1,80.0000004768368,0|8,1:0|0:0,0:0:0:0:
226,247,177281,54,0,P|299:218|376:233,1,160.000000953674,4|0,1:2|1:0,0:0:0:0:
457,349,177742,2,0,P|465:309|474:270,1,80.0000004768368,8|0,0:0|1:0,0:0:0:0:
474,270,177973,1,0,1:0:0:0:
474,270,178050,1,0,1:0:0:0:
331,359,178204,1,0,0:0:0:0:
331,359,178358,2,0,P|273:342|215:326,1,120.000000715255,12|0,0:0|1:0,0:0:0:0:
206,323,178666,54,0,P|245:315|284:307,1,80.0000004768368,4|2,1:0|0:0,0:0:0:0:
383,242,178973,2,0,P|343:234|304:226,1,80.0000004768368,8|2,0:0|0:0,0:0:0:0:
134,197,179281,1,0,1:0:0:0:
208,162,179435,2,0,B|220:200|220:200|207:238,1,80.0000004768368,2|8,0:0|0:0,0:0:0:0:
128,350,179742,54,0,B|111:310|111:310|133:196,1,160.000000953674,6|2,0:0|0:0,0:0:0:0:
98,101,180204,2,0,P|59:111|20:117,1,80.0000004768368,8|2,0:0|0:0,0:0:0:0:
192,29,180512,1,4,1:2:0:0:
335,80,180666,1,2,0:0:0:0:
192,29,180819,2,0,P|199:68|207:107,1,80.0000004768368,8|0,0:0|1:0,0:0:0:0:
405,201,181127,53,14,0:1:0:0:
245,192,181280,1,0,1:0:0:0:
401,101,181434,1,14,0:1:0:0:
391,301,181588,1,0,1:0:0:0:
223,190,181742,1,14,0:1:0:0:
407,328,181896,1,0,1:0:0:0:
494,93,182050,1,12,0:0:0:0:
298,299,182203,54,0,P|224:268|145:275,1,160.000000953674,4|0,1:0|1:0,0:0:0:0:
26,381,182666,2,0,B|37:325|37:325|23:272|23:272|27:224,1,160.000000953674,12|12,0:0|0:0,0:0:0:0:
137,77,183127,1,0,1:0:0:0:
16,128,183281,1,8,0:0:0:0:
16,128,183358,1,8,0:0:0:0:
16,128,183435,1,8,0:0:0:0:
16,128,183512,1,8,0:0:0:0:
16,128,183589,54,0,P|54:140|91:154,1,80.0000004768368,4|0,1:0|0:0,0:0:0:0:
240,34,183896,2,0,P|201:46|164:60,1,80.0000004768368,10|0,0:0|0:0,0:0:0:0:
327,143,184204,2,0,P|362:74|323:8,1,160.000000953674,2|10,1:2|0:0,0:0:0:0:
224,131,184666,54,0,B|218:224|270:186|262:281,1,160.000000953674,4|0,1:2|1:0,0:0:0:0:
131,367,185127,2,0,P|123:328|106:293,1,80.0000004768368,14|0,0:0|0:0,0:0:0:0:
380,367,185434,2,0,P|388:328|405:293,1,80.0000004768368,6|0,1:2|0:0,0:0:0:0:
399,103,185742,1,14,0:0:0:0:
351,182,185896,1,0,1:0:0:0:
501,272,186050,54,0,P|493:232|485:193,1,80.0000004768368,6|0,1:2|0:0,0:0:0:0:
400,18,186358,2,0,P|439:26|478:33,1,80.0000004768368,10|0,0:0|0:0,0:0:0:0:
352,169,186666,1,2,1:2:0:0:
267,16,186819,2,0,P|227:24|188:31,1,80.0000004768368,0|10,1:0|0:0,0:0:0:0:
94,211,187127,54,0,B|122:161|122:161|92:62,1,160.000000953674,6|0,1:2|0:0,0:0:0:0:
58,296,187589,2,0,P|97:292|137:287,1,80.0000004768368,10|0,0:0|0:0,0:0:0:0:
278,192,187896,1,6,1:2:0:0:
223,353,188050,1,0,1:0:0:0:
198,142,188204,1,12,0:1:0:0:
197,142,188512,54,0,L|193:221,1,80.0000004768368,4|0,1:2|0:0,0:0:0:0:
328,327,188819,1,8,0:0:0:0:
370,248,188973,2,0,P|389:172|365:97,1,160.000000953674,0|0,1:0|1:0,0:0:0:0:
198,46,189435,54,0,P|237:38|275:27,1,80.0000004768368,4|0,1:2|0:0,0:0:0:0:
179,203,189742,1,8,0:0:0:0:
126,130,189896,2,0,P|50:125|1:185,1,160.000000953674,0|0,1:0|1:0,0:0:0:0:
61,318,190358,2,0,P|65:278|71:238,1,80.0000004768368,4|0,1:2|0:0,0:0:0:0:
210,191,190666,2,0,P|204:230|199:270,1,80.0000004768368,12|0,0:2|0:0,0:0:0:0:
371,360,190973,54,0,B|403:327|403:327|370:217,1,160.000000953674,4|12,1:0|0:0,0:0:0:0:
322,61,191435,1,0,0:0:0:0:
265,128,191589,2,0,P|341:106|419:85,1,160.000000953674,12|8,0:0|0:0,0:0:0:0:
506,196,192050,54,0,P|443:240|369:216,1,160.000000953674,4|0,1:0|1:0,0:0:0:0:
256,118,192512,1,8,0:0:0:0:
192,289,192666,1,4,0:3:0:0:
92,177,192819,1,0,1:0:0:0:
288,263,192973,1,0,0:0:0:0:
104,375,193127,1,12,0:0:0:0:
102,374,193434,54,0,B|-6:307|65:174|65:174|71:252|118:275,1,350.000002086161,4|2,1:0|0:0,0:0:0:0:
