osu file format v14

[General]
AudioFilename: audio.mp3
AudioLeadIn: 0
PreviewTime: 42817
Countdown: 1
SampleSet: Soft
StackLeniency: 0.7
Mode: 0
LetterboxInBreaks: 0
WidescreenStoryboard: 0

[Editor]
Bookmarks: 11278,21125,30971,42971,43279,62971,72817,104817,114356,114663,124509,128971,134663,154048,158663,163894,173740,183278,183586,188509,193432
DistanceSpacing: 0.8
BeatDivisor: 4
GridSize: 4
TimelineZoom: 2.3

[Metadata]
Title:Kanzen Shouri*Esper Girl
TitleUnicode:完全勝利☆エスパーガール
Artist:*namirin
ArtistUnicode:*namirin
Creator:Antuoniz
Version:Insane
Source:
Tags:antuoniz namirin featured
BeatmapID:1938409
BeatmapSetID:923872

[Difficulty]
HPDrainRate:6
CircleSize:4
OverallDifficulty:7.2
ApproachRate:9
SliderMultiplier:1.7
SliderTickRate:1

[Events]
//Background and Video events
0,0,"Konachan.com - 124597 sample.jpg",0,0
//Break Periods
//Storyboard Layer 0 (Background)
//Storyboard Layer 1 (Fail)
//Storyboard Layer 2 (Pass)
//Storyboard Layer 3 (Foreground)
//Storyboard Sound Samples

[TimingPoints]
202,307.692307692308,4,2,0,60,1,0
817,-100,4,2,0,60,0,0
6048,-125,4,2,0,60,0,0
6663,-100,4,2,0,60,0,0
8509,-125,4,2,0,60,0,0
8817,-100,4,2,0,60,0,0
9125,-125,4,2,0,60,0,0
10817,-200,4,2,0,60,0,0
13125,-125,4,2,0,60,0,0
18663,-100,4,2,0,60,0,0
25586,-200,4,2,0,60,0,0
26048,-100,4,2,0,60,0,0
29663,-200,4,2,0,60,0,0
30355,-100,4,2,0,60,0,0
30586,-200,4,2,0,60,0,0
31278,-100,4,2,0,60,0,0
33125,-125,4,2,0,60,0,0
33432,-100,4,2,0,60,0,0
35278,-200,4,2,0,60,0,0
35586,-100,4,2,0,60,0,0
36817,-200,4,2,0,60,0,0
37125,-100,4,2,0,60,0,0
38355,-200,4,2,0,60,0,0
39278,-100,4,2,0,60,0,0

[HitObjects]
191,219,817,5,0,0:0:0:0:
269,224,971,1,0,0:0:0:0:
191,219,1125,2,0,P|210:170|268:144,1,85
269,224,1432,6,0,P|316:170|310:131,1,85
296,81,1740,1,0,0:0:0:0:
218,48,1894,2,0,P|170:64|139:96,2,85
296,81,2355,1,0,0:0:0:0:
373,48,2509,6,0,L|478:51,1,85
457,137,2817,1,0,0:0:0:0:
399,215,2971,1,0,0:0:0:0:
450,283,3125,1,0,0:0:0:0:
409,356,3278,2,0,L|496:383,1,85
512,376,3586,2,0,L|430:350,1,85
342,296,3894,6,0,L|253:355,1,85
335,268,4202,2,0,L|412:213,1,85
467,164,4509,1,0,0:0:0:0:
394,126,4663,1,0,0:0:0:0:
314,146,4817,1,0,0:0:0:0:
242,196,4971,6,0,P|198:224|173:278,1,85
173,335,5278,1,0,0:0:0:0:
102,295,5432,1,0,0:0:0:0:
37,345,5586,1,0,0:0:0:0:
41,203,5740,1,0,0:0:0:0:
124,190,5894,1,0,0:0:0:0:
232,319,6048,6,0,P|264:262|235:187,1,136
176,127,6509,1,0,0:0:0:0:
124,190,6663,2,0,L|198:264,1,85
176,127,6971,1,0,0:0:0:0:
237,68,7125,1,0,0:0:0:0:
285,250,7278,1,0,0:0:0:0:
259,153,7432,6,0,B|198:234,1,85
153,284,7740,1,0,0:0:0:0:
286,330,7894,1,0,0:0:0:0:
206,348,8048,1,0,0:0:0:0:
360,264,8202,2,0,P|385:312|375:357,1,85
404,189,8509,2,0,P|441:209|457:252,1,68
486,384,8817,6,0,L|484:289,1,85
468,168,9125,2,0,L|391:193,1,68
338,233,9432,2,0,L|414:210,1,68
422,304,9740,1,0,0:0:0:0:
352,353,9894,1,0,0:0:0:0:
294,293,10048,5,0,0:0:0:0:
234,353,10202,1,0,0:0:0:0:
173,253,10355,1,0,0:0:0:0:
36,206,10509,1,0,0:0:0:0:
37,42,10663,1,0,0:0:0:0:
86,108,10817,2,0,L|110:144,1,42.5
180,290,11278,5,0,0:0:0:0:
248,242,11432,1,0,0:0:0:0:
162,166,11894,5,0,0:0:0:0:
96,115,12048,1,0,0:0:0:0:
242,5,12509,5,0,0:0:0:0:
312,58,12663,1,0,0:0:0:0:
213,182,13125,6,0,B|169:187|169:187|139:160,1,68
299,182,13432,2,0,B|343:187|343:187|373:160,1,68
195,291,13740,5,0,0:0:0:0:
156,215,13894,2,0,B|191:185|191:185|238:178,1,68
331,365,14355,5,0,0:0:0:0:
397,315,14509,2,0,B|385:272|385:272|350:241,1,68
276,300,14817,1,0,0:0:0:0:
195,287,14971,5,0,0:0:0:0:
156,215,15125,2,0,L|91:286,1,68
32,242,15432,1,0,0:0:0:0:
85,178,15586,2,0,P|62:136|22:116,1,68
23,44,15894,2,0,P|66:42|102:67,1,68
162,135,16202,5,0,0:0:0:0:
160,219,16355,2,0,B|172:260|172:260|155:292,1,68
211,73,16817,5,0,0:0:0:0:
293,86,16970,2,0,B|334:98|334:98|366:81,1,68
405,221,17432,5,0,0:0:0:0:
464,282,17586,1,0,0:0:0:0:
388,92,18048,6,0,L|450:127,1,68
356,100,18355,2,0,B|314:115|314:115|292:146,1,68
261,204,18663,6,0,P|299:161|294:113,1,85
204,150,18971,1,0,0:0:0:0:
123,200,19125,2,0,L|112:103,1,85
79,23,19432,2,0,L|89:136,1,85
123,200,19740,6,0,L|168:276,1,85
260,322,20048,1,0,0:0:0:0:
315,175,20202,1,0,0:0:0:0:
448,200,20355,1,0,0:0:0:0:
453,241,20431,1,0,0:0:0:0:
433,277,20509,2,0,P|391:314|337:297,1,85
315,175,20817,2,0,P|323:226|283:264,1,85
260,322,21125,5,0,0:0:0:0:
188,279,21278,1,0,0:0:0:0:
194,192,21432,2,0,L|94:248,1,85
28,321,21740,2,0,L|34:215,1,85
39,153,22048,1,0,0:0:0:0:
80,80,22202,1,0,0:0:0:0:
118,153,22355,6,0,L|198:194,1,85
263,246,22663,2,0,L|187:207,1,85
148,282,22971,2,0,L|189:202,1,85
227,121,23278,2,0,P|274:124|333:154,1,85
387,188,23586,5,0,0:0:0:0:
425,112,23740,1,0,0:0:0:0:
464,225,23894,2,0,P|442:273|394:292,1,85
288,256,24202,1,0,0:0:0:0:
346,319,24355,1,0,0:0:0:0:
224,309,24509,1,0,0:0:0:0:
158,256,24663,1,0,0:0:0:0:
103,160,24817,6,0,L|31:226,1,85
88,75,25125,2,0,L|6:144,1,85
62,5,25432,1,0,0:0:0:0:
101,161,25586,2,0,L|142:137,1,42.5
208,94,25894,1,0,0:0:0:0:
273,152,26048,6,0,L|312:66,1,85
369,167,26355,1,0,0:0:0:0:
339,246,26509,1,0,0:0:0:0:
257,248,26663,2,0,L|171:209,1,85
273,152,26970,1,0,0:0:0:0:
219,90,27125,1,0,0:0:0:0:
153,36,27278,6,0,L|113:122,1,85
56,35,27586,1,0,0:0:0:0:
29,113,27740,1,0,0:0:0:0:
70,183,27894,2,0,L|127:97,1,85
229,78,28202,2,0,L|181:170,1,85
143,233,28509,6,0,P|136:285|85:322,1,85
51,234,28817,2,0,P|67:176|107:153,1,85
236,209,29125,2,0,P|254:253|231:293,1,85
84,161,29432,2,0,P|120:133|173:134,1,85
184,136,29663,1,0,0:0:0:0:
205,136,29739,1,0,0:0:0:0:
226,133,29816,1,0,0:0:0:0:
245,125,29893,1,0,0:0:0:0:
346,49,30048,5,0,0:0:0:0:
424,109,30202,1,0,0:0:0:0:
453,209,30355,2,0,P|455:259|408:294,1,85
407,299,30586,1,0,0:0:0:0:
385,300,30662,1,0,0:0:0:0:
366,308,30739,1,0,0:0:0:0:
350,322,30816,1,0,0:0:0:0:
268,380,30971,5,0,0:0:0:0:
207,323,31125,1,0,0:0:0:0:
207,323,31278,2,0,P|183:278|207:244,1,85
229,229,31585,2,0,P|195:201|139:204,1,85
126,208,31893,2,0,P|102:163|126:129,1,85
148,114,32200,6,0,P|114:86|58:89,1,85
36,97,32509,2,0,P|39:56|87:18,1,85
100,0,32817,2,0,P|144:5|181:29,1,85
247,140,33125,2,0,L|265:68,1,68
369,57,33432,6,0,P|404:101|388:156,1,85
375,159,33740,2,0,P|400:195|446:218,1,85
468,239,34048,2,0,P|454:300|425:312,1,85
322,235,34356,2,0,P|319:278|341:325,1,85
375,159,34663,6,0,P|332:135|284:144,1,85
147,215,34971,2,0,P|151:155|192:116,1,85
100,26,35278,2,0,L|101:84,1,42.5
24,121,35586,2,0,L|26:17,1,85
39,136,35894,6,0,L|37:220,1,85
41,262,36202,2,0,P|83:293|84:348,1,85
14,373,36509,1,0,0:0:0:0:
203,311,36663,1,0,0:0:0:0:
198,294,36817,2,0,L|176:243,1,42.5
137,153,37125,6,0,P|193:135|235:167,1,85
249,172,37432,2,0,P|310:149|332:113,1,85
359,62,37740,1,0,0:0:0:0:
433,139,37894,1,0,0:0:0:0:
243,83,38048,2,0,P|188:82|148:131,1,85
230,210,38355,6,0,L|254:159,1,42.5
351,136,38663,1,0,0:0:0:0:
397,205,38817,1,0,0:0:0:0:
422,286,38971,1,0,0:0:0:0:
313,214,39125,1,0,0:0:0:0:
371,353,39278,2,0,L|283:352,1,85
209,239,39586,6,0,P|187:282|208:336,1,85
282,138,39894,2,0,P|310:183|310:230,1,85
213,34,40202,2,0,P|181:78|176:119,1,85
73,182,40509,2,0,P|101:228|99:281,1,85
215,198,40817,6,0,L|215:313,1,85
320,111,41125,2,0,L|320:17,1,85
404,205,41432,2,0,L|404:320,1,85
512,140,41740,2,0,L|512:46,1,85
512,35,41971,1,0,0:0:0:0:
510,17,42048,6,0,P|460:7|420:30,1,85
367,144,42355,2,0,P|327:120|308:78,1,85
299,5,42663,1,0,0:0:0:0:
243,150,42817,1,0,0:0:0:0:
156,260,42971,1,0,0:0:0:0:
116,246,43047,1,0,0:0:0:0:
90,213,43124,1,0,0:0:0:0:
87,171,43201,1,0,0:0:0:0:
108,135,43278,6,0,P|137:88|192:61,1,85
306,97,43586,2,0,P|279:129|242:149,1,85
87,171,43894,1,0,0:0:0:0:
40,241,44048,1,0,0:0:0:0:
39,360,44202,1,0,0:0:0:0:
102,303,44355,6,0,P|155:316|181:357,1,85
