osu file format v14

[General]
AudioFilename: audio2.mp3
AudioLeadIn: 0
PreviewTime: 221715
Countdown: 0
SampleSet: Soft
StackLeniency: 0.4
Mode: 0
LetterboxInBreaks: 0
EpilepsyWarning: 1
WidescreenStoryboard: 1

[Editor]
Bookmarks: 88315,153915,267535
DistanceSpacing: 0.7
BeatDivisor: 4
GridSize: 32
TimelineZoom: 1.75

[Metadata]
Title:Kanade
TitleUnicode:奏
Artist:*namirin
ArtistUnicode:*なみりん
Creator:_Meep_
Version:Kaori
Source:一週間フレンズ。
Tags:isshuukan Friends one week ending ed full version volta arcwinolivirus -_frontier_- comfywolf shockolatte
BeatmapID:1282252
BeatmapSetID:607014

[Difficulty]
HPDrainRate:5
CircleSize:3.7
OverallDifficulty:7
ApproachRate:8
SliderMultiplier:1.2
SliderTickRate:1

[Events]
//Background and Video events
0,0,"more moe.jpg",0,0
//Break Periods
//Storyboard Layer 0 (Background)
//Storyboard Layer 1 (Fail)
//Storyboard Layer 2 (Pass)
//Storyboard Layer 3 (Foreground)
//Storyboard Sound Samples

[TimingPoints]
350,387.096774193548,4,2,1,31,1,0
350,-125,4,2,1,31,0,0
1135,410.958904109589,4,2,2,31,1,8
1960,370.37037037037,4,2,1,31,1,0
2138,370.37037037037,4,2,2,31,1,8
2138,-142.857142857143,4,2,2,31,0,0
2508,-142.857142857143,4,2,1,11,0,0
2698,370.37037037037,4,2,2,31,1,0
3510,400,4,2,1,31,1,0
4370,394.736842105263,4,2,2,31,1,8
5158,387.096774193548,4,2,1,31,1,0
5334,387.096774193548,4,2,2,31,1,8
5334,-142.857142857143,4,2,2,31,0,0
5721,-142.857142857143,4,2,1,11,0,0
5928,387.096774193548,4,2,2,31,1,8
6748,400,4,2,1,31,1,0
7565,400,4,2,2,31,1,8
8378,389.61038961039,4,2,1,31,1,0
8533,389.61038961039,4,2,2,31,1,8
8533,-142.857142857143,4,2,2,31,0,0
8922,-142.857142857143,4,2,1,11,0,0
9117,-142.857142857143,4,2,2,31,0,0
9908,400,4,2,1,31,1,0
10708,-100,4,2,1,15,0,0
11508,-100,4,2,2,31,0,0
11890,400,4,2,1,31,1,8
12302,368.098159509202,4,2,1,15,1,8
12486,-100,4,2,1,31,0,8
12702,400,4,2,2,31,1,8
13119,428.571428571429,4,2,1,31,1,0
13976,-100,4,2,2,31,0,0
14736,389.61038961039,4,2,1,31,1,0
14930,-125,4,2,2,31,0,0
15320,-125,4,2,1,11,0,0
15530,419.58041958042,4,2,2,31,1,8
16357,402.684563758389,4,2,1,31,1,0
17162,387.096774193548,4,2,2,31,1,8
17928,392.156862745098,4,2,1,31,1,0
18124,-125,4,2,2,31,0,0
18516,-125,4,2,1,11,0,0
18718,422.535211267606,4,2,2,31,1,8
19576,397.350993377483,4,2,1,31,1,0
20345,389.61038961039,4,2,2,31,1,8
21124,389.61038961039,4,2,1,31,1,0
21319,-125,4,2,2,31,0,0
21708,-125,4,2,1,11,0,0
21903,387.096774193548,4,2,1,31,1,8
21918,389.61038961039,4,2,2,31,1,8
22710,410.958904109589,4,2,1,31,1,0
23535,392.156862745098,4,2,2,31,1,8
24322,400,4,2,1,31,1,0
24722,384.615384615385,4,2,1,15,1,8
24722,-125,4,2,1,15,0,0
24915,400,4,2,1,31,1,8
25923,400,4,2,1,41,1,0
26723,-100,4,2,2,31,0,0
27123,-100,4,2,1,31,0,0
28323,-100,4,2,2,31,0,0
28523,-100,4,2,1,31,0,0
29923,-100,4,2,2,31,0,0
30323,-100,4,2,1,31,0,0
31523,-100,4,2,2,31,0,0
31723,-100,4,2,1,31,0,0
33123,-100,4,2,2,31,0,0
33523,-100,4,2,1,31,0,0
34723,-100,4,2,2,31,0,0
35123,-100,4,2,1,31,0,0
37123,-100,4,2,2,31,0,0
37323,-100,4,2,1,31,0,0
40723,-100,4,2,2,31,0,0
40923,-100,4,2,2,31,0,0
41323,-100,4,2,1,31,0,0
41915,400,4,2,1,31,1,0
41915,-125,4,2,1,31,0,0
54715,-100,4,2,1,31,0,0
66715,-100,4,2,2,31,0,0
67115,-100,4,2,1,31,0,0
67515,-100,4,2,2,31,0,0
67715,-100,4,2,1,31,0,0
69115,-90.9090909090909,4,2,3,41,0,1
69515,-90.9090909090909,4,2,1,41,0,1
69915,-90.9090909090909,4,2,2,41,0,1
70315,-90.9090909090909,4,2,1,41,0,1
71515,-90.9090909090909,4,2,2,41,0,1
72115,-90.9090909090909,4,2,1,41,0,1
73115,-90.9090909090909,4,2,2,41,0,1
73515,-90.9090909090909,4,2,1,41,0,1
74715,-90.9090909090909,4,2,2,41,0,1
74915,-90.9090909090909,4,2,1,41,0,1
76315,-90.9090909090909,4,2,2,41,0,1
76715,-90.9090909090909,4,2,1,41,0,1
77915,-90.9090909090909,4,2,2,41,0,1
78315,-90.9090909090909,4,2,1,41,0,1
79515,-90.9090909090909,4,2,2,41,0,1
79915,-90.9090909090909,4,2,1,41,0,1
80315,-90.9090909090909,4,2,2,41,0,1
80515,-90.9090909090909,4,2,1,41,0,1
81715,-90.9090909090909,4,2,1,41,0,0
81915,-90.9090909090909,4,2,3,41,0,1
82315,-90.9090909090909,4,2,1,41,0,1
82715,-90.9090909090909,4,2,2,41,0,1
83115,-90.9090909090909,4,2,1,41,0,1
84315,-90.9090909090909,4,2,2,41,0,1
84515,-90.9090909090909,4,2,1,41,0,1
85115,-90.9090909090909,4,2,2,41,0,1
87515,-90.9090909090909,4,2,1,41,0,1
88315,-142.857142857143,4,2,3,31,0,0
88415,-142.857142857143,4,2,1,31,0,0
94715,-125,4,2,2,31,0,0
101115,-125,4,2,1,31,0,0
104315,-125,4,2,2,31,0,0
107515,-125,4,2,1,31,0,0
131515,-100,4,2,1,31,0,0
132315,-100,4,2,2,31,0,0
132715,-100,4,2,1,31,0,0
133115,-100,4,2,2,31,0,0
133315,-100,4,2,1,31,0,0
134715,-90.9090909090909,4,2,3,41,0,1
134815,-90.9090909090909,4,2,1,41,0,1
135515,-90.9090909090909,4,2,2,41,0,1
135715,-90.9090909090909,4,2,1,41,0,1
137115,-90.9090909090909,4,2,2,41,0,1
137715,-90.9090909090909,4,2,1,41,0,1
138715,-90.9090909090909,4,2,2,41,0,1
138915,-90.9090909090909,4,2,1,41,0,1
140315,-90.9090909090909,4,2,2,41,0,1
140515,-90.9090909090909,4,2,1,41,0,1
141915,-90.9090909090909,4,2,2,41,0,1
142115,-90.9090909090909,4,2,1,41,0,1
143515,-90.9090909090909,4,2,2,41,0,1
143715,-90.9090909090909,4,2,1,41,0,1
145115,-90.9090909090909,4,2,2,41,0,1
145315,-90.9090909090909,4,2,1,41,0,1
145915,-90.9090909090909,4,2,2,41,0,1
146115,-90.9090909090909,4,2,1,41,0,1
147315,-90.9090909090909,4,2,1,41,0,0
147515,-90.9090909090909,4,2,3,41,0,1
147615,-90.9090909090909,4,2,1,41,0,1
148315,-90.9090909090909,4,2,2,41,0,1
148515,-90.9090909090909,4,2,1,41,0,1
149915,-90.9090909090909,4,2,2,41,0,1
150115,-90.9090909090909,4,2,1,41,0,1
150715,-90.9090909090909,4,2,2,41,0,1
150915,-90.9090909090909,4,2,1,41,0,1
151515,-90.9090909090909,4,2,2,41,0,1
151715,-90.9090909090909,4,2,1,41,0,1
152315,-90.9090909090909,4,2,2,41,0,1
152515,-90.9090909090909,4,2,1,41,0,1
153915,-142.857142857143,4,2,2,41,0,1
154315,-142.857142857143,4,2,1,41,0,1
154715,-142.857142857143,4,2,2,41,0,1
155915,-142.857142857143,4,2,1,41,0,1
156315,-142.857142857143,4,2,2,41,0,1
156715,-142.857142857143,4,2,1,41,0,1
156915,-142.857142857143,4,2,2,41,0,1
157515,-142.857142857143,4,2,1,41,0,1
157915,-142.857142857143,4,2,2,41,0,1
158315,-142.857142857143,4,2,1,41,0,1
158515,-142.857142857143,4,2,2,41,0,1
158715,-142.857142857143,4,2,1,41,0,1
159515,-142.857142857143,4,2,2,41,0,1
159915,-142.857142857143,4,2,1,41,0,1
160315,-125,4,2,2,41,0,1
160715,-125,4,2,1,41,0,1
161115,-125,4,2,2,41,0,1
161515,-125,4,2,1,41,0,1
161715,-125,4,2,2,41,0,1
161915,-125,4,2,1,41,0,1
162715,-125,4,2,2,41,0,1
162915,-125,4,2,1,41,0,1
163315,-125,4,2,2,41,0,1
163515,-125,4,2,1,41,0,1
164315,-125,4,2,2,41,0,1
164715,-125,4,2,1,41,0,1
164915,-125,4,2,2,41,0,1
165115,-125,4,2,1,41,0,1
166715,-125,4,2,1,31,0,0
167515,-125,4,2,2,31,0,0
167915,-125,4,2,1,31,0,0
168115,-125,4,2,2,31,0,0
168315,-125,4,2,1,31,0,0
169115,-125,4,2,2,31,0,0
169515,-125,4,2,1,31,0,0
170715,-125,4,2,2,31,0,0
171115,-125,4,2,1,31,0,0
171315,-125,4,2,2,31,0,0
171515,-125,4,2,1,31,0,0
171715,-125,4,2,2,31,0,0
171915,-125,4,2,1,31,0,0
172315,-125,4,2,2,31,0,0
172515,-125,4,2,1,31,0,0
173915,-125,4,2,2,31,0,0
174315,-125,4,2,1,31,0,0
174515,-125,4,2,2,31,0,0
174715,-125,4,2,1,31,0,0
175515,-125,4,2,2,31,0,0
175915,-125,4,2,1,31,0,0
176115,-125,4,2,2,31,0,0
176315,-125,4,2,1,31,0,0
177115,-125,4,2,2,31,0,0
177515,-125,4,2,1,31,0,0
178115,-125,4,2,2,31,0,0
178515,-125,4,2,1,31,0,0
179515,-125,4,2,1,41,0,0
179915,-125,4,2,2,41,0,0
181315,-125,4,2,1,41,0,0
181915,-125,4,2,2,41,0,0
182115,-125,4,2,1,41,0,0
183115,-125,4,2,2,41,0,0
183515,-125,4,2,1,41,0,0
183915,-125,4,2,2,41,0,0
184715,-125,4,2,1,41,0,0
185115,-125,4,2,2,41,0,0
185315,-125,4,2,1,41,0,0
185915,-125,4,2,2,41,0,0
186315,-125,4,2,1,41,0,0
186715,-125,4,2,2,41,0,0
188315,-125,4,2,2,41,0,0
188715,-125,4,2,1,41,0,0
188915,-125,4,2,2,41,0,0
189115,-125,4,2,1,41,0,0
189915,-111.111111111111,4,2,2,41,0,0
190315,-111.111111111111,4,2,1,41,0,0
190715,-100,4,2,1,41,0,0
191115,-100,4,2,2,41,0,0
191315,-100,4,2,1,41,0,0
191515,-100,4,2,2,41,0,0
191715,-100,4,2,1,41,0,0
192315,-100,4,2,1,31,0,0
193115,-100,4,2,2,31,0,0
193515,-100,4,2,1,31,0,0
194715,-100,4,2,2,31,0,0
195115,-100,4,2,1,31,0,0
196315,-100,4,2,2,31,0,0
196715,-100,4,2,1,31,0,0
196915,-100,4,2,2,31,0,0
197115,-100,4,2,1,31,0,0
197915,-100,4,2,2,31,0,0
198315,-100,4,2,1,31,0,0
199515,-100,4,2,2,31,0,0
199915,-100,4,2,1,31,0,0
201115,-100,4,2,2,31,0,0
201315,-100,4,2,1,31,0,0
202715,-100,4,2,2,31,0,0
203115,-100,4,2,1,31,0,0
203715,-100,4,2,2,31,0,0
204115,-100,4,2,1,31,0,0
204315,-100,4,2,2,31,0,0
204515,-100,4,2,1,31,0,0
205915,-100,4,2,2,31,0,0
206115,-100,4,2,1,31,0,0
207515,-100,4,2,2,31,0,0
207915,-100,4,2,1,31,0,0
209115,-100,4,2,2,31,0,0
209515,-125,4,2,2,31,0,0
210115,-100,4,2,1,31,0,0
210715,-100,4,2,2,31,0,0
210915,-100,4,2,1,31,0,0
211315,-100,4,2,2,31,0,0
211515,-100,4,2,1,31,0,0
212315,-100,4,2,2,31,0,0
212715,-100,4,2,1,31,0,0
213915,-100,4,2,2,31,0,0
214315,-100,4,2,1,31,0,0
215515,-100,4,2,2,31,0,0
215915,-100,4,2,1,31,0,0
217115,-100,4,2,2,31,0,0
217515,-100,4,2,1,31,0,0
218715,-100,4,2,2,31,0,0
218915,-100,4,2,1,31,0,0
219515,-100,4,2,2,31,0,0
219615,-100,4,2,1,5,0,0
222715,400,4,2,1,16,1,8
222750,400,4,2,2,16,1,0
222750,-142.857142857143,4,2,2,16,0,0
235161,400,4,2,1,16,1,8
235161,-142.857142857143,4,2,1,16,0,0
235561,400,4,2,1,16,1,0
235561,-142.857142857143,4,2,1,16,0,0
238661,400,4,2,1,16,1,8
238747,400,4,2,1,16,1,0
238747,-142.857142857143,4,2,1,16,0,0
241935,400,4,2,1,31,1,0
241935,-142.857142857143,4,2,1,31,0,0
245135,-111.111111111111,4,2,1,41,0,0
245935,-100,4,2,2,41,0,0
246535,-100,4,2,1,41,0,0
248335,-83.3333333333333,4,2,3,51,0,1
248735,-83.3333333333333,4,2,1,51,0,1
249135,-83.3333333333333,4,2,2,51,0,1
249535,-83.3333333333333,4,2,1,51,0,1
250735,-83.3333333333333,4,2,2,51,0,1
250935,-83.3333333333333,4,2,1,51,0,1
252335,-83.3333333333333,4,2,2,51,0,1
252735,-83.3333333333333,4,2,1,51,0,1
253935,-83.3333333333333,4,2,2,51,0,1
254135,-83.3333333333333,4,2,1,51,0,1
255535,-83.3333333333333,4,2,2,51,0,1
255935,-83.3333333333333,4,2,1,51,0,1
256135,-83.3333333333333,4,2,2,51,0,1
256335,-83.3333333333333,4,2,1,51,0,1
257135,-83.3333333333333,4,2,2,51,0,1
257535,-83.3333333333333,4,2,1,51,0,1
258735,-83.3333333333333,4,2,2,51,0,1
258935,-83.3333333333333,4,2,1,51,0,1
260335,-83.3333333333333,4,2,2,51,0,1
260535,-83.3333333333333,4,2,1,51,0,1
260935,-83.3333333333333,4,2,1,51,0,0
261135,-83.3333333333333,4,2,3,51,0,1
261235,-83.3333333333333,4,2,1,51,0,1
261935,-83.3333333333333,4,2,2,51,0,1
262335,-83.3333333333333,4,2,1,51,0,1
263535,-83.3333333333333,4,2,2,51,0,1
263735,-83.3333333333333,4,2,1,51,0,1
264335,-83.3333333333333,4,2,2,51,0,1
264935,-83.3333333333333,4,2,1,51,0,1
265135,-83.3333333333333,4,2,2,51,0,1
265735,-83.3333333333333,4,2,1,51,0,1
265935,-83.3333333333333,4,2,2,51,0,1
266535,-83.3333333333333,4,2,1,51,0,1
267535,-100,4,2,1,51,0,1
269035,-100,4,2,1,5,0,1
269135,-100,4,2,1,51,0,1
270235,-100,4,2,1,5,0,1
270335,-100,4,2,1,51,0,1
270735,-100,4,2,2,51,0,1
271935,-100,4,2,1,51,0,1
272335,-100,4,2,3,51,0,0
273910,400,4,2,1,41,1,8
273935,400,4,2,1,31,1,0
273935,-142.857142857143,4,2,1,31,0,0
286735,-142.857142857143,4,2,1,21,0,0
288735,-142.857142857143,4,2,1,5,0,0
289135,-142.857142857143,4,2,1,21,0,0
291935,-142.857142857143,4,2,1,5,0,0
292335,-142.857142857143,4,2,1,21,0,0
293125,400,4,2,1,31,1,8
293160,400,4,2,1,31,1,0
293160,-166.666666666667,4,2,1,31,0,0
293535,-166.666666666667,4,2,1,16,0,0
293985,400,4,2,1,31,1,0
293985,-166.666666666667,4,2,1,31,0,0
294460,-166.666666666667,4,2,1,16,0,0
294794,387.096774193548,4,2,1,31,1,8
294840,400,4,2,1,31,1,0
295040,400,4,2,1,31,1,8
295040,-166.666666666667,4,2,1,31,0,0
297140,-166.666666666667,4,2,1,16,0,0
298240,-166.666666666667,4,2,1,11,0,0
301440,-166.666666666667,4,2,1,5,0,0

[Colours]
Combo1 : 255,145,145
Combo2 : 255,185,115
Combo3 : 157,201,255
Combo4 : 255,149,255
SliderBorder : 192,192,192
SliderTrackOverride : 70,60,80

[HitObjects]
103,191,350,5,2,0:0:0:0:
265,173,1135,1,2,0:0:0:0:
107,195,1960,5,2,0:0:0:0:
107,195,2138,2,0,L|198:185,1,83.9999974365235,2|0,0:0|0:0,3:0:0:0:
265,173,2698,1,2,0:0:0:0:
454,156,3510,5,2,0:0:0:0:
316,212,4370,1,2,0:0:0:0:
458,160,5158,5,2,0:0:0:0:
458,160,5334,2,0,P|431:152|367:172,1,83.9999974365235,2|0,0:0|0:0,3:0:0:0:
316,212,5928,1,2,0:0:0:0:
117,336,6748,5,2,0:0:0:0:
228,247,7565,1,2,0:0:0:0:
121,340,8378,5,2,0:0:0:0:
121,340,8533,2,0,B|163:340|163:340|207:310,1,83.9999974365235,2|0,0:0|0:0,3:0:0:0:
228,247,9117,1,2,0:0:0:0:
296,58,9908,5,2,0:0:0:0:
256,261,10708,1,10,0:0:0:0:
296,58,11508,5,2,0:0:0:0:
274,175,11890,1,10,0:0:0:0:
118,105,12302,2,0,P|148:100|181:106,1,60,10|8,0:0|0:0,3:0:0:0:
274,175,12702,1,2,0:0:0:0:
30,201,13119,5,2,0:0:0:0:
205,210,13976,1,2,0:0:0:0:
33,205,14736,5,2,0:0:0:0:
33,205,14930,2,0,L|132:191,1,96,2|0,0:0|0:0,3:0:0:0:
205,210,15530,1,2,0:0:0:0:
382,166,16357,5,2,0:0:0:0:
263,68,17162,1,2,0:0:0:0:
385,169,17928,5,2,0:0:0:0:
385,169,18124,2,0,P|348:170|293:138,1,96,2|0,0:0|0:0,3:0:0:0:
263,68,18718,1,2,0:0:0:0:
96,24,19576,5,2,0:0:0:0:
96,195,20345,1,2,0:0:0:0:
99,28,21124,5,10,0:0:0:0:
99,28,21318,2,0,B|80:77|80:77|86:152,1,120,2|0,0:0|0:0,3:0:0:0:
103,233,21918,1,2,0:0:0:0:
80,331,22710,5,2,0:0:0:0:
228,228,23535,1,2,0:0:0:0:
80,331,24322,5,2,0:0:0:0:
228,228,24722,1,10,0:0:0:0:
232,330,24915,6,0,L|216:384,2,30,4|4|4,0:0|0:0|0:0,0:0:0:0:
288,145,25315,1,12,0:0:0:0:
317,300,25515,1,4,0:0:0:0:
383,208,25715,1,2,0:0:0:0:
459,299,25923,6,0,L|337:314,2,120,2|4|8,0:0|0:0|0:0,0:0:0:0:
272,361,27123,2,0,P|235:347|206:348,1,60,2|0,0:0|0:0,0:0:0:0:
136,348,27523,2,0,L|14:358,1,120,2|8,0:0|0:0,0:0:0:0:
131,200,28323,5,8,0:0:0:0:
190,250,28523,2,0,L|309:240,1,120,8|8,0:0|0:0,0:0:0:0:
396,146,29123,6,0,P|402:107|353:18,2,120,2|4|8,0:0|0:0|0:0,0:0:0:0:
245,274,30323,2,0,P|277:254|305:248,1,60,2|0,0:0|0:0,0:0:0:0:
373,227,30723,2,0,L|250:206,1,120,2|8,0:0|0:0,0:0:0:0:
131,115,31523,5,8,0:0:0:0:
84,177,31723,1,2,0:0:0:0:
66,252,31923,2,0,P|68:269|98:324,1,60,8|10,0:0|0:0,0:0:0:0:
207,360,32323,6,0,P|256:325|335:327,2,120,2|4|8,0:0|0:0|0:0,0:0:0:0:
161,214,33523,2,0,P|157:174|162:145,1,60,2|0,0:0|0:0,0:0:0:0:
206,92,33923,2,0,P|143:108|69:123,1,120,2|8,0:0|0:0,0:0:0:0:
12,292,34723,5,8,0:0:0:0:
132,315,35123,2,0,P|161:313|188:300,1,60,8|8,0:0|0:0,0:0:0:0:
240,236,35523,6,0,B|263:195|245:151|245:151|222:99|302:68|334:149|272:179,1,240,10|2,0:0|0:0,0:0:0:0:
164,189,36923,6,0,L|121:193,2,30,4|4|8,0:0|0:0|0:0,0:0:0:0:
359,220,37523,2,0,L|240:235,1,120,2|8,0:0|0:0,0:0:0:0:
319,28,38323,1,14,0:0:0:0:
256,192,38423,12,2,39523,0:0:0:0:
107,133,40123,5,2,0:0:0:0:
107,133,40223,1,2,0:0:0:0:
107,133,40323,2,0,L|181:128,1,60,12|8,0:0|0:0,0:0:0:0:
259,206,40723,1,8,0:0:0:0:
379,201,40923,2,0,L|259:207,1,120,8|4,0:0|0:0,0:0:0:0:
326,296,41523,1,12,0:0:0:0:
326,296,41915,6,0,P|310:246|327:189,1,96
453,56,42715,1,8,1:0:0:0:
453,56,43115,2,0,L|397:59,1,48
326,105,43515,6,0,L|214:99,1,96,0|4,0:0|0:0,0:0:0:0:
48,84,44315,1,8,1:0:0:0:
48,84,44715,2,0,P|40:112|34:145,1,48
61,218,45115,5,4,0:0:0:0:
165,299,45515,1,0,0:0:0:0:
252,197,45915,2,0,L|244:90,2,96,8|4|0,1:0|0:0|0:0,0:0:0:0:
165,299,47115,1,4,0:0:0:0:
298,330,47515,1,8,1:0:0:0:
252,197,47915,2,0,L|321:193,1,48
383,167,48315,6,0,P|377:215|375:276,1,96,4|0,0:0|0:0,0:0:0:0:
501,325,49115,2,0,P|506:276|509:216,1,96,8|0,1:0|0:0,0:0:0:0:
405,80,49915,2,0,L|294:84,2,96,0|4|8,0:0|0:0|1:0,0:0:0:0:
294,229,51315,5,0,0:0:0:0:
232,161,51515,2,0,L|244:59,1,96,4|0,0:0|0:0,0:0:0:0:
144,189,52315,2,0,L|156:87,1,96,8|0,1:0|0:0,0:0:0:0:
5,266,53115,6,0,B|49:236|98:265|98:265|149:295|205:253,1,192,10|4,0:0|0:0,0:0:0:0:
187,265,54315,1,6,0:0:0:0:
369,293,54715,6,0,L|364:158,1,120,2|8,0:0|0:0,0:0:0:0:
358,83,55315,1,2,0:0:0:0:
283,134,55515,2,0,P|214:136|153:99,1,120,8|8,1:0|0:0,0:0:0:0:
7,248,56315,6,0,P|70:222|140:236,2,120,2|4|8,0:0|0:0|1:0,0:0:0:0:
188,284,57515,2,0,L|253:278,1,60,2|8,0:0|0:0,0:0:0:0:
319,222,57915,6,0,B|336:168|314:103|314:103|382:134,1,180
450,162,58715,2,0,B|478:178|478:178|487:287,1,120,8|0,1:0|0:0,0:0:0:0:
261,318,59515,6,0,P|315:340|372:325,1,120,10|4,0:0|0:0,0:0:0:0:
450,162,60315,1,8,1:0:0:0:
356,131,60515,1,2,0:0:0:0:
318,222,60715,2,0,P|289:205|262:166,1,60
178,210,61115,6,0,P|172:265|168:329,2,120,2|2|8,0:0|0:0|1:0,0:0:0:0:
361,103,62315,2,0,P|321:122|303:146,1,60,2|8,0:0|0:0,0:0:0:0:
383,195,62715,2,0,L|511:191,2,120,8|4|8,0:0|0:0|1:0,0:0:0:0:
196,255,63915,2,0,L|126:252,1,60,2|2,0:0|0:0,0:0:0:0:
68,192,64315,6,0,P|51:148|57:68,1,120,14|2,0:0|0:0,0:0:0:0:
128,24,64915,1,2,0:0:0:0:
203,75,65115,2,0,P|208:102|206:133,1,60,8|0,1:0|0:0,0:0:0:0:
283,221,65515,2,0,P|279:192|283:162,1,60,10|0,0:0|0:0,0:0:0:0:
278,43,65915,6,0,P|290:100|283:160,1,120,14|4,0:0|0:0,0:0:0:0:
178,22,66715,1,8,0:0:0:0:
278,245,67115,2,0,P|275:287|263:317,1,60,8|4,0:0|0:0,0:0:0:0:
249,326,67415,1,4,0:0:0:0:
222,339,67515,2,0,P|191:342|142:317,1,60,8|0,0:0|0:0,0:0:0:0:
71,261,67915,1,8,0:0:0:0:
181,227,68115,5,4,0:0:0:0:
60,100,68315,1,6,0:0:0:0:
227,47,68515,1,12,0:0:0:0:
44,16,68715,2,0,L|38:84,1,60,6|12,0:0|0:0,0:0:0:0:
166,195,69115,6,0,P|216:192|276:129,1,132.00000402832,12|12,0:0|0:0,0:0:0:0:
158,20,69715,1,10,0:0:0:0:
142,40,69915,2,0,L|153:181,1,132.00000402832,8|2,0:0|0:0,0:0:0:0:
69,377,70715,6,0,P|67:332|79:295,1,66.0000020141602,10|0,0:0|0:0,0:0:0:0:
139,239,71115,2,0,P|183:232|221:240,1,66.0000020141602,4|0,0:0|0:0,0:0:0:0:
283,293,71515,1,8,0:0:0:0:
283,293,71715,2,0,B|328:311|328:311|430:296,1,132.00000402832,0|2,0:0|0:0,0:0:0:0:
425,108,72315,6,0,P|363:86|296:90,2,132.00000402832,8|4|8,0:0|0:0|0:0,0:0:0:0:
218,214,73515,2,0,P|182:210|148:196,1,66.0000020141602,2|2,0:0|0:0,0:0:0:0:
151,28,73915,5,10,0:0:0:0:
208,112,74115,1,10,0:0:0:0:
108,122,74315,1,4,0:0:0:0:
228,92,74515,1,2,0:0:0:0:
327,182,74715,2,0,P|329:214|323:247,1,66.0000020141602,10|8,0:0|0:0,0:0:0:0:
159,243,75115,2,0,P|185:224|217:213,1,66.0000020141602,10|8,0:0|0:0,0:0:0:0:
235,319,75515,6,0,L|86:337,1,132.00000402832,10|4,0:0|0:0,0:0:0:0:
23,254,76115,1,0,0:0:0:0:
8,232,76315,2,0,P|5:144|33:91,1,132.00000402832,10|2,0:0|0:0,0:0:0:0:
254,60,77115,6,0,P|248:153|238:205,2,132.00000402832,10|4|8,0:0|0:0|0:0,0:0:0:0:
382,215,78315,2,0,P|381:276|392:304,1,66.0000020141602,2|8,0:0|0:0,0:0:0:0:
343,366,78715,6,0,B|273:391|215:353|215:353,1,132.00000402832,10|4,0:0|0:0,0:0:0:0:
306,174,79515,1,8,0:0:0:0:
110,111,79915,2,0,P|100:153|106:200,1,66.0000020141602,8|4,0:0|0:0,0:0:0:0:
108,207,80215,1,4,0:0:0:0:
125,234,80315,6,0,P|167:244|214:238,1,66.0000020141602,8|8,0:0|0:0,0:0:0:0:
306,174,80715,2,0,P|308:130|294:85,1,66.0000020141602,10|6,0:0|0:0,0:0:0:0:
178,128,81115,1,6,0:0:0:0:
231,20,81315,1,4,0:0:0:0:
167,148,81515,1,12,0:0:0:0:
280,257,81715,1,14,0:0:0:0:
133,295,81915,6,0,L|-10:292,2,132.00000402832,8|4|8,0:0|0:0|0:0,0:0:0:0:
386,312,83115,2,0,P|423:320|466:343,1,66.0000020141602,2|8,0:0|0:0,0:0:0:0:
480,259,83515,2,0,P|476:323|513:378,2,132.00000402832,10|4|8,0:0|0:0|0:0,0:0:0:0:
417,183,84515,2,0,L|273:195,1,132.00000402832,10|8,0:0|0:0,0:0:0:0:
189,218,85115,6,0,B|154:238|110:222|110:222|172:175|152:98,1,198.000006042481,12|0,0:0|0:0,0:0:0:0:
45,134,85915,2,0,P|2:211|42:310,1,198.000006042481,12|0,0:0|0:0,0:0:0:0:
145,354,86715,2,0,B|226:341|226:341|276:355|276:355|355:342,1,198.000006042481,12|0,0:0|0:0,0:0:0:0:
409,242,87515,5,6,0:0:0:0:
287,257,87715,1,12,0:0:0:0:
379,147,87915,2,0,L|387:218,1,66.0000020141602,14|2,0:0|0:0,0:0:0:0:
274,79,88315,6,0,B|250:44|213:22|213:22|187:54|174:96|174:96|131:86|89:114,1,251.999992309571,8|12,0:0|0:0,0:0:0:0:
93,110,89915,6,0,B|26:164|67:244|67:244|149:253|154:189|154:189,1,251.999992309571,10|4,0:0|0:0,0:0:0:0:
150,202,91515,6,0,B|193:167|240:181|240:181|266:148|266:148|325:172|373:126,1,251.999992309571,10|8,0:0|0:0,0:0:0:0:
410,45,92915,1,2,0:0:0:0:
456,158,93115,6,0,B|480:235|480:235|466:287,2,125.999996154785,10|0|0,0:0|0:0|0:0,0:0:0:0:
256,192,94715,5,10,0:0:0:0:
190,137,95115,2,0,P|160:124|97:130,2,96,2|2|2,0:0|0:0|0:0,0:0:0:0:
137,216,96315,2,0,L|155:23,1,192,2|0,0:0|0:0,0:0:0:0:
256,192,97915,5,2,0:0:0:0:
342,233,98315,2,0,L|441:226,2,96,2|2|2,0:0|0:0|0:0,0:0:0:0:
264,287,99515,2,0,L|72:302,1,192,2|0,0:0|0:0,0:0:0:0:
255,192,101115,5,2,0:0:0:0:
255,192,102515,6,0,P|246:220|245:229,2,24,2|8|2,0:0|0:0|0:0,0:0:0:0:
255,192,103515,1,0,0:0:0:0:
297,103,103915,1,0,0:0:0:0:
255,192,104315,6,0,L|368:175,1,96,2|0,0:0|0:0,0:0:0:0:
203,118,105115,2,0,L|316:101,1,96,2|0,0:0|0:0,0:0:0:0:
495,117,105915,6,0,L|401:103,1,96,2|0,0:0|0:0,0:0:0:0:
443,191,106715,2,0,L|349:177,1,96,2|0,0:0|0:0,0:0:0:0:
200,246,107515,6,0,P|153:226|98:219,2,96,2|4|8,0:0|0:0|1:0,0:0:0:0:
382,341,108715,1,0,0:0:0:0:
444,179,109115,6,0,B|431:79|431:79,2,96
305,303,110315,2,0,P|271:306|252:301,1,48,0|0,0:0|0:0,0:0:0:0:
193,237,110715,6,0,P|184:193|187:122,2,96,0|4|8,0:0|0:0|1:0,0:0:0:0:
65,349,111915,2,0,P|32:357|-2:353,1,48,0|0,0:0|0:0,0:0:0:0:
81,265,112315,6,0,P|122:287|146:328,2,96,0|0|8,0:0|0:0|1:0,0:0:0:0:
257,223,113515,2,0,P|283:217|314:216,1,48,0|0,0:0|0:0,0:0:0:0:
394,229,113915,6,0,L|503:245,2,96,0|4|8,0:0|0:0|1:0,0:0:0:0:
449,122,115115,2,0,L|454:70,1,48,2|0,0:0|0:0,0:0:0:0:
388,10,115515,6,0,P|352:5|289:32,1,96,2|8,0:0|0:0,0:0:0:0:
309,207,116315,2,0,L|364:106,1,96,8|0,1:0|0:0,0:0:0:0:
441,94,116915,1,8,0:0:0:0:
500,165,117115,6,0,B|507:203|475:255|475:255|447:294|453:346|453:346|408:317|365:313|365:313|348:344|314:360|314:360,1,336,8|0,0:0|0:0,0:0:0:0:
247,374,118715,2,0,P|205:372|157:332,1,96
65,175,119515,5,4,0:0:0:0:
127,252,119715,1,4,0:0:0:0:
225,246,119915,2,0,L|286:242,1,48,12|0,0:0|0:0,0:0:0:0:
164,166,120315,6,0,L|260:159,1,96,10|0,0:0|0:0,0:0:0:0:
335,188,120915,1,0,0:0:0:0:
354,202,121115,2,0,P|401:204|444:183,1,96,8|8,1:0|0:0,0:0:0:0:
321,2,121915,6,0,L|312:102,2,96,0|4|8,0:0|0:0|1:0,0:0:0:0:
405,263,123115,2,0,L|399:326,1,48,2|0,0:0|0:0,0:0:0:0:
328,374,123515,6,0,B|297:379|272:370|272:370|244:362|212:370,2,96,2|0|8,0:0|0:0|1:0,0:0:0:0:
253,228,124715,2,0,P|229:224|207:215,1,48,2|0,0:0|0:0,0:0:0:0:
124,187,125115,6,0,L|117:295,1,96,2|4,0:0|0:0,0:0:0:0:
256,137,125915,1,8,1:0:0:0:
256,137,126315,2,0,P|285:137|316:130,1,48,8|2,0:0|0:0,0:0:0:0:
386,105,126715,6,0,P|424:122|499:120,2,96,2|0|8,0:0|0:0|1:0,0:0:0:0:
246,8,127915,2,0,L|192:12,1,48,2|0,0:0|0:0,0:0:0:0:
120,67,128315,6,0,P|113:116|109:179,1,96,2|4,0:0|0:0,0:0:0:0:
142,298,129115,1,8,1:0:0:0:
142,298,129515,2,0,P|178:287|200:289,1,48,2|2,0:0|0:0,0:0:0:0:
277,321,129915,6,0,P|320:305|381:307,2,96,2|0|8,0:0|0:0|1:0,0:0:0:0:
50,289,131115,2,0,P|73:291|95:300,1,48,8|0,0:0|0:0,0:0:0:0:
164,376,131515,6,0,L|183:251,1,120,14|4,0:0|0:0,0:0:0:0:
48,77,132315,1,8,0:0:0:0:
191,115,132715,2,0,P|233:114|255:106,1,60,8|4,0:0|0:0,0:0:0:0:
272,89,133015,1,4,0:0:0:0:
297,72,133115,2,0,P|320:67|359:71,1,60,8|2,0:0|0:0,0:0:0:0:
460,170,133515,1,8,0:0:0:0:
337,172,133715,5,12,0:0:0:0:
337,172,133815,1,12,0:0:0:0:
337,172,133915,1,12,0:0:0:0:
243,275,134115,1,6,0:0:0:0:
191,115,134315,2,0,L|205:34,1,60,12|6,0:0|0:0,0:0:0:0:
152,193,134715,6,0,P|189:202|266:158,1,132.00000402832,12|4,0:0|0:0,0:0:0:0:
375,59,135315,1,10,0:0:0:0:
361,81,135515,2,0,P|347:147|345:242,1,132.00000402832,8|0,0:0|0:0,0:0:0:0:
169,112,136315,6,0,P|130:113|104:121,1,66.0000020141602,10|0,0:0|0:0,0:0:0:0:
0,187,136715,2,0,P|39:188|65:196,1,66.0000020141602,4|0,0:0|0:0,0:0:0:0:
131,258,137115,1,8,0:0:0:0:
131,258,137315,2,0,P|192:269|265:227,1,132.00000402832,0|2,0:0|0:0,0:0:0:0:
386,164,137915,6,0,B|377:265|377:265|404:315,2,132.00000402832,10|4|8,0:0|0:0|0:0,0:0:0:0:
326,33,139115,2,0,P|288:22|259:25,1,66.0000020141602,2|8,0:0|0:0,0:0:0:0:
160,64,139515,5,10,0:0:0:0:
285,120,139715,1,10,0:0:0:0:
154,194,139915,1,4,0:0:0:0:
309,118,140115,1,2,0:0:0:0:
273,204,140315,2,0,P|265:236|267:269,1,66.0000020141602,8|0,0:0|0:0,0:0:0:0:
412,272,140715,2,0,P|384:254|352:245,1,66.0000020141602,2|8,0:0|0:0,0:0:0:0:
179,298,141115,6,0,P|179:192|189:164,1,132.00000402832,10|4,0:0|0:0,0:0:0:0:
263,74,141715,1,10,0:0:0:0:
283,57,141915,2,0,L|431:48,1,132.00000402832,8|2,0:0|0:0,0:0:0:0:
177,19,142715,6,0,P|107:13|32:9,2,132.00000402832,10|4|8,0:0|0:0|0:0,0:0:0:0:
388,165,143915,2,0,P|353:155|316:155,1,66.0000020141602,2|8,0:0|0:0,0:0:0:0:
239,187,144315,6,0,L|222:318,1,132.00000402832,10|4,0:0|0:0,0:0:0:0:
110,206,145115,1,8,0:0:0:0:
355,244,145515,2,0,L|369:160,1,66.0000020141602,8|4,0:0|0:0,0:0:0:0:
374,146,145815,1,4,0:0:0:0:
380,113,145915,6,0,P|382:75|368:38,1,66.0000020141602,8|4,0:0|0:0,0:0:0:0:
178,40,146315,2,0,P|195:73|225:98,1,66.0000020141602,10|4,0:0|0:0,0:0:0:0:
220,114,146615,1,0,0:0:0:0:
239,126,146715,1,6,0:0:0:0:
299,26,146915,1,4,0:0:0:0:
380,113,147115,1,12,0:0:0:0:
293,0,147315,1,14,0:0:0:0:
238,181,147515,6,0,P|177:183|110:124,2,132.00000402832,8|4|8,0:0|0:0|0:0,0:0:0:0:
394,32,148715,2,0,L|385:114,1,66.0000020141602,2|8,0:0|0:0,0:0:0:0:
330,173,149115,2,0,B|364:196|364:196|462:181,2,132.00000402832,10|4|8,0:0|0:0|0:0,0:0:0:0:
217,211,150115,2,0,P|262:171|344:181,1,132.00000402832,8|8,0:0|0:0,0:0:0:0:
295,254,150715,6,0,B|344:286|344:286|488:263,1,198.000006042481,4|8,0:0|0:0,0:0:0:0:
438,194,151515,2,0,P|402:243|488:347,1,198.000006042481,4|8,0:0|0:0,0:0:0:0:
481,263,152315,2,0,B|471:217|437:195|437:195|507:165|510:86,1,198.000006042481,4|8,0:0|0:0,0:0:0:0:
468,28,153115,6,0,L|382:22,1,66.0000020141602,6|4,0:0|0:0,0:0:0:0:
345,116,153515,1,12,0:0:0:0:
439,195,153715,1,14,0:0:0:0:
277,192,153915,6,0,P|248:146|244:106,2,83.9999974365235,4|4|8,0:0|0:0|0:0,0:0:0:0:
439,332,155115,2,0,B|414:313|389:310,1,41.9999987182618,2|2,0:0|0:0,0:0:0:0:
320,359,155515,6,0,L|224:353,1,83.9999974365235,4|4,0:0|0:0,0:0:0:0:
139,291,156115,1,8,0:0:0:0:
124,272,156315,2,0,L|220:266,1,83.9999974365235,8|8,0:0|0:0,0:0:0:0:
350,263,156915,1,8,0:0:0:0:
373,262,157015,1,8,0:0:0:0:
396,261,157115,1,12,0:0:0:0:
396,261,157515,6,0,P|393:234|383:211,1,41.9999987182618,4|2,0:0|0:0,0:0:0:0:
352,339,157915,2,0,P|381:351|438:341,1,83.9999974365235,8|8,0:0|0:0,0:0:0:0:
480,270,158515,1,8,0:0:0:0:
375,199,158715,6,0,L|380:142,2,41.9999987182618,8|8|8,0:0|0:0|0:0,0:0:0:0:
163,352,159515,2,0,L|152:262,1,83.9999974365235,12|4,0:0|0:0,0:0:0:0:
39,276,160115,1,6,0:0:0:0:
84,141,160315,6,0,L|181:134,1,96,12|8,0:0|0:0,0:0:0:0:
240,208,160915,1,2,0:0:0:0:
294,130,161115,2,0,P|324:108|393:104,1,96,8|8,0:0|0:0,0:0:0:0:
449,169,161715,1,8,0:0:0:0:
465,264,161915,6,0,L|460:314,1,48,8|2,0:0|0:0,0:0:0:0:
381,228,162315,2,0,L|376:278,1,48,8|2,0:0|0:0,0:0:0:0:
293,244,162715,2,0,L|288:294,1,48,8|2,0:0|0:0,0:0:0:0:
212,201,163115,2,0,L|207:251,1,48,8|8,0:0|0:0,0:0:0:0:
118,287,163515,6,0,L|128:175,1,96,2|4,0:0|0:0,0:0:0:0:
333,112,164315,1,12,0:0:0:0:
244,0,164715,2,0,L|239:55,1,48,8|8,0:0|0:0,0:0:0:0:
227,156,165115,5,2,0:0:0:0:
128,126,165315,1,8,0:0:0:0:
188,250,165515,1,2,0:0:0:0:
52,244,165715,5,6,0:0:0:0:
52,244,165815,1,6,0:0:0:0:
52,244,165915,1,6,0:0:0:0:
115,351,166115,1,4,0:0:0:0:
188,250,166315,2,0,P|227:241|250:242,1,48,12|14,0:0|0:0,0:0:0:0:
326,253,166715,6,0,L|438:234,1,96,14|0,0:0|0:0,0:0:0:0:
226,102,167515,2,0,L|338:121,1,96,8|8,0:0|0:0,0:0:0:0:
394,181,168115,1,8,0:0:0:0:
326,253,168315,6,0,P|294:256|262:250,2,48,2|8|2,0:0|0:0|0:0,0:0:0:0:
131,118,169115,2,0,L|243:99,1,96,10|8,0:0|0:0,0:0:0:0:
435,139,169915,6,0,P|444:93|449:26,2,96,10|12|10,0:0|0:0|0:0,0:0:0:0:
325,278,171115,2,0,L|331:326,1,48,8|8,0:0|0:0,0:0:0:0:
254,234,171515,6,0,P|249:196|253:169,1,48,8|8,0:0|0:0,0:0:0:0:
325,278,171915,1,10,0:0:0:0:
395,229,172115,1,8,0:0:0:0:
303,291,172315,5,8,0:0:0:0:
417,212,172515,1,10,0:0:0:0:
416,350,172715,1,8,0:0:0:0:
416,350,173115,6,0,B|347:357|347:357|299:331|299:331|219:340,1,192,10|8,0:0|0:0,0:0:0:0:
85,361,174315,2,0,P|93:325|88:302,1,48,8|8,0:0|0:0,0:0:0:0:
68,231,174715,6,0,L|55:170,2,48,2|8|2,0:0|0:0|0:0,0:0:0:0:
168,41,175515,2,0,P|193:30|224:25,2,48,8|8|2,0:0|0:0|0:0,0:0:0:0:
219,110,176115,1,8,0:0:0:0:
230,131,176315,6,0,L|348:143,1,96,10|8,0:0|0:0,0:0:0:0:
150,285,177115,2,0,L|245:275,1,96,8|8,0:0|0:0,0:0:0:0:
81,77,177915,2,0,L|140:82,1,48,8|8,0:0|0:0,0:0:0:0:
146,98,178215,1,8,0:0:0:0:
169,100,178315,1,8,0:0:0:0:
229,186,178515,1,8,0:0:0:0:
154,294,178715,6,0,P|130:302|91:301,1,48,6|4,0:0|0:0,0:0:0:0:
215,196,179115,1,12,0:0:0:0:
234,348,179315,1,14,0:0:0:0:
354,253,179515,5,14,0:0:0:0:
154,294,179915,1,10,0:0:0:0:
297,162,180315,1,10,0:0:0:0:
290,19,180715,6,0,L|298:168,1,144,14|8,0:0|0:0,0:0:0:0:
382,300,181515,1,2,0:0:0:0:
286,273,181715,6,0,L|244:281,2,24,4|4|10,0:0|0:0|0:0,0:0:0:0:
422,210,182115,1,4,0:0:0:0:
284,185,182315,1,12,0:0:0:0:
418,124,182515,1,6,0:0:0:0:
273,101,182715,5,14,0:0:0:0:
100,6,183115,1,10,0:0:0:0:
146,226,183515,1,12,0:0:0:0:
38,94,183915,6,0,L|21:255,1,144,14|8,0:0|0:0,0:0:0:0:
71,338,184715,1,8,0:0:0:0:
177,307,184915,6,0,L|206:313,2,24,4|4|8,0:0|0:0|0:0,0:0:0:0:
171,191,185315,1,4,0:0:0:0:
279,147,185515,1,12,0:0:0:0:
258,254,185715,1,6,0:0:0:0:
371,309,185915,6,0,P|368:270|382:196,2,96,14|4|8,0:0|0:0|0:0,0:0:0:0:
258,356,187115,6,0,P|271:258|276:144,1,192,4|0,0:0|0:0,0:0:0:0:
275,165,188315,1,8,0:0:0:0:
275,165,188715,1,2,0:0:0:0:
204,279,188915,1,8,0:0:0:0:
339,284,189115,6,0,L|451:272,1,96,10|8,0:0|0:0,0:0:0:0:
511,72,189915,2,0,L|399:84,1,107.999996704102,10|8,0:0|0:0,0:0:0:0:
333,177,190515,1,8,0:0:0:0:
236,263,190715,6,0,P|188:244|163:247,1,60,8|4,0:0|0:0,0:0:0:0:
150,247,191015,1,4,0:0:0:0:
122,258,191115,1,8,0:0:0:0:
173,354,191315,1,10,0:0:0:0:
40,309,191515,2,0,P|25:257|32:231,1,60,8|8,0:0|0:0,0:0:0:0:
114,138,191915,5,4,0:0:0:0:
117,177,192048,5,4,0:0:0:0:
122,216,192181,5,4,0:0:0:0:
127,255,192315,6,0,L|156:102,1,120,14|8,0:0|0:0,0:0:0:0:
260,14,193115,2,0,L|231:167,1,120,8|8,0:0|0:0,0:0:0:0:
265,214,193715,1,2,0:0:0:0:
386,263,193915,6,0,P|416:259|501:206,2,120,10|4|8,0:0|0:0|0:0,0:0:0:0:
234,331,195115,2,0,P|193:318|148:319,1,60,2|8,0:0|0:0,0:0:0:0:
82,356,195515,6,0,L|110:221,1,120,10|4,0:0|0:0,0:0:0:0:
215,81,196315,1,8,0:0:0:0:
215,81,196715,2,0,P|264:89|295:84,1,60,2|8,0:0|0:0,0:0:0:0:
349,67,197115,6,0,P|360:102|381:129,2,60,8|2|4,0:0|0:0|0:0,0:0:0:0:
431,262,197915,2,0,L|312:274,1,120,8|8,0:0|0:0,0:0:0:0:
228,321,198515,1,10,0:0:0:0:
235,225,198715,6,0,P|270:193|356:197,2,120,10|4|8,0:0|0:0|0:0,0:0:0:0:
52,289,199915,2,0,L|72:222,1,60,8|2,0:0|0:0,0:0:0:0:
0,156,200315,2,0,B|132:139,1,120,8|4,0:0|0:0,0:0:0:0:
259,175,201115,2,0,L|318:166,1,60,8|0,0:0|0:0,0:0:0:0:
434,131,201515,2,0,P|420:156|414:186,1,60,2|0,0:0|0:0,0:0:0:0:
458,309,201915,6,0,P|479:265|504:245,1,60
427,331,202315,2,0,L|353:334,1,60,4|2,0:0|0:0,0:0:0:0:
227,334,202715,2,0,P|282:324|340:359,1,120,8|2,0:0|0:0,0:0:0:0:
210,183,203515,6,0,P|209:154|224:107,2,60,10|8|8,0:0|0:0|0:0,0:0:0:0:
237,277,204115,1,8,0:0:0:0:
141,255,204315,2,0,P|122:231|110:204,1,60,8|8,0:0|0:0,0:0:0:0:
110,204,204915,1,2,0:0:0:0:
144,101,205115,6,0,L|275:72,1,120,10|4,0:0|0:0,0:0:0:0:
332,126,205715,1,0,0:0:0:0:
346,145,205915,2,0,P|384:156|458:116,1,120,8|2,0:0|0:0,0:0:0:0:
388,73,206515,1,0,0:0:0:0:
307,52,206715,6,0,P|320:25|342:5,1,60,10|2,0:0|0:0,0:0:0:0:
237,116,207115,2,0,P|225:90|202:70,1,60,4|8,0:0|0:0,0:0:0:0:
284,196,207515,1,8,0:0:0:0:
284,196,207915,2,0,L|348:196,1,60,2|8,0:0|0:0,0:0:0:0:
354,285,208315,6,0,L|225:285,1,120,10|12,0:0|0:0,0:0:0:0:
140,314,208915,1,2,0:0:0:0:
209,384,209115,1,8,0:0:0:0:
209,384,209515,6,0,L|223:228,1,144,12|2,0:0|0:0,0:0:0:0:
322,194,210315,1,8,0:0:0:0:
267,111,210515,5,4,0:0:0:0:
243,92,210615,1,4,0:0:0:0:
215,80,210715,2,0,P|171:80|136:91,1,60,8|8,0:0|0:0,0:0:0:0:
28,80,211115,1,2,0:0:0:0:
89,158,211315,1,8,0:0:0:0:
40,249,211515,5,14,0:0:0:0:
163,223,211715,1,2,0:0:0:0:
119,350,211915,1,12,0:0:0:0:
170,201,212115,1,8,0:0:0:0:
264,316,212315,2,0,L|125:329,1,120,8|4,0:0|0:0,0:0:0:0:
270,221,212915,1,0,0:0:0:0:
297,76,213115,6,0,P|304:105|303:135,1,60,4|8,0:0|0:0,0:0:0:0:
371,265,213515,2,0,P|364:236|366:207,1,60,4|8,0:0|0:0,0:0:0:0:
203,344,213915,2,0,P|253:315|312:322,1,120,4|4,0:0|0:0,0:0:0:0:
391,353,214515,1,0,0:0:0:0:
481,260,214715,6,0,L|470:131,1,120,4|4,0:0|0:0,0:0:0:0:
411,67,215315,1,2,0:0:0:0:
388,47,215515,2,0,P|333:42|264:92,1,120,8|8,0:0|0:0,0:0:0:0:
216,151,216115,1,2,0:0:0:0:
98,172,216315,6,0,L|227:148,1,120,10|4,0:0|0:0,0:0:0:0:
311,233,216915,1,0,0:0:0:0:
428,210,217115,2,0,L|311:232,1,120,8|4,0:0|0:0,0:0:0:0:
463,234,217915,6,0,L|461:102,1,120,10|4,0:0|0:0,0:0:0:0:
416,32,218515,1,2,0:0:0:0:
325,9,218715,2,0,L|267:47,1,60,8|8,0:0|0:0,0:0:0:0:
213,113,219115,2,0,L|204:181,1,60,4|8,0:0|0:0,0:0:0:0:
332,243,219515,5,4,0:0:0:0:
256,192,219615,12,0,221915,0:0:0:0:
147,260,222750,6,0,P|179:252|203:252,1,41.9999987182618,2|0,0:0|0:0,0:0:0:0:
273,273,223150,1,0,0:0:0:0:
320,200,223350,2,0,L|310:60,1,125.999996154785
311,74,224350,6,0,L|266:58,1,41.9999987182618,2|0,0:0|0:0,0:0:0:0:
184,48,224750,1,0,0:0:0:0:
132,119,224950,2,0,P|93:134|40:124,2,83.9999974365235
207,164,225950,6,0,P|234:160|258:154,2,41.9999987182618,2|0|0,0:0|0:0|0:0,0:0:0:0:
192,251,226550,2,0,P|233:242|289:234,1,83.9999974365235
331,167,227150,1,0,0:0:0:0:
147,84,227550,5,2,0:0:0:0:
76,228,228350,1,0,0:0:0:0:
76,228,228750,2,0,L|68:287,1,41.9999987182618
124,339,229150,6,0,P|156:346|211:325,2,83.9999974365235,2|0|0,0:0|0:0|0:0,0:0:0:0:
165,218,230350,2,0,L|157:275,1,41.9999987182618
227,164,230750,6,0,B|251:150|251:150|321:154,1,83.9999974365235,2|0,0:0|0:0,0:0:0:0:
207,80,231550,2,0,B|231:66|231:66|301:70,1,83.9999974365235,2|0,0:0|0:0,0:0:0:0:
107,28,232350,5,2,0:0:0:0:
69,132,232750,2,0,P|78:168|85:232,2,83.9999974365235,2|0|0,0:0|0:0|0:0,0:0:0:0:
198,194,233950,6,0,B|246:189|270:153|270:153|278:194|317:187|312:148|295:139,1,167.999994873047,2|2,0:0|0:0,0:0:0:0:
202,58,235161,2,0,P|192:91|192:109,1,41.9999987182618
272,18,235561,6,0,L|358:30,1,83.9999974365235,2|0,0:0|0:0,0:0:0:0:
404,94,236161,1,0,0:0:0:0:
419,109,236361,2,0,L|505:97,1,83.9999974365235
258,220,237161,6,0,P|299:228|334:252,1,83.9999974365235,2|0,0:0|0:0,0:0:0:0:
259,318,237761,1,0,0:0:0:0:
259,318,238161,2,0,L|212:311,2,41.9999987182618
381,367,238747,6,0,L|376:267,1,83.9999974365235,2|0,0:0|0:0,0:0:0:0:
286,139,239547,2,0,L|290:222,1,83.9999974365235,2|0,0:0|0:0,0:0:0:0:
455,100,240347,2,0,L|450:16,1,83.9999974365235,2|0,0:0|0:0,0:0:0:0:
364,91,240947,1,0,0:0:0:0:
286,139,241147,6,0,P|235:137|196:122,1,83.9999974365235
32,160,241935,6,0,P|40:202|32:242,1,83.9999974365235,2|8,0:0|0:0,0:0:0:0:
44,327,242535,2,0,L|144:318,1,83.9999974365235,8|8,0:0|0:0,0:0:0:0:
206,358,243135,2,0,P|247:345|259:343,1,41.9999987182618,2|0,0:0|0:0,0:0:0:0:
331,365,243535,6,0,P|361:350|420:351,2,83.9999974365235,10|8|2,0:0|0:0|0:0,0:0:0:0:
281,223,244735,2,0,P|286:184|295:166,1,41.9999987182618,2|0,0:0|0:0,0:0:0:0:
349,95,245135,6,0,B|384:84|384:84|473:87,2,107.999996704102,8|4|8,0:0|0:0|0:0,0:0:0:0:
181,232,246335,2,0,L|193:314,1,60,0|4,0:0|0:0,0:0:0:0:
194,320,246635,1,4,0:0:0:0:
200,349,246735,5,4,0:0:0:0:
331,364,246935,1,12,0:0:0:0:
390,247,247135,1,6,0:0:0:0:
294,160,247335,5,4,0:0:0:0:
294,160,247435,1,4,0:0:0:0:
294,160,247535,1,6,0:0:0:0:
167,175,247735,1,6,0:0:0:0:
218,294,247935,2,0,L|277:286,1,60,12|14,0:0|0:0,0:0:0:0:
395,238,248335,6,0,B|380:207|380:207|424:154|402:92,2,143.999995605469,8|4|8,0:0|0:0|0:0,0:0:0:0:
160,228,249535,1,10,0:0:0:0:
265,238,249735,1,2,0:0:0:0:
293,134,249935,6,0,P|258:131|223:139,1,71.9999978027344,10|0,0:0|0:0,0:0:0:0:
363,262,250335,2,0,P|365:226|358:191,1,71.9999978027344,4|0,0:0|0:0,0:0:0:0:
297,335,250735,1,8,0:0:0:0:
200,357,250935,2,0,P|156:354|125:352,2,71.9999978027344,2|8|2,0:0|0:0|0:0,0:0:0:0:
229,264,251535,6,0,L|224:101,2,143.999995605469,8|4|8,0:0|0:0|0:0,0:0:0:0:
420,354,252735,2,0,P|425:315|420:279,1,71.9999978027344,2|8,0:0|0:0,0:0:0:0:
379,163,253135,5,10,0:0:0:0:
469,88,253335,1,10,0:0:0:0:
490,204,253535,1,4,0:0:0:0:
478,68,253735,1,10,0:0:0:0:
337,83,253935,2,0,L|348:155,1,71.9999978027344,8|0,0:0|0:0,0:0:0:0:
288,315,254335,2,0,L|304:225,1,71.9999978027344,8|2,0:0|0:0,0:0:0:0:
208,83,254735,6,0,P|163:92|88:173,1,143.999995605469,10|4,0:0|0:0,0:0:0:0:
121,263,255335,1,2,0:0:0:0:
137,286,255535,2,0,L|163:129,1,143.999995605469,10|2,0:0|0:0,0:0:0:0:
350,51,256135,1,8,0:0:0:0:
350,51,256335,6,0,B|375:89|375:89|382:188,2,143.999995605469,10|4|8,0:0|0:0|0:0,0:0:0:0:
272,193,257535,2,0,P|275:147|288:108,1,71.9999978027344,2|0,0:0|0:0,0:0:0:0:
321,272,257935,6,0,P|283:285|151:258,1,143.999995605469,10|4,0:0|0:0,0:0:0:0:
68,288,258535,1,8,0:0:0:0:
134,165,258735,2,0,P|143:115|132:84,2,71.9999978027344,8|8|8,0:0|0:0|0:0,0:0:0:0:
31,129,259335,1,2,0:0:0:0:
229,49,259535,6,0,L|313:56,1,71.9999978027344,8|4,0:0|0:0,0:0:0:0:
426,142,259935,1,4,0:0:0:0:
289,190,260135,1,4,0:0:0:0:
289,190,260235,1,4,0:0:0:0:
289,190,260335,1,8,0:0:0:0:
345,295,260535,1,12,0:0:0:0:
179,213,260735,2,0,P|129:213|93:231,1,71.9999978027344,6|14,0:0|0:0,0:0:0:0:
67,349,261135,6,0,L|87:190,1,143.999995605469,8|4,0:0|0:0,0:0:0:0:
56,86,261735,1,2,0:0:0:0:
62,65,261935,2,0,P|109:32|206:51,1,143.999995605469,8|8,0:0|0:0,0:0:0:0:
142,131,262535,1,2,0:0:0:0:
210,205,262735,6,0,B|254:218|254:218|355:190,1,143.999995605469,10|4,0:0|0:0,0:0:0:0:
455,230,263335,1,2,0:0:0:0:
377,299,263535,1,8,0:0:0:0:
348,191,263735,2,0,P|370:128|392:101,2,71.9999978027344,0|2|8,0:0|0:0|0:0,0:0:0:0:
508,235,264335,6,0,P|520:174|434:226,1,215.999993408203,12|0,0:0|0:0,0:0:0:0:
405,312,265135,2,0,B|271:305|271:305|213:226,1,215.999993408203,12|0,0:0|0:0,0:0:0:0:
144,167,265935,2,0,B|124:122|172:63|172:63|241:88|247:138,1,215.999993408203,12|0,0:0|0:0,0:0:0:0:
195,276,266735,5,6,0:0:0:0:
324,212,266935,1,4,0:0:0:0:
347,355,267135,2,0,L|264:338,1,71.9999978027344,12|14,0:0|0:0,0:0:0:0:
105,326,267535,6,0,B|120:263|96:209|96:209|148:156|136:99|136:99|162:93|184:62|184:62|170:95|182:141|182:141,1,360,0|8,0:0|0:0,0:0:0:0:
271,97,268935,1,0,0:0:0:0:
198,232,269135,6,0,B|240:252|278:215|278:215|314:185|238:190|278:215|278:215|325:246|373:210,2,240,10|0|0,0:0|0:0|0:0,0:0:0:0:
236,122,271935,2,0,P|233:157|238:186,1,60,8|2,0:0|0:0,0:0:0:0:
297,309,272335,6,0,B|265:268|371:252|334:174|321:145|287:146|252:145|236:182|236:182|184:152|137:191|137:264|187:292|249:282|254:313,1,480,8|10,0:0|0:0,0:0:0:0:
178,360,274335,5,0,0:0:0:0:
94,354,274735,1,0,0:0:0:0:
10,347,275135,1,0,0:0:0:0:
2,263,275535,2,0,L|12:167,1,83.9999974365235,0|0,0:0|0:0,3:0:0:0:
78,54,276335,6,0,L|133:51,1,41.9999987182618,0|0,0:0|0:0,3:0:0:0:
151,79,276735,2,0,L|206:82,1,41.9999987182618,0|0,0:0|0:0,3:0:0:0:
232,66,277135,5,10,0:0:0:0:
245,148,277535,1,0,0:0:0:0:
258,230,277935,1,0,0:0:0:0:
271,312,278335,1,0,0:0:0:0:
350,340,278735,2,0,L|357:240,1,83.9999974365235,0|0,0:0|0:0,3:0:0:0:
426,124,279535,6,0,P|398:122|373:128,1,41.9999987182618,0|0,0:0|0:0,3:0:0:0:
355,154,279935,2,0,P|334:156|313:154,1,41.9999987182618,0|0,0:0|0:0,3:0:0:0:
273,141,280335,6,0,B|163:124|163:124|111:148,1,167.999994873047,10|0,0:0|0:0,1:0:0:0:
262,63,281935,6,0,B|152:46|152:46|100:70,1,167.999994873047,10|0,0:0|0:0,1:0:0:0:
41,168,283535,6,0,L|47:263,1,83.9999974365235,10|0,0:0|0:0,3:0:0:0:
107,309,284335,2,0,P|144:300|202:303,1,83.9999974365235,0|0,0:0|0:0,3:0:0:0:
269,326,285135,6,0,P|310:327|351:317,1,83.9999974365235,2|0,0:0|0:0,3:0:0:0:
351,317,285735,1,0,0:0:0:0:
435,312,285935,5,0,0:0:0:0:
436,226,286135,1,0,0:0:0:0:
373,176,286335,2,0,P|343:171|318:171,1,41.9999987182618,0|0,0:0|0:0,3:0:0:0:
251,191,286735,5,10,0:0:0:0:
237,108,287135,1,0,0:0:0:0:
320,96,287535,1,0,0:0:0:0:
333,178,287935,1,0,0:0:0:0:
251,191,288335,2,0,L|156:206,1,83.9999974365235,0|0,0:0|0:0,3:0:0:0:
59,301,289135,6,0,P|80:294|106:293,1,41.9999987182618,0|0,0:0|0:0,3:0:0:0:
130,306,289535,2,0,P|151:302|174:290,1,41.9999987182618,0|0,0:0|0:0,3:0:0:0:
202,276,289935,5,10,0:0:0:0:
224,195,290335,1,0,0:0:0:0:
283,254,290735,1,0,0:0:0:0:
309,174,291135,1,0,0:0:0:0:
388,201,291535,2,0,L|394:109,1,83.9999974365235,0|0,0:0|0:0,3:0:0:0:
344,33,292335,6,0,P|318:21|297:18,1,41.9999987182618,0|0,0:0|0:0,3:0:0:0:
272,16,292735,2,0,P|243:18|223:26,1,41.9999987182618,0|0,0:0|0:0,3:0:0:0:
181,83,293160,6,0,L|175:152,1,67.4999979400635,2|2,0:0|0:0,3:0:0:0:
262,327,293985,2,0,L|259:242,1,85.4999973907472,2|2,0:0|0:0,1:0:0:0:
408,143,294840,5,2,0:0:0:0:
395,126,295040,2,0,P|367:108|292:132,1,116.999996429443,2|2,0:0|0:0,1:0:0:0:
254,269,296173,2,0,B|251:316|251:316|256:332,1,59.9999981689454,2|2,0:0|0:0,3:0:0:0:
153,151,296840,6,0,L|149:120,2,17.9999994506836,8|8|2,0:0|0:0|0:0,1:0:0:0:
256,192,297140,12,0,301440,0:0:0:0:
