osu file format v14

[General]
AudioFilename: audio.mp3
AudioLeadIn: 0
PreviewTime: 74457
Countdown: 0
SampleSet: Normal
StackLeniency: 0.7
Mode: 1
LetterboxInBreaks: 0
WidescreenStoryboard: 0

[Editor]
Bookmarks: 16843,31388,60479,111388,125934,140479,191388,205934,220479,235025,249570
DistanceSpacing: 1.7
BeatDivisor: 4
GridSize: 32
TimelineZoom: 1.9

[Metadata]
Title:Iscariot no Sakebi
TitleUnicode:イスカリオテの叫び
Artist:*namirin
ArtistUnicode:*なみりん
Creator:Tyistiana
Version:Awakened
Source:
Tags:
BeatmapID:1756457
BeatmapSetID:839010

[Difficulty]
HPDrainRate:5
CircleSize:5
OverallDifficulty:5
ApproachRate:5
SliderMultiplier:1.4
SliderTickRate:1

[Events]
//Background and Video events
0,0,"Konachan.com - 129784 sample.jpg",0,50
//Break Periods
2,20679,22916
//Storyboard Layer 0 (Background)
//Storyboard Layer 1 (Fail)
//Storyboard Layer 2 (Pass)
//Storyboard Layer 3 (Foreground)
//Storyboard Sound Samples

[TimingPoints]
2298,454.545454545455,4,1,0,80,1,0
17752,-100,4,1,0,70,0,0
18661,-100,4,1,0,60,0,0
19570,-100,4,1,0,50,0,0
24116,-125,4,1,0,50,0,0
31388,-111.111111111111,4,1,0,70,0,0
58661,-111.111111111111,4,1,0,85,0,0
59722,-105.263157894737,4,1,0,85,0,0
60631,-100,4,1,0,85,0,0
75025,-83.3333333333333,4,1,0,100,0,1
87752,-83.3333333333333,4,1,0,100,0,0
89570,-83.3333333333333,4,1,0,100,0,1
104116,-83.3333333333333,4,1,0,100,0,0
108207,-100,4,1,0,100,0,0
112298,-100,4,1,0,90,0,0
113207,-100,4,1,0,80,0,0
114116,-100,4,1,0,70,0,0
115025,-100,4,1,0,80,0,0
127752,-111.111111111111,4,1,0,70,0,0
138661,-111.111111111111,4,1,0,85,0,0
139722,-105.263157894737,4,1,0,85,0,0
140631,-100,4,1,0,85,0,0
155025,-83.3333333333333,4,1,0,100,0,1
167752,-83.3333333333333,4,1,0,100,0,0
169570,-83.3333333333333,4,1,0,100,0,1
184116,-100,4,1,0,100,0,0
194798,-100,4,1,0,80,0,0
205707,-125,4,1,0,70,0,0
220479,-111.111111111111,4,1,0,85,0,0
249116,-105.263157894737,4,1,0,85,0,0
249570,-100,4,1,0,85,0,0
265479,-86.9565217391304,4,1,0,85,0,0
265934,-76.9230769230769,4,1,0,100,0,1
280479,-100,4,1,0,100,0,0
310489,454.545454545455,4,1,0,90,1,0
312307,-100,4,1,0,80,0,0
314125,-100,4,1,0,70,0,0
315943,-100,4,1,0,60,0,0
317761,-100,4,1,0,50,0,0
319579,-100,4,1,0,40,0,0

[HitObjects]
256,192,2298,5,4,0:0:0:0:
256,192,4116,1,8,0:0:0:0:
256,192,5025,1,0,0:0:0:0:
256,192,5479,1,8,0:0:0:0:
256,192,5934,1,12,0:0:0:0:
256,192,6843,1,8,0:0:0:0:
256,192,7752,1,0,0:0:0:0:
256,192,8055,1,8,0:0:0:0:
256,192,8358,1,0,0:0:0:0:
256,192,8661,1,8,0:0:0:0:
256,192,9116,1,0,0:0:0:0:
256,192,9570,1,4,0:0:0:0:
256,192,9873,1,0,0:0:0:0:
256,192,10176,1,0,0:0:0:0:
256,192,10479,1,8,0:0:0:0:
256,192,10782,1,0,0:0:0:0:
256,192,10934,1,8,0:0:0:0:
256,192,11085,1,0,0:0:0:0:
256,192,11388,1,0,0:0:0:0:
256,192,11691,1,0,0:0:0:0:
256,192,11994,1,0,0:0:0:0:
256,192,12298,1,8,0:0:0:0:
256,192,12601,1,0,0:0:0:0:
256,192,12752,1,0,0:0:0:0:
256,192,12904,1,0,0:0:0:0:
256,192,13207,1,12,0:0:0:0:
256,192,13510,1,0,0:0:0:0:
256,192,13813,1,0,0:0:0:0:
256,192,14116,1,8,0:0:0:0:
256,192,14419,1,0,0:0:0:0:
256,192,14570,1,8,0:0:0:0:
256,192,14722,1,0,0:0:0:0:
256,192,15025,1,8,0:0:0:0:
256,192,15328,1,0,0:0:0:0:
256,192,15631,1,0,0:0:0:0:
256,192,15934,1,8,0:0:0:0:
256,192,16843,1,4,0:0:0:0:
256,192,17070,12,0,20479,0:0:0:0:
256,192,24116,5,8,0:0:0:0:
256,192,25934,1,0,0:0:0:0:
256,192,26843,1,8,0:0:0:0:
256,192,27752,1,8,0:0:0:0:
256,192,31388,1,8,0:0:0:0:
256,192,33207,1,0,0:0:0:0:
256,192,34116,1,8,0:0:0:0:
256,192,35025,1,0,0:0:0:0:
256,192,36843,1,0,0:0:0:0:
256,192,37752,1,0,0:0:0:0:
256,192,38661,1,8,0:0:0:0:
256,192,40479,1,8,0:0:0:0:
256,192,41388,1,8,0:0:0:0:
256,192,42298,1,0,0:0:0:0:
256,192,43207,1,0,0:0:0:0:
256,192,43661,1,0,0:0:0:0:
256,192,44116,1,8,0:0:0:0:
256,192,45025,1,8,0:0:0:0:
256,192,45479,1,0,0:0:0:0:
256,192,45934,1,8,0:0:0:0:
256,192,46843,1,0,0:0:0:0:
256,192,47752,1,0,0:0:0:0:
256,192,48207,1,0,0:0:0:0:
256,192,48661,1,8,0:0:0:0:
256,192,49116,1,0,0:0:0:0:
256,192,49343,1,8,0:0:0:0:
256,192,49570,1,0,0:0:0:0:
256,192,50479,1,0,0:0:0:0:
256,192,51388,1,8,0:0:0:0:
256,192,51843,1,0,0:0:0:0:
256,192,52070,1,8,0:0:0:0:
256,192,52298,1,0,0:0:0:0:
256,192,52752,1,8,0:0:0:0:
256,192,53207,1,0,0:0:0:0:
256,192,54116,1,0,0:0:0:0:
256,192,55025,1,0,0:0:0:0:
256,192,55479,1,8,0:0:0:0:
256,192,55934,1,0,0:0:0:0:
256,192,56161,1,8,0:0:0:0:
256,192,56388,1,0,0:0:0:0:
256,192,56616,1,8,0:0:0:0:
256,192,56843,1,8,0:0:0:0:
256,192,57525,1,0,0:0:0:0:
256,192,57752,1,8,0:0:0:0:
256,192,57979,1,0,0:0:0:0:
256,192,58207,1,0,0:0:0:0:
256,192,58434,1,8,0:0:0:0:
256,192,58661,1,0,0:0:0:0:
256,192,58964,1,0,0:0:0:0:
256,192,59267,1,0,0:0:0:0:
256,192,59419,1,0,0:0:0:0:
256,192,59570,1,8,0:0:0:0:
256,192,59873,1,8,0:0:0:0:
256,192,60176,1,8,0:0:0:0:
256,192,60328,1,8,0:0:0:0:
256,192,60479,1,4,0:0:0:0:
256,192,60934,1,0,0:0:0:0:
256,192,61010,1,0,0:0:0:0:
256,192,61085,1,8,0:0:0:0:
256,192,61237,1,0,0:0:0:0:
256,192,61388,1,8,0:0:0:0:
256,192,61691,1,0,0:0:0:0:
256,192,61994,1,8,0:0:0:0:
256,192,62298,1,0,0:0:0:0:
256,192,62752,1,0,0:0:0:0:
256,192,62828,1,0,0:0:0:0:
256,192,62904,1,0,0:0:0:0:
256,192,63055,1,8,0:0:0:0:
256,192,63207,1,0,0:0:0:0:
256,192,63510,1,8,0:0:0:0:
256,192,63813,1,0,0:0:0:0:
256,192,64117,1,8,0:0:0:0:
256,192,64570,1,0,0:0:0:0:
256,192,64646,1,0,0:0:0:0:
256,192,64722,1,0,0:0:0:0:
256,192,64873,1,0,0:0:0:0:
256,192,65025,1,8,0:0:0:0:
256,192,65328,1,8,0:0:0:0:
256,192,65631,1,0,0:0:0:0:
256,192,65935,1,8,0:0:0:0:
256,192,66388,1,8,0:0:0:0:
256,192,66464,1,8,0:0:0:0:
256,192,66540,1,8,0:0:0:0:
256,192,66691,1,0,0:0:0:0:
256,192,66843,1,8,0:0:0:0:
256,192,67146,1,8,0:0:0:0:
256,192,67449,1,0,0:0:0:0:
256,192,67601,1,0,0:0:0:0:
256,192,67753,1,12,0:0:0:0:
256,192,68207,1,8,0:0:0:0:
256,192,68282,1,8,0:0:0:0:
256,192,68358,1,0,0:0:0:0:
256,192,68510,1,8,0:0:0:0:
256,192,68661,1,0,0:0:0:0:
256,192,68964,1,8,0:0:0:0:
256,192,69267,1,0,0:0:0:0:
256,192,69571,1,8,0:0:0:0:
256,192,70025,1,0,0:0:0:0:
256,192,70101,1,0,0:0:0:0:
256,192,70176,1,0,0:0:0:0:
256,192,70328,1,8,0:0:0:0:
256,192,70479,1,0,0:0:0:0:
256,192,70782,1,8,0:0:0:0:
256,192,71085,1,0,0:0:0:0:
256,192,71388,1,8,0:0:0:0:
256,192,71843,1,8,0:0:0:0:
256,192,71919,1,8,0:0:0:0:
256,192,71994,1,8,0:0:0:0:
256,192,72146,1,0,0:0:0:0:
256,192,72298,1,8,0:0:0:0:
256,192,72601,1,8,0:0:0:0:
256,192,72904,1,0,0:0:0:0:
256,192,73055,1,0,0:0:0:0:
256,192,73207,1,8,0:0:0:0:
256,192,73358,1,0,0:0:0:0:
256,192,73510,1,8,0:0:0:0:
256,192,73661,1,0,0:0:0:0:
256,192,73737,1,0,0:0:0:0:
256,192,73813,1,8,0:0:0:0:
256,192,73964,1,0,0:0:0:0:
256,192,74116,1,8,0:0:0:0:
256,192,74570,1,8,0:0:0:0:
256,192,75025,5,4,0:0:0:0:
256,192,75252,1,8,0:0:0:0:
256,192,75479,1,0,0:0:0:0:
256,192,75707,1,8,0:0:0:0:
256,192,75820,1,0,0:0:0:0:
256,192,76161,1,0,0:0:0:0:
256,192,76275,1,0,0:0:0:0:
256,192,76388,1,8,0:0:0:0:
256,192,76616,1,0,0:0:0:0:
256,192,76843,1,8,0:0:0:0:
256,192,77070,1,0,0:0:0:0:
256,192,77184,1,8,0:0:0:0:
256,192,77298,1,0,0:0:0:0:
256,192,77525,1,8,0:0:0:0:
256,192,77638,1,0,0:0:0:0:
256,192,77979,1,8,0:0:0:0:
256,192,78093,1,8,0:0:0:0:
256,192,78207,1,0,0:0:0:0:
256,192,78434,1,0,0:0:0:0:
256,192,78661,1,12,0:0:0:0:
256,192,78888,1,0,0:0:0:0:
256,192,79002,1,8,0:0:0:0:
256,192,79343,1,0,0:0:0:0:
256,192,79570,1,8,0:0:0:0:
256,192,79798,1,8,0:0:0:0:
256,192,79911,1,0,0:0:0:0:
256,192,80252,1,0,0:0:0:0:
256,192,80479,1,12,0:0:0:0:
256,192,80707,1,8,0:0:0:0:
256,192,80820,1,0,0:0:0:0:
256,192,81161,1,0,0:0:0:0:
256,192,81388,1,4,0:0:0:0:
256,192,81843,1,12,0:0:0:0:
256,192,82298,1,4,0:0:0:0:
256,192,82525,1,0,0:0:0:0:
256,192,82752,1,8,0:0:0:0:
256,192,82979,1,0,0:0:0:0:
256,192,83093,1,8,0:0:0:0:
256,192,83434,1,8,0:0:0:0:
256,192,83548,1,0,0:0:0:0:
256,192,83661,1,8,0:0:0:0:
256,192,83888,1,0,0:0:0:0:
256,192,84116,1,8,0:0:0:0:
256,192,84343,1,0,0:0:0:0:
256,192,84457,1,0,0:0:0:0:
256,192,84570,1,8,0:0:0:0:
256,192,84798,1,0,0:0:0:0:
256,192,84911,1,0,0:0:0:0:
256,192,85025,1,8,0:0:0:0:
256,192,85138,1,0,0:0:0:0:
256,192,85252,1,0,0:0:0:0:
256,192,85479,1,8,0:0:0:0:
256,192,85707,1,8,0:0:0:0:
256,192,85820,1,8,0:0:0:0:
256,192,85934,1,4,0:0:0:0:
256,192,86388,1,8,0:0:0:0:
256,192,86616,1,0,0:0:0:0:
256,192,86730,1,0,0:0:0:0:
256,192,86843,1,8,0:0:0:0:
256,192,87298,1,8,0:0:0:0:
256,192,87525,1,0,0:0:0:0:
256,192,87638,1,8,0:0:0:0:
256,192,87752,1,4,0:0:0:0:
256,192,88207,1,12,0:0:0:0:
256,192,88661,1,0,0:0:0:0:
256,192,88888,1,8,0:0:0:0:
256,192,89116,1,0,0:0:0:0:
256,192,89229,1,0,0:0:0:0:
256,192,89343,1,0,0:0:0:0:
256,192,89570,5,4,0:0:0:0:
256,192,89798,1,8,0:0:0:0:
256,192,90025,1,0,0:0:0:0:
256,192,90252,1,8,0:0:0:0:
256,192,90366,1,0,0:0:0:0:
256,192,90707,1,0,0:0:0:0:
256,192,90821,1,8,0:0:0:0:
256,192,90934,1,0,0:0:0:0:
256,192,91161,1,8,0:0:0:0:
256,192,91388,1,0,0:0:0:0:
256,192,91616,1,0,0:0:0:0:
256,192,91729,1,0,0:0:0:0:
256,192,91843,1,8,0:0:0:0:
256,192,92070,1,0,0:0:0:0:
256,192,92184,1,8,0:0:0:0:
256,192,92525,1,8,0:0:0:0:
256,192,92638,1,8,0:0:0:0:
256,192,92752,1,0,0:0:0:0:
256,192,92979,1,8,0:0:0:0:
256,192,93207,1,4,0:0:0:0:
256,192,93434,1,0,0:0:0:0:
256,192,93548,1,8,0:0:0:0:
256,192,93888,1,8,0:0:0:0:
256,192,94116,1,0,0:0:0:0:
256,192,94343,1,8,0:0:0:0:
256,192,94457,1,0,0:0:0:0:
256,192,94798,1,0,0:0:0:0:
256,192,95025,1,0,0:0:0:0:
256,192,95252,1,0,0:0:0:0:
256,192,95366,1,8,0:0:0:0:
256,192,95707,1,0,0:0:0:0:
256,192,95934,1,4,0:0:0:0:
256,192,96388,1,12,0:0:0:0:
256,192,96843,1,4,0:0:0:0:
256,192,97070,1,8,0:0:0:0:
256,192,97298,1,0,0:0:0:0:
256,192,97525,1,8,0:0:0:0:
256,192,97638,1,0,0:0:0:0:
256,192,97979,1,0,0:0:0:0:
256,192,98093,1,0,0:0:0:0:
256,192,98207,1,8,0:0:0:0:
256,192,98434,1,8,0:0:0:0:
256,192,98661,1,0,0:0:0:0:
256,192,98888,1,8,0:0:0:0:
256,192,99002,1,8,0:0:0:0:
256,192,99116,1,0,0:0:0:0:
256,192,99343,1,8,0:0:0:0:
256,192,99457,1,0,0:0:0:0:
256,192,99570,1,0,0:0:0:0:
256,192,99684,1,8,0:0:0:0:
256,192,99798,1,0,0:0:0:0:
256,192,100025,1,8,0:0:0:0:
256,192,100252,1,0,0:0:0:0:
256,192,100366,1,0,0:0:0:0:
256,192,100479,1,12,0:0:0:0:
256,192,100934,1,0,0:0:0:0:
256,192,101161,1,0,0:0:0:0:
256,192,101275,1,8,0:0:0:0:
256,192,101388,1,0,0:0:0:0:
256,192,101843,1,0,0:0:0:0:
256,192,102070,1,8,0:0:0:0:
256,192,102184,1,8,0:0:0:0:
256,192,102298,1,4,0:0:0:0:
256,192,102752,1,8,0:0:0:0:
256,192,103207,1,4,0:0:0:0:
256,192,103434,1,8,0:0:0:0:
256,192,103661,1,0,0:0:0:0:
256,192,103775,1,0,0:0:0:0:
256,192,103888,1,0,0:0:0:0:
256,192,104116,1,12,0:0:0:0:
256,192,104343,1,0,0:0:0:0:
256,192,104570,1,0,0:0:0:0:
256,192,104798,1,12,0:0:0:0:
256,192,105025,1,0,0:0:0:0:
256,192,105252,1,0,0:0:0:0:
256,192,105479,1,12,0:0:0:0:
256,192,105707,1,0,0:0:0:0:
256,192,105934,1,0,0:0:0:0:
256,192,106161,1,12,0:0:0:0:
256,192,106616,1,0,0:0:0:0:
256,192,106843,1,8,0:0:0:0:
256,192,107070,1,4,0:0:0:0:
256,192,107298,1,8,0:0:0:0:
256,192,107525,1,8,0:0:0:0:
256,192,107752,1,4,0:0:0:0:
256,192,107979,12,0,109570,0:0:0:0:
256,192,110252,5,0,0:0:0:0:
256,192,110479,1,0,0:0:0:0:
256,192,110707,1,8,0:0:0:0:
256,192,110934,1,0,0:0:0:0:
256,192,111161,1,0,0:0:0:0:
256,192,111388,1,8,0:0:0:0:
256,192,111616,12,0,114570,0:0:0:0:
256,192,115025,5,12,0:0:0:0:
256,192,115934,1,8,0:0:0:0:
256,192,116843,1,0,0:0:0:0:
256,192,117146,1,8,0:0:0:0:
256,192,117449,1,0,0:0:0:0:
256,192,117752,1,8,0:0:0:0:
256,192,118207,1,0,0:0:0:0:
256,192,118661,1,4,0:0:0:0:
256,192,118964,1,0,0:0:0:0:
256,192,119267,1,0,0:0:0:0:
256,192,119570,1,8,0:0:0:0:
256,192,119873,1,0,0:0:0:0:
256,192,120025,1,8,0:0:0:0:
256,192,120176,1,0,0:0:0:0:
256,192,120479,1,0,0:0:0:0:
256,192,120782,1,0,0:0:0:0:
256,192,121085,1,0,0:0:0:0:
256,192,121389,1,8,0:0:0:0:
256,192,121692,1,0,0:0:0:0:
256,192,121843,1,0,0:0:0:0:
256,192,121995,1,0,0:0:0:0:
256,192,122298,1,12,0:0:0:0:
256,192,122601,1,0,0:0:0:0:
256,192,122904,1,0,0:0:0:0:
256,192,123207,1,8,0:0:0:0:
256,192,123510,1,0,0:0:0:0:
256,192,123661,1,8,0:0:0:0:
256,192,123813,1,0,0:0:0:0:
256,192,124116,1,8,0:0:0:0:
256,192,124419,1,0,0:0:0:0:
256,192,124722,1,0,0:0:0:0:
256,192,125025,1,8,0:0:0:0:
256,192,125934,5,4,0:0:0:0:
256,192,127752,1,0,0:0:0:0:
256,192,128661,1,8,0:0:0:0:
256,192,129116,1,0,0:0:0:0:
256,192,129343,1,8,0:0:0:0:
256,192,129570,1,0,0:0:0:0:
256,192,131388,1,8,0:0:0:0:
256,192,131843,1,0,0:0:0:0:
256,192,132070,1,8,0:0:0:0:
256,192,132298,1,0,0:0:0:0:
256,192,132752,1,8,0:0:0:0:
256,192,133207,1,0,0:0:0:0:
256,192,135025,1,0,0:0:0:0:
256,192,135479,1,8,0:0:0:0:
256,192,135934,1,0,0:0:0:0:
256,192,136161,1,8,0:0:0:0:
256,192,136388,1,0,0:0:0:0:
256,192,136616,1,8,0:0:0:0:
256,192,136729,1,0,0:0:0:0:
256,192,136843,1,8,0:0:0:0:
256,192,137525,1,0,0:0:0:0:
256,192,137752,1,8,0:0:0:0:
256,192,137979,1,8,0:0:0:0:
256,192,138207,1,0,0:0:0:0:
256,192,138434,1,8,0:0:0:0:
256,192,138661,1,0,0:0:0:0:
256,192,138964,1,0,0:0:0:0:
256,192,139267,1,0,0:0:0:0:
256,192,139419,1,0,0:0:0:0:
256,192,139570,1,8,0:0:0:0:
256,192,139873,1,8,0:0:0:0:
256,192,140176,1,8,0:0:0:0:
256,192,140328,1,8,0:0:0:0:
256,192,140479,1,4,0:0:0:0:
256,192,140934,1,0,0:0:0:0:
256,192,141010,1,0,0:0:0:0:
256,192,141085,1,8,0:0:0:0:
256,192,141237,1,0,0:0:0:0:
256,192,141388,1,8,0:0:0:0:
256,192,141691,1,0,0:0:0:0:
256,192,141994,1,8,0:0:0:0:
256,192,142298,1,0,0:0:0:0:
256,192,142752,1,0,0:0:0:0:
256,192,142828,1,0,0:0:0:0:
256,192,142904,1,0,0:0:0:0:
256,192,143055,1,8,0:0:0:0:
256,192,143207,1,0,0:0:0:0:
256,192,143510,1,8,0:0:0:0:
256,192,143813,1,0,0:0:0:0:
256,192,144117,1,8,0:0:0:0:
256,192,144419,1,0,0:0:0:0:
256,192,144570,1,0,0:0:0:0:
256,192,144646,1,0,0:0:0:0:
256,192,144722,1,0,0:0:0:0:
256,192,144873,1,0,0:0:0:0:
256,192,145025,1,8,0:0:0:0:
256,192,145328,1,8,0:0:0:0:
256,192,145631,1,0,0:0:0:0:
256,192,145935,1,8,0:0:0:0:
256,192,146237,1,0,0:0:0:0:
256,192,146388,1,8,0:0:0:0:
256,192,146464,1,8,0:0:0:0:
256,192,146540,1,8,0:0:0:0:
256,192,146691,1,0,0:0:0:0:
256,192,146843,1,8,0:0:0:0:
256,192,147146,1,8,0:0:0:0:
256,192,147449,1,0,0:0:0:0:
256,192,147601,1,8,0:0:0:0:
256,192,147753,1,12,0:0:0:0:
256,192,148207,1,8,0:0:0:0:
256,192,148282,1,8,0:0:0:0:
256,192,148358,1,0,0:0:0:0:
256,192,148510,1,8,0:0:0:0:
256,192,148661,1,0,0:0:0:0:
256,192,148964,1,8,0:0:0:0:
256,192,149267,1,0,0:0:0:0:
256,192,149571,1,8,0:0:0:0:
256,192,149873,1,0,0:0:0:0:
256,192,150025,1,8,0:0:0:0:
256,192,150101,1,0,0:0:0:0:
256,192,150176,1,0,0:0:0:0:
256,192,150328,1,0,0:0:0:0:
256,192,150479,1,8,0:0:0:0:
256,192,150782,1,8,0:0:0:0:
256,192,151085,1,0,0:0:0:0:
256,192,151388,1,8,0:0:0:0:
256,192,151843,1,8,0:0:0:0:
256,192,151919,1,8,0:0:0:0:
256,192,151994,1,8,0:0:0:0:
256,192,152146,1,0,0:0:0:0:
256,192,152298,1,8,0:0:0:0:
256,192,152601,1,8,0:0:0:0:
256,192,152904,1,0,0:0:0:0:
256,192,153055,1,0,0:0:0:0:
256,192,153207,1,8,0:0:0:0:
256,192,153358,1,0,0:0:0:0:
256,192,153510,1,8,0:0:0:0:
256,192,153661,1,0,0:0:0:0:
256,192,153737,1,0,0:0:0:0:
256,192,153813,1,8,0:0:0:0:
256,192,153964,1,0,0:0:0:0:
256,192,154116,1,8,0:0:0:0:
256,192,154570,1,8,0:0:0:0:
256,192,155025,5,4,0:0:0:0:
256,192,155252,1,8,0:0:0:0:
256,192,155479,1,0,0:0:0:0:
256,192,155707,1,8,0:0:0:0:
256,192,155820,1,0,0:0:0:0:
256,192,156161,1,0,0:0:0:0:
256,192,156275,1,0,0:0:0:0:
256,192,156388,1,8,0:0:0:0:
256,192,156616,1,0,0:0:0:0:
256,192,156843,1,8,0:0:0:0:
256,192,157070,1,0,0:0:0:0:
256,192,157184,1,0,0:0:0:0:
256,192,157298,1,8,0:0:0:0:
256,192,157525,1,8,0:0:0:0:
256,192,157638,1,0,0:0:0:0:
256,192,157979,1,8,0:0:0:0:
256,192,158093,1,8,0:0:0:0:
256,192,158207,1,0,0:0:0:0:
256,192,158434,1,0,0:0:0:0:
256,192,158661,1,12,0:0:0:0:
256,192,158888,1,0,0:0:0:0:
256,192,159002,1,8,0:0:0:0:
256,192,159343,1,0,0:0:0:0:
256,192,159570,1,8,0:0:0:0:
256,192,159798,1,8,0:0:0:0:
256,192,159911,1,0,0:0:0:0:
256,192,160252,1,0,0:0:0:0:
256,192,160479,1,12,0:0:0:0:
256,192,160707,1,8,0:0:0:0:
256,192,160820,1,0,0:0:0:0:
256,192,161161,1,0,0:0:0:0:
256,192,161388,1,4,0:0:0:0:
256,192,161843,1,12,0:0:0:0:
256,192,162298,1,4,0:0:0:0:
256,192,162525,1,0,0:0:0:0:
256,192,162752,1,8,0:0:0:0:
256,192,162979,1,0,0:0:0:0:
256,192,163093,1,8,0:0:0:0:
256,192,163434,1,8,0:0:0:0:
256,192,163548,1,0,0:0:0:0:
256,192,163661,1,8,0:0:0:0:
256,192,163888,1,0,0:0:0:0:
256,192,164116,1,8,0:0:0:0:
256,192,164343,1,8,0:0:0:0:
256,192,164457,1,0,0:0:0:0:
256,192,164570,1,8,0:0:0:0:
256,192,164798,1,0,0:0:0:0:
256,192,164911,1,0,0:0:0:0:
256,192,165025,1,8,0:0:0:0:
256,192,165138,1,8,0:0:0:0:
256,192,165252,1,0,0:0:0:0:
256,192,165479,1,8,0:0:0:0:
256,192,165707,1,8,0:0:0:0:
256,192,165820,1,8,0:0:0:0:
256,192,165934,1,4,0:0:0:0:
256,192,166388,1,8,0:0:0:0:
256,192,166616,1,8,0:0:0:0:
256,192,166730,1,0,0:0:0:0:
256,192,166843,1,8,0:0:0:0:
256,192,167298,1,8,0:0:0:0:
256,192,167525,1,0,0:0:0:0:
256,192,167638,1,8,0:0:0:0:
256,192,167752,1,4,0:0:0:0:
256,192,168207,1,12,0:0:0:0:
256,192,168661,1,0,0:0:0:0:
256,192,168888,1,8,0:0:0:0:
256,192,169116,1,0,0:0:0:0:
256,192,169229,1,0,0:0:0:0:
256,192,169343,1,0,0:0:0:0:
256,192,169570,5,4,0:0:0:0:
256,192,169798,1,8,0:0:0:0:
256,192,170025,1,0,0:0:0:0:
256,192,170252,1,8,0:0:0:0:
256,192,170366,1,0,0:0:0:0:
256,192,170707,1,0,0:0:0:0:
256,192,170821,1,8,0:0:0:0:
256,192,170934,1,0,0:0:0:0:
256,192,171161,1,8,0:0:0:0:
256,192,171388,1,0,0:0:0:0:
256,192,171616,1,0,0:0:0:0:
256,192,171729,1,0,0:0:0:0:
256,192,171843,1,8,0:0:0:0:
256,192,172070,1,0,0:0:0:0:
256,192,172184,1,8,0:0:0:0:
256,192,172525,1,8,0:0:0:0:
256,192,172638,1,8,0:0:0:0:
256,192,172752,1,0,0:0:0:0:
256,192,172979,1,8,0:0:0:0:
256,192,173207,1,4,0:0:0:0:
256,192,173434,1,0,0:0:0:0:
256,192,173548,1,8,0:0:0:0:
256,192,173888,1,8,0:0:0:0:
256,192,174116,1,0,0:0:0:0:
256,192,174343,1,0,0:0:0:0:
256,192,174457,1,8,0:0:0:0:
256,192,174798,1,0,0:0:0:0:
256,192,175025,1,8,0:0:0:0:
256,192,175252,1,8,0:0:0:0:
256,192,175366,1,0,0:0:0:0:
256,192,175707,1,0,0:0:0:0:
256,192,175934,1,4,0:0:0:0:
256,192,176388,1,12,0:0:0:0:
256,192,176843,1,4,0:0:0:0:
256,192,177070,1,8,0:0:0:0:
256,192,177298,1,0,0:0:0:0:
256,192,177525,1,0,0:0:0:0:
256,192,177638,1,8,0:0:0:0:
256,192,177979,1,0,0:0:0:0:
256,192,178093,1,0,0:0:0:0:
256,192,178207,1,8,0:0:0:0:
256,192,178434,1,8,0:0:0:0:
256,192,178661,1,0,0:0:0:0:
256,192,178888,1,8,0:0:0:0:
256,192,179002,1,0,0:0:0:0:
256,192,179116,1,8,0:0:0:0:
256,192,179343,1,8,0:0:0:0:
256,192,179457,1,8,0:0:0:0:
256,192,179570,1,0,0:0:0:0:
256,192,179684,1,8,0:0:0:0:
256,192,179798,1,0,0:0:0:0:
256,192,180025,1,8,0:0:0:0:
256,192,180252,1,0,0:0:0:0:
256,192,180366,1,0,0:0:0:0:
256,192,180479,1,12,0:0:0:0:
256,192,180934,1,0,0:0:0:0:
256,192,181161,1,0,0:0:0:0:
256,192,181275,1,8,0:0:0:0:
256,192,181388,1,0,0:0:0:0:
256,192,181843,1,0,0:0:0:0:
256,192,182070,1,8,0:0:0:0:
256,192,182184,1,8,0:0:0:0:
256,192,182298,1,4,0:0:0:0:
256,192,182752,1,8,0:0:0:0:
256,192,183207,1,4,0:0:0:0:
256,192,183434,1,8,0:0:0:0:
256,192,183661,1,0,0:0:0:0:
256,192,183775,1,0,0:0:0:0:
256,192,183888,1,0,0:0:0:0:
256,192,184116,1,12,0:0:0:0:
256,192,184343,1,8,0:0:0:0:
256,192,184570,1,0,0:0:0:0:
256,192,184798,1,12,0:0:0:0:
256,192,185025,1,8,0:0:0:0:
256,192,185252,1,0,0:0:0:0:
256,192,185479,1,12,0:0:0:0:
256,192,185707,1,8,0:0:0:0:
256,192,185934,1,0,0:0:0:0:
256,192,186161,1,12,0:0:0:0:
256,192,186616,1,0,0:0:0:0:
256,192,186843,1,8,0:0:0:0:
256,192,187070,1,4,0:0:0:0:
256,192,187298,1,8,0:0:0:0:
256,192,187525,1,8,0:0:0:0:
256,192,187752,1,4,0:0:0:0:
256,192,187979,12,0,189570,0:0:0:0:
256,192,190252,5,8,0:0:0:0:
256,192,190479,1,0,0:0:0:0:
256,192,190707,1,8,0:0:0:0:
256,192,190934,1,0,0:0:0:0:
256,192,191161,1,0,0:0:0:0:
256,192,191388,1,12,0:0:0:0:
256,192,191616,12,0,194570,0:0:0:0:
256,192,195025,5,4,0:0:0:0:
256,192,195479,1,8,0:0:0:0:
256,192,195707,1,8,0:0:0:0:
256,192,196161,1,0,0:0:0:0:
256,192,196388,1,8,0:0:0:0:
256,192,196843,1,0,0:0:0:0:
256,192,197298,1,8,0:0:0:0:
256,192,197525,1,0,0:0:0:0:
256,192,197752,1,4,0:0:0:0:
256,192,198207,1,8,0:0:0:0:
256,192,198320,1,0,0:0:0:0:
256,192,198434,1,0,0:0:0:0:
256,192,198661,1,4,0:0:0:0:
256,192,199116,1,8,0:0:0:0:
256,192,199570,1,0,0:0:0:0:
256,192,199798,1,0,0:0:0:0:
256,192,200025,1,8,0:0:0:0:
256,192,200479,1,0,0:0:0:0:
256,192,200707,1,0,0:0:0:0:
256,192,200934,1,8,0:0:0:0:
256,192,201161,1,0,0:0:0:0:
256,192,201275,1,0,0:0:0:0:
256,192,201388,1,0,0:0:0:0:
256,192,201616,1,0,0:0:0:0:
256,192,201843,1,8,0:0:0:0:
256,192,202298,1,4,0:0:0:0:
256,192,202752,1,8,0:0:0:0:
256,192,202979,1,4,0:0:0:0:
256,192,203434,1,8,0:0:0:0:
256,192,203661,1,4,0:0:0:0:
256,192,204116,1,0,0:0:0:0:
256,192,204343,1,12,0:0:0:0:
256,192,204570,12,0,205707,0:0:0:0:
256,192,205934,5,0,0:0:0:0:
256,192,207752,1,8,0:0:0:0:
256,192,208661,1,8,0:0:0:0:
256,192,209116,1,8,0:0:0:0:
256,192,209570,1,0,0:0:0:0:
256,192,211388,1,0,0:0:0:0:
256,192,212298,1,8,0:0:0:0:
256,192,212752,1,0,0:0:0:0:
256,192,212979,1,8,0:0:0:0:
256,192,213207,1,0,0:0:0:0:
256,192,215025,1,8,0:0:0:0:
256,192,215934,1,0,0:0:0:0:
256,192,216388,1,8,0:0:0:0:
256,192,216540,1,0,0:0:0:0:
256,192,216691,1,8,0:0:0:0:
256,192,216843,1,0,0:0:0:0:
256,192,217752,1,8,0:0:0:0:
256,192,218661,1,0,0:0:0:0:
256,192,219570,1,8,0:0:0:0:
256,192,220479,1,0,0:0:0:0:
256,192,220707,1,0,0:0:0:0:
256,192,220934,1,0,0:0:0:0:
256,192,221161,1,8,0:0:0:0:
256,192,221616,1,0,0:0:0:0:
256,192,221843,1,8,0:0:0:0:
256,192,222070,1,0,0:0:0:0:
256,192,222298,1,0,0:0:0:0:
256,192,222525,1,8,0:0:0:0:
256,192,222752,1,0,0:0:0:0:
256,192,222979,1,8,0:0:0:0:
256,192,223661,1,8,0:0:0:0:
256,192,224116,1,0,0:0:0:0:
256,192,224343,1,8,0:0:0:0:
256,192,224570,1,8,0:0:0:0:
256,192,224798,1,0,0:0:0:0:
256,192,225025,1,8,0:0:0:0:
256,192,225252,1,0,0:0:0:0:
256,192,225479,1,8,0:0:0:0:
256,192,225707,1,0,0:0:0:0:
256,192,225934,1,0,0:0:0:0:
256,192,226161,1,8,0:0:0:0:
256,192,226388,1,0,0:0:0:0:
256,192,226616,1,8,0:0:0:0:
256,192,227070,1,0,0:0:0:0:
256,192,227298,1,8,0:0:0:0:
256,192,227525,1,8,0:0:0:0:
256,192,227752,1,0,0:0:0:0:
256,192,228207,1,8,0:0:0:0:
256,192,228434,1,0,0:0:0:0:
256,192,228661,1,0,0:0:0:0:
256,192,228888,1,0,0:0:0:0:
256,192,229343,1,8,0:0:0:0:
256,192,229570,1,8,0:0:0:0:
256,192,230252,1,8,0:0:0:0:
256,192,230479,1,0,0:0:0:0:
256,192,230707,1,0,0:0:0:0:
256,192,230934,1,8,0:0:0:0:
256,192,231161,1,8,0:0:0:0:
256,192,231388,1,0,0:0:0:0:
256,192,232298,1,8,0:0:0:0:
256,192,233207,1,0,0:0:0:0:
256,192,235025,5,4,0:0:0:0:
256,192,235934,1,8,0:0:0:0:
256,192,236085,1,8,0:0:0:0:
256,192,236237,1,0,0:0:0:0:
256,192,236388,1,8,0:0:0:0:
256,192,236843,1,0,0:0:0:0:
256,192,237752,1,8,0:0:0:0:
256,192,237904,1,8,0:0:0:0:
256,192,238055,1,0,0:0:0:0:
256,192,238207,1,8,0:0:0:0:
256,192,238358,1,0,0:0:0:0:
256,192,238510,1,0,0:0:0:0:
256,192,238661,1,0,0:0:0:0:
256,192,239419,1,8,0:0:0:0:
256,192,239570,1,0,0:0:0:0:
256,192,239722,1,0,0:0:0:0:
256,192,239873,1,8,0:0:0:0:
256,192,240025,1,0,0:0:0:0:
256,192,240176,1,0,0:0:0:0:
256,192,240328,1,0,0:0:0:0:
256,192,240479,1,8,0:0:0:0:
256,192,240782,1,0,0:0:0:0:
256,192,240934,1,0,0:0:0:0:
256,192,241085,1,0,0:0:0:0:
256,192,241237,1,0,0:0:0:0:
256,192,241388,1,8,0:0:0:0:
256,192,241540,1,8,0:0:0:0:
256,192,241691,1,8,0:0:0:0:
256,192,241843,1,8,0:0:0:0:
256,192,241994,1,0,0:0:0:0:
256,192,242146,1,0,0:0:0:0:
256,192,242298,1,8,0:0:0:0:
256,192,242752,1,8,0:0:0:0:
256,192,242828,1,0,0:0:0:0:
256,192,242904,1,0,0:0:0:0:
256,192,243055,1,8,0:0:0:0:
256,192,243207,1,0,0:0:0:0:
256,192,243358,1,0,0:0:0:0:
256,192,243510,1,8,0:0:0:0:
256,192,243661,1,0,0:0:0:0:
256,192,243813,1,0,0:0:0:0:
256,192,243964,1,0,0:0:0:0:
256,192,244116,1,8,0:0:0:0:
256,192,245328,1,0,0:0:0:0:
256,192,245479,1,8,0:0:0:0:
256,192,245631,1,0,0:0:0:0:
256,192,245707,1,0,0:0:0:0:
256,192,245782,1,8,0:0:0:0:
256,192,245934,1,8,0:0:0:0:
256,192,247298,1,0,0:0:0:0:
256,192,247601,1,0,0:0:0:0:
256,192,247752,1,8,0:0:0:0:
256,192,247904,1,0,0:0:0:0:
256,192,248055,1,0,0:0:0:0:
256,192,248207,1,8,0:0:0:0:
256,192,248358,1,0,0:0:0:0:
256,192,248510,1,0,0:0:0:0:
256,192,248661,1,8,0:0:0:0:
256,192,249116,1,8,0:0:0:0:
256,192,249570,5,4,0:0:0:0:
256,192,249797,1,8,0:0:0:0:
256,192,250024,1,0,0:0:0:0:
256,192,250252,1,8,0:0:0:0:
256,192,250365,1,0,0:0:0:0:
256,192,250706,1,0,0:0:0:0:
256,192,250933,1,8,0:0:0:0:
256,192,251161,1,8,0:0:0:0:
256,192,251388,1,0,0:0:0:0:
256,192,251616,1,0,0:0:0:0:
256,192,251843,1,8,0:0:0:0:
256,192,252070,1,8,0:0:0:0:
256,192,252183,1,0,0:0:0:0:
256,192,252524,1,8,0:0:0:0:
256,192,252752,1,0,0:0:0:0:
256,192,252979,1,0,0:0:0:0:
256,192,253206,1,8,0:0:0:0:
256,192,253433,1,0,0:0:0:0:
256,192,253547,1,8,0:0:0:0:
256,192,253888,1,0,0:0:0:0:
256,192,254115,1,8,0:0:0:0:
256,192,254343,1,8,0:0:0:0:
256,192,254456,1,0,0:0:0:0:
256,192,254797,1,0,0:0:0:0:
256,192,255024,1,8,0:0:0:0:
256,192,255252,1,8,0:0:0:0:
256,192,255365,1,0,0:0:0:0:
256,192,255706,1,0,0:0:0:0:
256,192,255933,1,4,0:0:0:0:
256,192,256388,1,12,0:0:0:0:
256,192,256843,1,4,0:0:0:0:
256,192,257070,1,0,0:0:0:0:
256,192,257297,1,8,0:0:0:0:
256,192,257524,1,0,0:0:0:0:
256,192,257638,1,8,0:0:0:0:
256,192,257979,1,0,0:0:0:0:
256,192,258206,1,8,0:0:0:0:
256,192,258433,1,8,0:0:0:0:
256,192,258661,1,0,0:0:0:0:
256,192,258888,1,0,0:0:0:0:
256,192,259115,1,8,0:0:0:0:
256,192,259343,1,8,0:0:0:0:
256,192,259570,1,0,0:0:0:0:
256,192,260024,1,8,0:0:0:0:
256,192,260252,1,8,0:0:0:0:
256,192,260365,1,8,0:0:0:0:
256,192,260479,1,0,0:0:0:0:
256,192,260933,1,8,0:0:0:0:
256,192,261161,1,0,0:0:0:0:
256,192,261275,1,0,0:0:0:0:
256,192,261388,1,8,0:0:0:0:
256,192,261843,1,8,0:0:0:0:
256,192,262070,1,0,0:0:0:0:
256,192,262183,1,8,0:0:0:0:
256,192,262297,1,4,0:0:0:0:
256,192,262525,12,0,264116,0:0:0:0:
256,192,265479,5,8,0:0:0:0:
256,192,265934,5,4,0:0:0:0:
256,192,266162,1,8,0:0:0:0:
256,192,266389,1,0,0:0:0:0:
256,192,266616,1,8,0:0:0:0:
256,192,266730,1,0,0:0:0:0:
256,192,267071,1,0,0:0:0:0:
256,192,267185,1,8,0:0:0:0:
256,192,267298,1,0,0:0:0:0:
256,192,267525,1,8,0:0:0:0:
256,192,267752,1,0,0:0:0:0:
256,192,267980,1,0,0:0:0:0:
256,192,268093,1,0,0:0:0:0:
256,192,268207,1,8,0:0:0:0:
256,192,268434,1,0,0:0:0:0:
256,192,268548,1,8,0:0:0:0:
256,192,268889,1,8,0:0:0:0:
256,192,269002,1,8,0:0:0:0:
256,192,269116,1,0,0:0:0:0:
256,192,269229,1,0,0:0:0:0:
256,192,269343,1,8,0:0:0:0:
256,192,269571,1,4,0:0:0:0:
256,192,269798,1,0,0:0:0:0:
256,192,269912,1,8,0:0:0:0:
256,192,270252,1,8,0:0:0:0:
256,192,270366,1,8,0:0:0:0:
256,192,270480,1,0,0:0:0:0:
256,192,270707,1,0,0:0:0:0:
256,192,270821,1,8,0:0:0:0:
256,192,271162,1,0,0:0:0:0:
256,192,271275,1,0,0:0:0:0:
256,192,271389,1,0,0:0:0:0:
256,192,271616,1,8,0:0:0:0:
256,192,271730,1,0,0:0:0:0:
256,192,272071,1,0,0:0:0:0:
256,192,272298,1,4,0:0:0:0:
256,192,272752,1,12,0:0:0:0:
256,192,273207,1,4,0:0:0:0:
256,192,273434,1,8,0:0:0:0:
256,192,273548,1,8,0:0:0:0:
256,192,273662,1,0,0:0:0:0:
256,192,273889,1,8,0:0:0:0:
256,192,274116,1,0,0:0:0:0:
256,192,274343,1,0,0:0:0:0:
256,192,274457,1,0,0:0:0:0:
256,192,274571,1,8,0:0:0:0:
256,192,274798,1,8,0:0:0:0:
256,192,275025,1,0,0:0:0:0:
256,192,275252,1,8,0:0:0:0:
256,192,275366,1,8,0:0:0:0:
256,192,275480,1,0,0:0:0:0:
256,192,275707,1,0,0:0:0:0:
256,192,275820,1,0,0:0:0:0:
256,192,275934,1,8,0:0:0:0:
256,192,276048,1,8,0:0:0:0:
256,192,276162,1,0,0:0:0:0:
256,192,276389,1,8,0:0:0:0:
256,192,276616,1,0,0:0:0:0:
256,192,276730,1,0,0:0:0:0:
256,192,276843,1,12,0:0:0:0:
256,192,277298,1,8,0:0:0:0:
256,192,277525,1,0,0:0:0:0:
256,192,277639,1,8,0:0:0:0:
256,192,277752,1,0,0:0:0:0:
256,192,278207,1,8,0:0:0:0:
256,192,278434,1,8,0:0:0:0:
256,192,278548,1,8,0:0:0:0:
256,192,278662,1,4,0:0:0:0:
256,192,279116,1,8,0:0:0:0:
256,192,279571,1,4,0:0:0:0:
256,192,279798,1,8,0:0:0:0:
256,192,280025,1,0,0:0:0:0:
256,192,280139,1,0,0:0:0:0:
256,192,280252,1,0,0:0:0:0:
256,192,280479,1,12,0:0:0:0:
256,192,280706,1,0,0:0:0:0:
256,192,280933,1,0,0:0:0:0:
256,192,281161,1,12,0:0:0:0:
256,192,281388,1,8,0:0:0:0:
256,192,281615,1,0,0:0:0:0:
256,192,281842,1,12,0:0:0:0:
256,192,282070,1,0,0:0:0:0:
256,192,282297,1,0,0:0:0:0:
256,192,282524,1,12,0:0:0:0:
256,192,282752,1,8,0:0:0:0:
256,192,282979,1,0,0:0:0:0:
256,192,283207,1,12,0:0:0:0:
256,192,283434,1,0,0:0:0:0:
256,192,283661,1,0,0:0:0:0:
256,192,284116,1,12,0:0:0:0:
256,192,284343,1,8,0:0:0:0:
256,192,284570,1,0,0:0:0:0:
256,192,284798,1,12,0:0:0:0:
256,192,285025,1,8,0:0:0:0:
256,192,285252,1,0,0:0:0:0:
256,192,285479,1,12,0:0:0:0:
256,192,285707,1,0,0:0:0:0:
256,192,285934,1,0,0:0:0:0:
256,192,286161,1,12,0:0:0:0:
256,192,286389,1,0,0:0:0:0:
256,192,286616,1,0,0:0:0:0:
256,192,286844,1,12,0:0:0:0:
256,192,287071,1,8,0:0:0:0:
256,192,287298,1,0,0:0:0:0:
256,192,287752,1,12,0:0:0:0:
256,192,287979,1,8,0:0:0:0:
256,192,288206,1,0,0:0:0:0:
256,192,288434,1,12,0:0:0:0:
256,192,288661,1,8,0:0:0:0:
256,192,288888,1,0,0:0:0:0:
256,192,289115,1,12,0:0:0:0:
256,192,289343,1,0,0:0:0:0:
256,192,289570,1,0,0:0:0:0:
256,192,289797,1,12,0:0:0:0:
256,192,290025,1,0,0:0:0:0:
256,192,290252,1,0,0:0:0:0:
256,192,290480,1,12,0:0:0:0:
256,192,290707,1,8,0:0:0:0:
256,192,290934,1,0,0:0:0:0:
256,192,291161,1,0,0:0:0:0:
256,192,291388,1,12,0:0:0:0:
256,192,291616,12,0,292979,0:0:0:0:
256,192,293207,5,4,0:0:0:0:
256,192,293888,1,8,0:0:0:0:
256,192,294116,1,0,0:0:0:0:
256,192,294343,1,0,0:0:0:0:
256,192,294570,1,8,0:0:0:0:
256,192,294798,1,0,0:0:0:0:
256,192,295025,1,12,0:0:0:0:
256,192,295252,12,0,298207,0:0:0:0:
256,192,298661,5,4,0:0:0:0:
256,192,299116,1,8,0:0:0:0:
256,192,299343,1,0,0:0:0:0:
256,192,299457,1,0,0:0:0:0:
256,192,299570,1,0,0:0:0:0:
256,192,299798,1,0,0:0:0:0:
256,192,300025,1,8,0:0:0:0:
256,192,300366,1,8,0:0:0:0:
256,192,300479,1,0,0:0:0:0:
256,192,300707,1,0,0:0:0:0:
256,192,300934,1,8,0:0:0:0:
256,192,301161,1,0,0:0:0:0:
256,192,301388,1,4,0:0:0:0:
256,192,301843,1,8,0:0:0:0:
256,192,301957,1,8,0:0:0:0:
256,192,302070,1,8,0:0:0:0:
256,192,302298,1,4,0:0:0:0:
256,192,302752,1,8,0:0:0:0:
256,192,302979,1,0,0:0:0:0:
256,192,303093,1,0,0:0:0:0:
256,192,303207,1,0,0:0:0:0:
256,192,303434,1,0,0:0:0:0:
256,192,303661,1,8,0:0:0:0:
256,192,303888,1,0,0:0:0:0:
256,192,304116,1,0,0:0:0:0:
256,192,304570,1,8,0:0:0:0:
256,192,304798,1,8,0:0:0:0:
256,192,304911,1,8,0:0:0:0:
256,192,305025,1,0,0:0:0:0:
256,192,305252,1,0,0:0:0:0:
256,192,305479,1,8,0:0:0:0:
256,192,305707,1,0,0:0:0:0:
256,192,305934,1,4,0:0:0:0:
256,192,306161,1,0,0:0:0:0:
256,192,306275,1,0,0:0:0:0:
256,192,306388,1,0,0:0:0:0:
256,192,306616,1,12,0:0:0:0:
256,192,306843,1,0,0:0:0:0:
256,192,306957,1,0,0:0:0:0:
256,192,307070,1,0,0:0:0:0:
256,192,307298,1,12,0:0:0:0:
256,192,307525,1,0,0:0:0:0:
256,192,307638,1,0,0:0:0:0:
256,192,307752,1,0,0:0:0:0:
256,192,307979,1,12,0:0:0:0:
256,192,308207,12,0,309570,0:0:0:0:
256,192,310489,12,0,324807,0:0:0:0:
