osu file format v14

[General]
AudioFilename: audio.mp3
AudioLeadIn: 0
PreviewTime: 265351
Countdown: 1
SampleSet: Soft
StackLeniency: 1
Mode: 0
LetterboxInBreaks: 0
WidescreenStoryboard: 0

[Editor]
Bookmarks: 479,2297,9569,16842,24115,31388,38660,45933,53206,60479,67751,75024,82297,89569,96842,104115,111388,118660,125933,133206,140479,147751,155024,162297,169569,176842,184115,191388,198660,205933,213192,216842,220479,227751,235024,242297,249569,256842,265933,273206,280479,291388,295024,302297,310489,325734
DistanceSpacing: 1.2
BeatDivisor: 4
GridSize: 4
TimelineZoom: 1.8

[Metadata]
Title:Iscariot no Sakebi
TitleUnicode:イスカリオテの叫び
Artist:*namirin
ArtistUnicode:*なみりん
Creator:Mao
Version:Apostle
Source:osu!
Tags:featured artist fa mappers' guild mg marathon 5colors ぎあ Gear Vocaloid Hatsune miku
BeatmapID:1884658
BeatmapSetID:902745

[Difficulty]
HPDrainRate:6
CircleSize:3.6
OverallDifficulty:8.3
ApproachRate:9.3
SliderMultiplier:2
SliderTickRate:1

[Events]
//Background and Video events
0,0,"bg.jpg",0,0
//Break Periods
2,20664,23501
2,115210,118046
//Storyboard Layer 0 (Background)
//Storyboard Layer 1 (Fail)
//Storyboard Layer 2 (Pass)
//Storyboard Layer 3 (Foreground)
//Storyboard Sound Samples

[TimingPoints]
465,454.545454545455,4,2,1,5,1,0
2283,-133.333333333333,4,2,1,30,0,0
9555,-133.333333333333,4,2,1,40,0,0
16828,-285.714285714284,4,2,1,20,0,0
25692,-285.714285714284,4,2,1,5,0,0
25919,-222.222222222221,4,2,1,30,0,0
26828,-222.222222222221,4,2,1,15,0,0
27055,-222.222222222221,4,2,1,30,0,0
27737,-181.818181818181,4,2,1,30,0,0
38646,-133.333333333333,4,2,1,30,0,0
44555,-117.647058823529,4,2,1,30,0,0
45010,-105.263157894737,4,2,1,30,0,0
45919,-117.647058823529,4,2,1,40,0,0
53192,-105.263157894737,4,2,1,40,0,0
58646,-105.263157894737,4,2,0,50,0,0
60465,-100,4,3,0,60,0,0
75010,-66.6666666666667,4,2,1,80,0,1
81374,-50,4,2,1,80,0,1
81715,-66.6666666666667,4,2,1,80,0,1
89442,-66.6666666666667,4,2,1,80,0,0
89555,-66.6666666666667,4,2,1,80,0,1
95919,-50,4,2,1,80,0,1
96260,-66.6666666666667,4,2,1,80,0,1
103987,-66.6666666666667,4,2,1,80,0,0
104101,-100,4,2,1,80,0,1
104669,-100,4,2,1,80,0,0
104783,-100,4,2,1,80,0,1
105351,-100,4,2,1,80,0,0
105465,-100,4,2,1,80,0,1
106033,-100,4,2,1,80,0,0
106146,-100,4,2,1,80,0,1
107737,-100,4,2,1,80,0,0
109555,-100,4,2,1,80,0,1
110010,-100,4,2,1,80,0,0
111374,-333.333333333333,4,2,1,60,0,0
118646,-133.333333333333,4,2,1,50,0,0
125919,-117.64705882353,4,2,1,40,0,0
133192,-105.263157894737,4,2,1,40,0,0
138646,-105.263157894737,4,2,0,50,0,0
140465,-100,4,3,0,60,0,0
155010,-66.6666666666667,4,2,1,80,0,1
161374,-50,4,2,1,80,0,1
161601,-66.6666666666667,4,2,1,80,0,1
169442,-66.6666666666667,4,2,1,80,0,0
169555,-66.6666666666667,4,2,1,80,0,1
175919,-50,4,2,1,80,0,1
176146,-66.6666666666667,4,2,1,80,0,1
183987,-66.6666666666667,4,2,1,80,0,0
184101,-66.6666666666667,4,2,1,80,0,1
184669,-66.6666666666667,4,2,1,80,0,0
184783,-66.6666666666667,4,2,1,80,0,1
185351,-66.6666666666667,4,2,1,80,0,0
185465,-66.6666666666667,4,2,1,80,0,1
186033,-66.6666666666667,4,2,1,80,0,0
186146,-66.6666666666667,4,2,1,80,0,1
186715,-66.6666666666667,4,2,1,80,0,0
186828,-66.6666666666667,4,2,1,80,0,1
187737,-66.6666666666667,4,2,1,80,0,0
189555,-66.6666666666667,4,2,1,80,0,1
190010,-66.6666666666667,4,2,1,80,0,0
191146,-66.6666666666667,4,2,1,80,0,1
191374,-66.6666666666667,4,2,1,80,0,0
202965,-57.1428571428571,4,2,1,80,0,0
203646,-50,4,2,1,80,0,0
204328,-153.846153846154,4,2,1,80,0,0
204357,-153.846153846154,4,2,0,20,0,0
206146,-133.333333333334,4,2,1,30,0,0
207396,-133.333333333334,4,2,1,15,0,0
207510,-133.333333333334,4,2,1,30,0,0
214215,-133.333333333334,4,2,1,15,0,0
214328,-133.333333333334,4,2,1,30,0,0
214669,-133.333333333334,4,2,1,15,0,0
214783,-133.333333333334,4,2,1,33,0,0
217737,-125,4,2,1,36,0,0
218646,-117.647058823529,4,2,1,38,0,0
219555,-111.111111111111,4,2,1,40,0,0
220465,-111.111111111111,4,2,1,45,0,0
249555,-90.9090909090909,4,2,1,50,0,0
255919,-83.3333333333333,4,2,1,60,0,0
265919,-50,4,2,1,80,0,1
272283,-40,4,2,1,80,0,1
272510,-50,4,2,1,80,0,1
273192,-50,4,2,1,80,0,1
280351,-50,4,2,1,80,0,0
280465,-50,4,2,1,80,0,1
281033,-50,4,2,1,80,0,0
281146,-50,4,2,1,80,0,1
281715,-50,4,2,1,80,0,0
281828,-50,4,2,1,80,0,1
282396,-50,4,2,1,80,0,0
282510,-50,4,2,1,80,0,1
283078,-50,4,2,1,80,0,0
283192,-50,4,2,1,80,0,1
283987,-50,4,2,1,80,0,0
284101,-50,4,2,1,80,0,1
284669,-50,4,2,1,80,0,0
284783,-50,4,2,1,80,0,1
285351,-50,4,2,1,80,0,0
285465,-50,4,2,1,80,0,1
286033,-50,4,2,1,80,0,0
286146,-50,4,2,1,80,0,1
286715,-50,4,2,1,80,0,0
286828,-50,4,2,1,80,0,1
287624,-50,4,2,1,80,0,0
287737,-50,4,2,1,80,0,1
288305,-50,4,2,1,80,0,0
288419,-50,4,2,1,80,0,1
288987,-50,4,2,1,80,0,0
289101,-50,4,2,1,80,0,1
289669,-50,4,2,1,80,0,0
289783,-50,4,2,1,80,0,1
290351,-50,4,2,1,80,0,0
290465,-50,4,2,1,80,0,1
291374,-50,4,2,1,80,0,0
293192,-50,4,2,1,80,0,1
293646,-50,4,2,1,80,0,0
294783,-50,4,2,1,80,0,1
295010,-50,4,2,1,80,0,0
306601,-40,4,2,1,80,0,0
307283,-33.3333333333333,4,2,1,80,0,0
307737,-133.333333333333,4,2,1,80,0,0
309555,-133.333333333333,4,2,1,5,0,0
310465,451.127819548872,4,2,1,50,1,0
310465,-400,4,2,1,50,0,0
310577,-400,4,2,2,5,0,0
312269,461.538461538462,4,2,2,5,1,0
314115,447.761194029851,4,2,2,5,1,0
315906,451.127819548872,4,2,2,5,1,0
317710,441.176470588235,4,2,2,5,1,0
319474,521.739130434783,4,2,2,5,1,0

[Colours]
Combo1 : 237,235,205
Combo2 : 77,82,130
Combo3 : 95,115,146
Combo4 : 125,167,174
Combo5 : 163,209,214
Combo6 : 197,209,202

[HitObjects]
256,192,465,12,0,2055,0:0:0:0:
62,130,2283,6,2,B|22:50|110:-6|210:34|182:174|134:146|86:262|178:350,1,450.000017166138,6|2,1:0|0:0,0:0:0:0:
11,249,4101,2,2,B|161:274|126:125|275:142,1,300.000011444092,4|4,0:0|0:0,0:0:0:0:
449,333,5465,2,0,P|461:345|469:365,4,25.0000009536744,2|0|0|0|0,0:0|0:0|0:0|0:0|0:0,0:0:0:0:
512,280,5919,6,2,B|448:343|376:310|399:238|323:207|279:281|329:322|206:372|126:294|123:234,1,450.000017166138,4|0,1:0|0:0,0:3:0:0:
146,21,7737,2,2,B|234:97|154:157|222:225,1,225.000008583069,4|0,0:0|0:0,0:0:0:0:
289,166,8533,1,0,0:0:0:0:
289,166,8646,2,2,B|213:78|153:158|85:90,1,225.000008583069,4|0,0:0|0:0,0:0:0:0:
6,217,9555,6,0,L|16:281,1,50.0000019073487,6|0,1:0|0:0,0:0:0:0:
100,253,9858,2,0,L|90:317,1,50.0000019073487,2|4,0:0|0:0,0:0:0:0:
175,209,10161,2,0,L|185:273,1,50.0000019073487,2|0,0:1|0:0,0:0:0:0:
243,358,10465,6,0,L|251:308,1,50.0000019073487,2|0,1:0|0:0,0:0:0:0:
336,308,10768,2,0,L|329:258,1,50.0000019073487,2|4,0:0|0:0,0:0:0:0:
422,348,11071,1,2,0:1:0:0:
438,319,11222,1,0,3:0:0:0:
486,201,11374,6,0,P|499:241|502:277,1,50.0000019073487,6|0,1:0|0:0,0:0:0:0:
410,144,11677,2,0,P|397:184|394:220,1,50.0000019073487,2|4,0:0|0:0,0:0:0:0:
494,101,11980,1,2,0:1:0:0:
487,68,12131,1,0,3:0:0:0:
419,12,12283,5,2,1:0:0:0:
304,149,12586,1,4,0:0:0:0:
195,24,12889,2,0,P|199:38|212:54,2,25.0000009536744,2|0|0,3:1|3:0|3:0,3:0:0:0:
286,61,13192,6,0,P|307:48|324:30,1,50.0000019073487,6|0,1:0|0:0,0:0:0:0:
220,126,13495,1,2,0:0:0:0:
192,140,13646,1,4,0:0:0:0:
106,72,13798,1,2,0:1:0:0:
62,56,13949,1,0,0:0:0:0:
53,152,14101,6,0,L|36:208,1,50.0000019073487,2|0,1:0|0:0,0:0:0:0:
141,200,14404,2,0,L|145:259,1,50.0000019073487,2|4,0:0|0:0,0:0:0:0:
55,297,14707,2,0,L|35:348,1,50.0000019073487,2|0,0:1|0:0,0:0:0:0:
159,361,15010,5,6,1:0:0:0:
225,277,15313,1,4,0:0:0:0:
406,324,15692,5,2,3:0:0:0:
406,324,15805,1,2,3:0:0:0:
406,324,15919,2,0,P|374:301|337:295,1,50.0000019073487,6|0,1:0|0:0,0:0:0:0:
492,247,16222,2,0,P|491:281|482:316,1,50.0000019073487,2|4,0:0|0:0,0:0:0:0:
403,218,16525,5,2,0:1:0:0:
403,218,16601,1,0,0:0:0:0:
403,218,16677,1,2,0:0:0:0:
403,218,16752,1,0,0:0:0:0:
403,218,16828,6,2,B|461:159|398:37|268:75|256:188|256:192|256:197|243:310|113:348|50:226|109:167,1,559.999982910157,2|0,1:0|0:0,2:0:0:0:
464,51,24101,6,0,P|419:161|305:195,1,244.999992523194,6|0,0:0|0:0,0:0:0:0:
239,119,25919,2,0,P|263:219|287:299,1,179.999994506836,2|0,0:0|0:0,0:0:0:0:
312,220,27055,2,0,P|342:274|379:299,1,89.9999972534181,2|0,0:0|0:0,0:0:0:0:
440,352,27737,6,0,B|281:380|204:209|300:192|215:18|60:35,1,550.000016784668,2|0,0:0|0:0,0:0:0:0:
61,34,30465,2,0,P|99:81|83:190,1,165.000005035401,2|0,0:0|0:0,0:0:0:0:
21,221,31374,1,4,0:0:0:0:
87,358,31601,5,2,0:0:0:0:
126,292,31828,1,0,0:0:0:0:
199,269,32055,2,0,P|241:271|300:309,1,110.000003356934,2|0,0:0|0:0,0:0:0:0:
346,375,32737,1,2,0:0:0:0:
346,375,32965,1,0,0:0:0:0:
460,319,33192,5,2,0:0:0:0:
424,251,33419,1,0,0:0:0:0:
477,195,33646,1,2,0:0:0:0:
421,141,33874,1,0,0:0:0:0:
512,112,34101,2,0,P|519:69|498:-5,1,110.000003356934,2|0,0:0|0:0,0:0:0:0:
503,5,35010,1,0,0:0:0:0:
410,61,35237,5,2,0:0:0:0:
331,45,35465,1,0,0:0:0:0:
320,121,35692,2,0,P|318:175|334:242,1,110.000003356934,2|0,0:0|0:0,0:0:0:0:
364,304,36374,1,0,0:0:0:0:
364,304,36601,2,0,P|371:254|363:183,1,110.000003356934,2|0,0:0|0:0,0:0:0:0:
243,266,37283,5,2,0:0:0:0:
242,342,37510,1,0,0:0:0:0:
168,319,37737,1,2,0:0:0:0:
101,357,37965,1,0,0:0:0:0:
83,282,38192,1,2,0:0:0:0:
18,239,38419,1,0,0:0:0:0:
93,273,38646,1,4,0:0:0:0:
76,164,38874,6,0,P|43:147|18:120,1,75.0000028610231,2|0,0:0|0:0,0:0:0:0:
9,35,39328,2,0,P|63:91|154:93,1,150.000005722046,2|0,0:0|0:0,0:0:0:0:
202,56,40010,1,2,0:0:0:0:
202,56,40237,1,0,0:0:0:0:
305,120,40465,5,2,0:0:0:0:
341,46,40692,1,0,0:0:0:0:
409,92,40919,1,2,0:0:0:0:
483,56,41146,1,0,0:0:0:0:
481,158,41374,2,0,P|427:150|338:203,1,150.000005722046,2|0,0:0|0:0,0:0:0:0:
465,268,42055,2,0,P|455:252|435:237,1,37.5000014305115
476,292,42283,6,0,P|391:270|312:312,1,150.000005722046,4|0,0:0|0:0,0:0:0:0:
222,364,42965,1,2,0:0:0:0:
250,286,43192,1,2,0:0:0:0:
254,203,43419,1,0,0:0:0:0:
173,183,43646,1,2,0:0:0:0:
202,105,43874,1,0,0:0:0:0:
99,50,44101,6,0,P|69:49|49:68,2,50.0000019073487,2|0|0,0:0|0:0|0:0,0:0:0:0:
65,140,44555,6,0,P|39:154|26:187,2,56.6666677474976,2|0|0,0:0|0:0|0:0,0:0:0:0:
70,244,45010,6,0,P|55:269|67:300,2,63.3333316421509,2|0|0,0:0|0:0|0:0,0:0:0:0:
138,337,45465,5,2,0:0:0:0:
164,303,45616,1,0,0:0:0:0:
203,286,45768,1,0,0:0:0:0:
279,282,45919,5,4,0:0:0:0:
383,357,46146,5,2,0:0:0:0:
471,342,46373,1,0,0:0:0:0:
370,271,46600,2,0,P|375:221|443:109,1,170.000003242493,2|0,0:0|0:0,0:0:0:0:
504,78,47282,1,2,0:0:0:0:
504,78,47510,1,0,0:0:0:0:
363,18,47737,5,4,0:0:0:0:
319,88,47964,1,0,0:0:0:0:
224,64,48191,1,2,0:0:0:0:
238,148,48419,1,0,0:0:0:0:
143,156,48646,2,2,P|216:204|273:283,1,170.000003242493,4|0,0:0|0:0,0:0:0:0:
265,268,49555,1,2,0:0:0:0:
138,362,49783,5,2,0:0:0:0:
157,282,50010,1,0,0:0:0:0:
50,298,50237,2,0,P|18:209|6:118,1,170.000003242493,2|2,0:0|0:0,0:0:0:0:
102,49,50919,1,0,0:0:0:0:
102,49,51146,2,0,P|88:132|58:212,1,170.000003242493,2|0,0:0|0:0,0:0:0:0:
131,264,51828,5,2,0:0:0:0:
131,264,52055,1,0,0:0:0:0:
262,179,52282,1,2,0:0:0:0:
235,99,52510,1,0,0:0:0:0:
266,24,52737,1,0,0:0:0:0:
366,106,52964,1,2,0:0:0:0:
366,106,53191,1,4,0:0:0:0:
509,4,53419,6,0,P|463:17|430:50,1,94.9999974632264,2|0,0:0|0:0,0:0:0:0:
497,115,53873,2,0,P|460:156|418:300,1,189.999994926453,2|0,0:0|0:0,0:0:0:0:
440,371,54555,1,2,0:0:0:0:
440,371,54782,1,0,0:0:0:0:
317,260,55010,5,4,0:0:0:0:
339,349,55237,1,0,0:0:0:0:
230,282,55464,1,2,0:0:0:0:
211,370,55691,1,0,0:0:0:0:
148,246,55919,2,0,P|108:264|74:315,1,94.9999974632264,2|0,0:0|0:0,0:0:0:0:
38,51,56601,2,0,P|61:70|82:102,1,47.4999987316132,2|0,0:0|0:0,0:0:0:0:
15,141,56828,6,0,P|101:128|196:181,1,189.999994926453,4|0,0:0|0:0,0:0:0:0:
256,311,57510,1,2,0:0:0:0:
288,225,57737,1,4,0:0:0:0:
291,134,57964,1,0,0:0:0:0:
381,161,58191,1,2,0:0:0:0:
361,62,58419,1,0,0:0:0:0:
491,92,58646,5,4,1:0:0:0:
370,249,58949,1,0,3:0:0:0:
512,377,59252,1,0,3:0:0:0:
494,318,59404,1,0,3:0:0:0:
457,270,59555,1,4,0:0:0:0:
294,373,59858,1,0,3:0:0:0:
264,179,60161,5,0,3:0:0:0:
308,137,60313,1,0,3:0:0:0:
308,72,60465,6,2,P|241:79|172:124,1,133.333333333333,6|0,1:0|2:0,0:3:0:0:
170,184,60919,2,0,L|154:139,4,33.3333333333333,2|0|0|0|2,0:1|0:0|0:0|0:0|0:2,0:0:0:0:
76,47,61374,2,2,L|60:143,1,66.6666666666667,4|0,0:2|0:0,0:0:0:0:
8,184,61677,2,2,L|23:267,1,66.6666666666667,2|0,0:0|0:0,0:0:0:0:
94,314,61980,1,2,0:1:0:0:
79,365,62131,1,4,0:0:0:0:
194,281,62283,6,2,P|257:328|330:345,1,133.333333333333,6|0,1:0|0:0,0:0:0:0:
371,301,62737,2,0,L|355:346,4,33.3333333333333,2|0|0|0|2,0:1|0:0|0:0|0:0|0:2,0:0:0:0:
490,287,63192,2,2,L|505:380,1,66.6666666666667,4|0,0:2|0:0,0:0:0:0:
421,218,63495,2,2,L|410:153,1,66.6666666666667,2|0,0:0|0:0,0:0:0:0:
504,46,63798,1,0,0:0:0:0:
489,97,63949,1,4,0:3:0:0:
366,58,64101,6,0,P|338:76|318:102,1,66.6666666666667,6|0,1:0|0:0,0:0:0:0:
238,205,64404,2,2,P|228:172|229:139,1,66.6666666666667,2|0,0:0|0:0,0:0:0:0:
186,12,64707,1,2,0:1:0:0:
226,43,64858,1,2,0:0:0:0:
46,68,65010,2,2,P|67:42|125:16,1,66.6666666666667,4|0,0:2|0:0,0:0:0:0:
132,128,65313,2,2,P|111:154|53:180,1,66.6666666666667,2|0,0:0|0:0,0:0:0:0:
79,279,65616,1,2,0:1:0:0:
22,262,65768,1,4,0:0:0:0:
173,375,65919,6,2,P|169:304|195:236,1,133.333333333333,6|0,1:0|0:0,0:0:0:0:
212,181,66373,2,0,L|228:226,4,33.3333333333333,2|0|0|0|0,0:0|0:0|0:0|0:0|0:0,0:0:0:0:
336,302,66828,2,0,L|273:282,1,66.6666666666667,4|0,0:2|0:0,0:0:0:0:
413,355,67131,2,0,L|477:375,1,66.6666666666667,2|0,0:0|0:0,0:0:0:0:
420,272,67434,1,2,0:0:0:0:
420,272,67510,1,0,0:0:0:0:
420,272,67586,1,4,0:0:0:0:
420,272,67661,1,0,0:0:0:0:
420,272,67737,6,2,P|465:223|483:160,1,133.333333333333,6|0,1:0|0:0,0:0:0:0:
461,88,68192,2,0,L|477:133,4,33.3333333333333,2|0|0|0|0,0:0|0:0|0:0|0:0|0:0,0:0:0:0:
426,11,68646,5,6,0:2:0:0:
349,175,68949,1,2,0:1:0:0:
253,24,69253,1,2,0:0:0:0:
304,39,69404,1,4,0:0:0:0:
239,144,69556,6,2,P|172:104|94:96,1,133.333333333333,6|2,1:0|0:1,0:0:0:0:
66,33,70010,2,0,L|82:78,4,33.3333333333333,2|0|0|0|0,0:0|0:0|0:0|0:0|0:0,0:0:0:0:
26,139,70465,5,4,0:2:0:0:
167,243,70768,1,2,0:1:0:0:
10,313,71071,1,2,0:0:0:0:
25,273,71222,1,4,0:0:0:0:
130,357,71374,6,2,P|175:334|269:335,1,133.333333333333,6|0,1:0|0:0,0:0:0:0:
294,376,71828,2,0,L|278:331,4,33.3333333333333,2|0|0|0|0,0:0|0:0|0:0|0:0|0:0,0:0:0:0:
257,246,72283,5,4,0:2:0:0:
363,292,72586,1,2,0:2:0:0:
479,286,72889,1,0,0:0:0:0:
454,238,73040,1,0,0:0:0:0:
451,184,73192,5,4,0:2:0:0:
415,233,73343,1,0,0:0:0:0:
357,265,73495,1,0,0:0:0:0:
276,266,73646,1,2,0:2:0:0:
202,227,73798,1,0,0:0:0:0:
153,158,73949,1,2,0:0:0:0:
142,66,74101,1,4,1:2:0:0:
420,65,75010,5,6,1:0:0:0:
203,115,75237,1,0,3:0:0:0:
451,193,75465,1,2,1:0:0:0:
320,35,75692,1,2,0:0:0:0:
320,35,75805,2,2,P|324:136|351:216,1,150.000005722046,0|0,3:0|0:0,0:3:0:0:
387,254,76146,5,2,3:2:0:0:
213,375,76374,1,2,1:0:0:0:
62,225,76601,1,2,0:0:0:0:
133,276,76715,1,0,0:0:0:0:
220,263,76828,5,6,0:0:0:0:
14,352,77055,1,0,3:0:0:0:
158,152,77283,1,2,1:0:0:0:
288,322,77510,1,2,0:0:0:0:
288,322,77624,2,2,P|253:251|245:167,1,150.000005722046,0|0,3:0|0:0,0:3:0:0:
298,119,77965,5,0,3:0:0:0:
114,21,78192,1,2,1:0:0:0:
43,220,78419,1,0,0:0:0:0:
94,148,78533,1,0,0:0:0:0:
177,115,78646,5,6,1:0:0:0:
361,238,78874,1,2,3:2:0:0:
361,238,78987,2,2,P|425:235|493:182,1,150.000005722046,2|0,0:0|0:0,0:3:0:0:
505,101,79328,1,2,0:0:0:0:
473,325,79555,1,6,0:0:0:0:
285,167,79783,1,2,3:2:0:0:
285,167,79896,2,2,P|302:84|349:43,1,150.000005722046,2|0,0:0|0:0,0:3:0:0:
432,47,80237,1,2,0:0:0:0:
267,249,80465,5,6,1:0:0:0:
205,26,80692,1,2,0:0:0:0:
205,26,80805,1,0,0:0:0:0:
277,83,80919,6,0,P|197:62|68:53,1,150.000005722046,0|0,1:0|0:0,0:0:0:0:
27,17,81260,1,0,3:0:0:0:
27,17,81374,2,0,P|94:71|170:201,1,200,4|0,0:0|3:0,0:0:0:0:
80,241,81715,1,2,0:0:0:0:
80,241,81828,5,0,1:0:0:0:
164,217,81942,1,4,0:3:0:0:
265,228,82055,1,4,0:3:0:0:
369,265,82169,1,4,0:3:0:0:
452,351,82283,5,6,1:0:0:0:
338,177,82510,1,2,0:0:0:0:
287,380,82737,1,2,1:0:0:0:
452,204,82965,1,2,0:0:0:0:
452,204,83078,2,2,P|468:130|466:42,1,150.000005722046,0|0,3:0|0:0,0:3:0:0:
404,0,83419,5,0,3:2:0:0:
257,147,83646,1,2,1:0:0:0:
69,55,83874,1,2,0:0:0:0:
152,27,83987,1,0,0:0:0:0:
231,60,84101,5,6,1:0:0:0:
35,137,84328,1,2,0:0:0:0:
204,285,84555,1,2,1:0:0:0:
139,115,84783,5,4,0:0:0:0:
158,162,84896,1,0,3:0:0:0:
55,336,85124,1,2,0:0:0:0:
61,294,85237,1,0,3:0:0:0:
329,375,85465,1,0,1:0:0:0:
329,375,85692,5,2,0:0:0:0:
401,304,85805,1,0,0:0:0:0:
495,343,85919,2,2,B|436:365|352:346|339:143,1,300.000011444092,4|0,1:0|1:0,0:3:0:0:
217,307,86601,5,2,0:0:0:0:
260,215,86714,1,0,0:0:0:0:
362,220,86828,2,2,B|314:260|228:271|147:85,1,300.000011444092,4|0,1:0|1:0,0:3:0:0:
20,358,87510,1,2,0:0:0:0:
51,249,87624,1,2,0:0:0:0:
143,188,87737,5,6,1:0:0:0:
143,188,87965,1,0,3:0:0:0:
1,41,88192,2,2,B|18:132|115:118|134:218,1,225.000008583069,4|0,0:0|0:0,0:0:0:0:
120,327,88646,5,0,3:0:0:0:
157,320,88760,1,0,3:0:0:0:
191,305,88874,1,0,3:0:0:0:
220,282,88987,1,0,3:0:0:0:
235,185,89101,5,0,1:0:0:0:
259,138,89215,1,0,1:0:0:0:
307,91,89328,1,0,1:0:0:0:
381,54,89442,1,0,1:0:0:0:
477,57,89555,5,6,1:0:0:0:
426,251,89782,1,0,3:0:0:0:
312,10,90010,1,2,1:0:0:0:
480,178,90237,1,2,0:0:0:0:
480,178,90350,2,2,P|480:273|470:350,1,150.000005722046,0|0,3:0|0:0,0:3:0:0:
402,379,90691,5,2,3:2:0:0:
320,186,90919,1,2,1:0:0:0:
115,230,91146,1,2,0:0:0:0:
195,261,91260,1,0,0:0:0:0:
238,340,91373,5,6,0:0:0:0:
33,264,91600,1,0,3:0:0:0:
238,139,91828,1,2,1:0:0:0:
128,320,92055,1,2,0:0:0:0:
128,320,92169,2,2,P|132:234|107:148,1,150.000005722046,0|0,3:0|0:0,0:3:0:0:
65,107,92510,5,0,3:0:0:0:
258,24,92737,1,2,1:0:0:0:
341,216,92964,1,0,0:0:0:0:
393,149,93078,1,0,0:0:0:0:
481,128,93191,5,6,1:0:0:0:
416,352,93419,1,2,3:2:0:0:
416,352,93532,2,2,P|413:283|460:211,1,150.000005722046,2|0,0:0|0:0,0:3:0:0:
502,302,93873,1,2,0:0:0:0:
320,370,94100,1,6,0:0:0:0:
279,121,94328,1,2,3:2:0:0:
279,121,94441,2,2,P|276:190|323:262,1,150.000005722046,2|0,0:0|0:0,0:3:0:0:
365,171,94782,1,2,0:0:0:0:
224,317,95010,5,6,1:0:0:0:
32,235,95237,1,2,0:0:0:0:
32,235,95350,1,0,0:0:0:0:
45,318,95464,6,2,P|95:259|170:201,1,150.000005722046,2|0,1:0|0:0,0:0:0:0:
70,155,95805,1,0,3:0:0:0:
70,155,95919,2,0,P|124:164|271:96,1,200,4|0,0:0|3:0,0:0:0:0:
295,33,96260,1,2,0:0:0:0:
295,33,96373,5,0,1:0:0:0:
384,13,96487,1,4,0:3:0:0:
466,69,96600,1,4,0:3:0:0:
484,179,96714,1,4,0:3:0:0:
425,296,96828,5,6,1:0:0:0:
365,111,97055,1,2,0:0:0:0:
338,367,97282,1,2,1:0:0:0:
260,166,97510,1,2,0:0:0:0:
260,166,97623,2,2,P|326:197|403:216,1,150.000005722046,0|0,3:0|0:0,0:3:0:0:
481,212,97964,5,2,3:2:0:0:
285,290,98191,1,2,1:0:0:0:
201,97,98419,1,2,0:0:0:0:
120,127,98532,1,0,0:0:0:0:
81,204,98646,5,6,1:0:0:0:
214,366,98873,1,2,0:0:0:0:
272,165,99100,1,2,1:0:0:0:
74,302,99328,5,6,0:0:0:0:
89,348,99441,1,0,3:0:0:0:
283,253,99669,1,2,0:0:0:0:
274,300,99782,1,0,3:0:0:0:
13,133,100010,1,0,1:0:0:0:
13,133,100237,5,2,0:0:0:0:
69,45,100350,1,0,0:0:0:0:
177,31,100464,2,2,B|264:97|155:242|171:316,1,300.000011444092,4|0,1:0|1:0,0:3:0:0:
497,177,101146,5,2,0:0:0:0:
441,89,101259,1,0,0:0:0:0:
333,75,101373,2,2,B|245:141|354:286|338:360,1,300.000011444092,4|0,1:0|1:0,0:3:0:0:
38,304,102055,1,2,0:0:0:0:
93,216,102169,1,2,0:0:0:0:
194,193,102282,5,6,1:0:0:0:
194,193,102510,1,0,3:0:0:0:
253,361,102737,2,2,B|362:354|334:274|445:258,1,225.000008583069,4|0,0:0|0:0,0:0:0:0:
399,333,103191,5,0,3:0:0:0:
371,297,103305,1,0,3:0:0:0:
365,252,103419,1,0,3:0:0:0:
376,208,103532,1,0,3:0:0:0:
453,106,103646,5,0,1:0:0:0:
386,149,103760,1,0,1:0:0:0:
292,155,103873,1,0,1:0:0:0:
173,117,103987,1,0,1:0:0:0:
47,21,104101,5,6,1:0:0:0:
141,335,104328,1,2,0:0:0:0:
439,352,104555,1,4,0:0:0:0:
56,97,104782,5,6,1:0:0:0:
211,297,105010,1,2,1:2:0:0:
460,280,105237,1,4,0:0:0:0:
103,158,105464,5,6,1:0:0:0:
279,252,105691,1,2,0:0:0:0:
472,201,105919,1,4,0:0:0:0:
317,28,106146,6,2,P|290:85|262:186,1,150,6|0,1:0|0:0,0:3:0:0:
259,80,106601,1,0,1:0:0:0:
341,335,106828,5,2,1:0:0:0:
171,49,107055,1,4,0:0:0:0:
124,284,107283,5,0,1:0:0:0:
172,214,107396,1,0,1:0:0:0:
239,162,107510,1,0,1:0:0:0:
321,139,107624,1,0,1:0:0:0:
417,153,107737,5,6,1:0:0:0:
417,153,108192,1,0,0:0:0:0:
417,153,108646,1,2,0:0:0:0:
417,153,109101,1,0,3:0:0:0:
425,172,109177,1,0,3:0:0:0:
432,191,109252,1,0,3:0:0:0:
440,210,109328,1,0,3:0:0:0:
465,61,109555,5,12,0:0:0:0:
403,202,109783,1,6,0:3:0:0:
344,345,110010,1,8,0:1:0:0:
344,345,110692,1,8,0:0:0:0:
256,192,110919,1,8,0:1:0:0:
256,192,111374,6,2,B|241:291|153:322|77:281|77:281|80:220|105:172|140:204|200:120|156:72,1,479.999985351563,6|6,1:0|1:0,0:0:0:0:
242,50,118646,6,0,L|232:114,1,50.0000019073487,6|0,1:0|0:0,0:0:0:0:
148,86,118949,2,0,L|158:150,1,50.0000019073487,2|4,0:0|0:0,0:0:0:0:
73,42,119252,2,0,L|63:106,1,50.0000019073487,2|0,0:1|0:0,0:0:0:0:
97,261,119556,6,0,L|105:211,1,50.0000019073487,2|0,1:0|0:0,0:0:0:0:
19,224,119859,2,0,L|12:174,1,50.0000019073487,2|4,0:0|0:0,0:0:0:0:
106,350,120162,1,2,0:1:0:0:
78,364,120313,1,0,3:0:0:0:
187,303,120465,6,0,P|200:343|203:379,1,50.0000019073487,6|0,1:0|0:0,0:0:0:0:
295,261,120768,2,0,P|282:301|279:337,1,50.0000019073487,2|4,0:0|0:0,0:0:0:0:
387,373,121071,1,2,0:1:0:0:
380,340,121222,1,0,3:0:0:0:
471,337,121374,5,2,1:0:0:0:
364,189,121677,1,4,0:0:0:0:
503,80,121980,2,0,P|499:94|486:110,2,25.0000009536744,2|0|0,3:1|3:0|3:0,3:0:0:0:
450,18,122283,6,0,P|424:44|401:53,1,50.0000019073487,6|0,1:0|0:0,0:0:0:0:
426,170,122586,1,2,0:0:0:0:
392,151,122737,1,4,0:0:0:0:
309,223,122889,1,2,0:1:0:0:
293,179,123040,1,0,0:0:0:0:
228,61,123192,6,0,L|211:117,1,50.0000019073487,2|0,1:0|0:0,0:0:0:0:
116,66,123495,2,0,L|120:125,1,50.0000019073487,2|4,0:0|0:0,0:0:0:0:
17,107,123798,2,0,L|37:158,1,50.0000019073487,2|0,0:1|0:0,0:0:0:0:
6,340,124101,5,6,1:0:0:0:
112,204,124404,1,4,0:0:0:0:
273,367,124783,5,2,3:0:0:0:
273,367,124896,1,2,3:0:0:0:
273,367,125010,2,0,P|296:335|302:298,1,50.0000019073487,6|0,1:0|0:0,0:0:0:0:
376,277,125313,2,0,P|375:243|366:208,1,50.0000019073487,2|4,0:0|0:0,0:0:0:0:
337,153,125616,1,2,0:1:0:0:
337,153,125692,1,0,0:0:0:0:
337,153,125768,1,2,0:0:0:0:
337,153,125843,1,0,0:0:0:0:
337,153,125919,1,6,1:0:0:0:
488,52,126146,5,2,0:0:0:0:
469,136,126373,1,0,0:0:0:0:
364,58,126600,2,0,P|318:33|187:32,1,170.000003242493,2|0,0:0|0:0,0:0:0:0:
133,84,127282,1,2,0:0:0:0:
133,84,127510,1,0,0:0:0:0:
11,25,127737,5,4,0:0:0:0:
27,109,127964,1,0,0:0:0:0:
122,195,128191,1,2,0:0:0:0:
102,276,128419,1,0,0:0:0:0:
30,372,128646,2,2,P|107:330|204:317,1,170.000003242493,4|0,0:0|0:0,0:0:0:0:
187,316,129555,1,2,0:0:0:0:
321,358,129783,5,2,0:0:0:0:
312,272,130010,1,0,0:0:0:0:
435,304,130237,2,0,P|467:215|479:124,1,170.000003242493,2|2,0:0|0:0,0:0:0:0:
376,41,130919,1,0,0:0:0:0:
376,41,131146,2,0,P|390:124|420:204,1,170.000003242493,2|0,0:0|0:0,0:0:0:0:
361,350,131828,5,2,0:0:0:0:
361,350,132055,1,0,0:0:0:0:
294,292,132282,1,6,0:0:0:0:
213,324,132510,1,0,0:0:0:0:
151,268,132737,1,0,0:0:0:0:
16,371,132964,1,2,0:0:0:0:
16,371,133191,1,4,0:0:0:0:
8,223,133419,6,0,P|40:191|105:177,1,94.9999974632264,2|0,0:0|0:0,0:0:0:0:
55,88,133873,2,0,P|96:125|240:167,1,189.999994926453,2|0,0:0|0:0,0:0:0:0:
173,69,134555,1,2,0:0:0:0:
173,69,134782,1,0,0:0:0:0:
323,176,135010,5,4,0:0:0:0:
307,84,135237,1,0,0:0:0:0:
417,132,135464,1,2,0:0:0:0:
444,33,135691,1,0,0:0:0:0:
492,205,135919,2,0,P|446:215|405:238,1,94.9999974632264,2|0,0:0|0:0,0:0:0:0:
193,372,136601,2,0,P|170:353|149:321,1,47.4999987316132,2|0,0:0|0:0,0:0:0:0:
88,380,136828,6,0,P|110:295|67:195,1,189.999994926453,4|0,0:0|0:0,0:0:0:0:
0,86,137510,1,2,0:0:0:0:
106,105,137737,1,4,0:0:0:0:
143,22,137964,1,0,0:0:0:0:
185,176,138191,1,2,0:0:0:0:
260,112,138419,1,0,0:0:0:0:
250,257,138646,5,4,1:0:0:0:
335,55,138949,1,0,3:0:0:0:
456,230,139252,1,0,3:0:0:0:
397,212,139404,1,0,3:0:0:0:
349,175,139555,1,4,0:0:0:0:
466,339,139858,1,0,3:0:0:0:
499,147,140161,1,0,3:0:0:0:
453,108,140313,1,0,3:0:0:0:
391,93,140465,6,2,P|384:160|339:229,1,133.333333333333,6|0,1:0|2:0,0:3:0:0:
337,292,140919,2,0,L|321:247,4,33.3333333333333,2|0|0|0|2,0:1|0:0|0:0|0:0|0:2,0:0:0:0:
238,309,141374,2,2,L|222:405,1,66.6666666666667,4|0,0:2|0:0,0:0:0:0:
126,259,141677,2,2,L|141:342,1,66.6666666666667,2|0,0:0|0:0,0:0:0:0:
232,164,141980,1,2,0:1:0:0:
217,215,142131,1,4,0:0:0:0:
46,206,142283,6,2,P|93:143|110:70,1,133.333333333333,6|0,1:0|0:0,0:0:0:0:
44,42,142737,2,0,L|60:87,4,33.3333333333333,2|0|0|0|2,0:1|0:0|0:0|0:0|0:2,0:0:0:0:
203,26,143192,2,2,L|187:122,1,66.6666666666667,4|0,0:2|0:0,0:0:0:0:
292,182,143495,2,2,L|281:117,1,66.6666666666667,2|0,0:0|0:0,0:0:0:0:
383,23,143798,1,0,0:0:0:0:
368,74,143949,1,4,0:3:0:0:
508,123,144101,6,0,P|488:97|460:78,1,66.6666666666667,6|0,1:0|0:0,0:0:0:0:
385,224,144404,2,2,P|395:192|414:165,1,66.6666666666667,2|0,0:0|0:0,0:0:0:0:
456,309,144707,1,2,0:1:0:0:
445,369,144858,1,2,0:0:0:0:
313,317,145010,2,2,P|292:291|234:265,1,66.6666666666667,4|0,0:2|0:0,0:0:0:0:
190,174,145313,2,2,P|169:200|111:226,1,66.6666666666667,2|0,0:0|0:0,0:0:0:0:
94,368,145616,1,2,0:1:0:0:
151,351,145768,1,4,0:0:0:0:
9,272,145919,6,2,P|5:201|31:133,1,133.333333333333,6|0,1:0|0:0,0:0:0:0:
33,67,146373,2,0,L|49:112,4,33.3333333333333,2|0|0|0|0,0:0|0:0|0:0|0:0|0:0,0:0:0:0:
195,43,146828,2,0,L|132:23,1,66.6666666666667,4|0,0:2|0:0,0:0:0:0:
247,131,147131,2,0,L|311:111,1,66.6666666666667,2|0,0:0|0:0,0:0:0:0:
166,218,147434,1,2,0:0:0:0:
166,218,147510,1,0,0:0:0:0:
166,218,147586,1,4,0:0:0:0:
166,218,147661,1,0,0:0:0:0:
166,218,147737,6,2,P|238:242|279:284,1,133.333333333333,6|0,1:0|0:0,0:0:0:0:
313,368,148192,1,2,0:1:0:0:
313,368,148268,1,0,0:0:0:0:
313,368,148343,1,0,0:0:0:0:
313,368,148419,1,2,0:2:0:0:
502,184,148646,5,6,0:2:0:0:
419,360,148949,1,2,0:1:0:0:
429,110,149253,1,2,0:0:0:0:
414,161,149404,1,4,0:0:0:0:
512,291,149556,6,2,P|436:278|367:243,1,133.333333333333,6|2,1:0|0:1,0:0:0:0:
320,205,150010,1,0,0:0:0:0:
320,205,150086,1,0,0:0:0:0:
320,205,150161,1,0,0:0:0:0:
320,205,150237,1,0,0:0:0:0:
221,363,150465,5,4,0:2:0:0:
183,139,150768,1,2,0:1:0:0:
94,355,151071,1,2,0:0:0:0:
161,297,151222,1,4,0:0:0:0:
33,193,151374,6,2,P|10:148|11:54,1,133.333333333333,6|0,1:0|0:0,0:0:0:0:
74,16,151828,1,2,0:0:0:0:
74,16,151904,1,0,0:0:0:0:
74,16,151980,1,0,0:0:0:0:
74,16,152055,1,0,0:0:0:0:
167,86,152283,5,4,0:2:0:0:
190,188,152586,1,2,0:2:0:0:
176,289,152889,1,0,0:0:0:0:
222,315,153040,1,0,0:0:0:0:
249,360,153192,5,4,0:2:0:0:
306,380,153343,1,0,0:0:0:0:
372,372,153495,1,0,0:0:0:0:
439,327,153646,1,2,0:2:0:0:
478,252,153798,1,0,0:0:0:0:
478,169,153949,1,2,0:0:0:0:
435,86,154101,1,4,1:2:0:0:
245,273,155010,5,6,1:0:0:0:
39,316,155237,1,0,3:0:0:0:
277,362,155465,1,2,1:0:0:0:
102,254,155692,1,2,0:0:0:0:
102,254,155805,2,2,P|118:166|125:70,1,150.000005722046,0|0,3:0|0:0,0:3:0:0:
111,17,156146,5,2,3:2:0:0:
286,161,156374,1,2,1:0:0:0:
495,75,156601,1,2,0:0:0:0:
409,52,156715,1,0,0:0:0:0:
327,81,156828,5,6,0:0:0:0:
302,286,157055,1,0,3:0:0:0:
507,159,157283,1,2,1:0:0:0:
386,345,157510,1,2,0:0:0:0:
386,345,157624,2,2,P|413:289|415:201,1,150.000005722046,0|0,3:0|0:0,0:3:0:0:
373,126,157965,5,0,3:0:0:0:
253,314,158192,1,2,1:0:0:0:
43,235,158419,1,0,0:0:0:0:
79,157,158533,1,0,0:0:0:0:
56,75,158646,5,6,1:0:0:0:
84,361,158874,1,2,3:2:0:0:
84,361,158987,2,2,P|111:295|191:244,1,150.000005722046,2|0,0:0|0:0,0:3:0:0:
256,229,159328,1,2,0:0:0:0:
182,33,159555,1,6,0:0:0:0:
366,196,159783,1,2,3:2:0:0:
366,196,159896,2,2,P|320:133|240:103,1,150.000005722046,2|0,0:0|0:0,0:3:0:0:
173,131,160237,1,2,0:0:0:0:
293,339,160465,5,6,1:0:0:0:
489,304,160692,1,2,0:0:0:0:
489,304,160805,1,0,0:0:0:0:
429,365,160919,6,0,P|434:273|446:210,1,150.000005722046,0|0,1:0|0:0,0:0:0:0:
354,256,161260,1,0,3:0:0:0:
354,256,161374,2,0,P|421:172|447:53,1,200,4|0,0:0|3:0,0:0:0:0:
322,20,161715,1,2,0:0:0:0:
322,20,161828,5,0,1:0:0:0:
324,104,161942,1,4,0:3:0:0:
272,181,162055,1,4,0:3:0:0:
170,215,162169,1,4,0:3:0:0:
67,169,162283,5,6,1:0:0:0:
235,77,162510,1,2,0:0:0:0:
142,306,162737,1,2,1:0:0:0:
47,26,162965,1,2,0:0:0:0:
47,26,163078,2,2,P|79:115|95:209,1,150.000005722046,0|0,3:0|0:0,0:3:0:0:
73,251,163419,5,0,3:2:0:0:
249,365,163646,1,2,1:0:0:0:
377,195,163874,1,2,0:0:0:0:
446,149,163987,1,0,0:0:0:0:
512,197,164101,5,6,1:0:0:0:
321,291,164328,1,2,0:0:0:0:
247,97,164555,1,2,1:0:0:0:
403,341,164783,5,4,0:0:0:0:
416,282,164896,1,0,3:0:0:0:
220,308,165124,1,2,0:0:0:0:
211,243,165237,1,0,3:0:0:0:
438,112,165465,1,0,1:0:0:0:
438,112,165692,5,2,0:0:0:0:
384,26,165805,1,0,0:0:0:0:
282,17,165919,2,2,B|257:90|407:218|384:296,1,300.000011444092,4|0,1:0|1:0,0:3:0:0:
114,200,166601,5,2,0:0:0:0:
167,114,166714,1,0,0:0:0:0:
269,105,166828,2,2,B|293:178|143:306|166:384,1,300.000011444092,4|0,1:0|1:0,0:3:0:0:
22,220,167510,1,2,0:0:0:0:
0,116,167623,1,2,0:0:0:0:
48,21,167737,5,6,1:0:0:0:
48,21,167965,1,0,3:0:0:0:
159,199,168192,2,2,B|264:198|239:111|353:97,1,225.000008583069,4|0,0:0|0:0,0:0:0:0:
361,0,168646,5,0,3:0:0:0:
396,11,168760,1,0,3:0:0:0:
425,34,168874,1,0,3:0:0:0:
443,66,168987,1,0,3:0:0:0:
506,135,169101,5,0,1:0:0:0:
456,151,169215,1,0,1:0:0:0:
407,197,169328,1,0,1:0:0:0:
380,275,169442,1,0,1:0:0:0:
400,369,169555,5,6,1:0:0:0:
302,186,169782,1,0,3:0:0:0:
505,320,170010,1,2,1:0:0:0:
312,339,170237,1,2,0:0:0:0:
312,339,170350,2,2,P|224:323|128:316,1,150.000005722046,0|0,3:0|0:0,0:3:0:0:
243,284,170691,5,2,3:2:0:0:
43,367,170919,1,2,1:0:0:0:
0,162,171146,1,2,0:0:0:0:
65,219,171260,1,0,0:0:0:0:
10,282,171373,5,6,0:0:0:0:
33,79,171600,1,0,3:0:0:0:
246,190,171828,1,2,1:0:0:0:
125,16,172055,1,2,0:0:0:0:
125,16,172169,2,2,P|128:91|147:178,1,150.000005722046,0|0,3:0|0:0,0:3:0:0:
173,242,172510,5,0,3:0:0:0:
365,158,172737,1,2,1:0:0:0:
471,340,172964,1,0,0:0:0:0:
407,289,173078,1,0,0:0:0:0:
328,267,173191,5,6,1:0:0:0:
426,80,173419,1,2,3:2:0:0:
426,80,173532,2,2,P|365:118|262:112,1,150.000005722046,2|0,0:0|0:0,0:3:0:0:
236,56,173873,1,2,0:0:0:0:
192,267,174100,1,6,0:0:0:0:
89,65,174328,1,2,3:2:0:0:
89,65,174441,2,2,P|146:164|217:203,1,150.000005722046,2|0,0:0|0:0,0:3:0:0:
254,204,174782,1,2,0:0:0:0:
202,364,175010,5,6,1:0:0:0:
72,224,175237,1,2,0:0:0:0:
72,224,175350,1,0,0:0:0:0:
27,293,175464,6,2,P|97:266|177:272,1,150.000005722046,2|0,1:0|0:0,0:0:0:0:
111,354,175805,1,0,3:0:0:0:
111,354,175919,2,0,P|199:313|261:225,1,200,4|0,0:0|3:0,0:0:0:0:
209,143,176260,1,2,0:0:0:0:
209,143,176373,5,0,1:0:0:0:
246,60,176487,1,4,0:3:0:0:
337,14,176600,1,4,0:3:0:0:
438,18,176714,1,4,0:3:0:0:
512,95,176828,5,6,1:0:0:0:
402,316,177055,1,2,0:0:0:0:
334,106,177282,1,2,1:0:0:0:
483,375,177510,1,2,0:0:0:0:
483,375,177623,2,2,P|441:291|437:221,1,150.000005722046,0|0,3:0|0:0,0:3:0:0:
429,146,177964,5,2,3:2:0:0:
226,191,178191,1,2,1:0:0:0:
118,368,178419,1,2,0:0:0:0:
88,288,178532,1,0,0:0:0:0:
104,202,178646,5,6,1:0:0:0:
292,352,178873,1,2,0:0:0:0:
321,111,179100,1,2,1:0:0:0:
380,365,179328,5,6,0:0:0:0:
367,306,179441,1,0,3:0:0:0:
180,295,179669,1,2,0:0:0:0:
191,234,179782,1,0,3:0:0:0:
331,92,180010,1,0,1:0:0:0:
331,92,180237,5,2,0:0:0:0:
257,24,180350,1,0,0:0:0:0:
155,19,180464,2,2,B|64:69|111:231|18:279,1,300.000011444092,4|0,1:0|1:0,0:3:0:0:
211,138,181146,5,2,0:0:0:0:
279,66,181259,1,0,0:0:0:0:
379,61,181373,2,2,B|470:111|423:273|516:321,1,300.000011444092,4|0,1:0|1:0,0:3:0:0:
213,375,182055,1,2,0:0:0:0:
239,273,182169,1,2,0:0:0:0:
324,213,182282,5,6,1:0:0:0:
324,213,182510,1,0,3:0:0:0:
295,363,182737,2,2,B|194:331|257:233|144:205,1,225.000008583069,4|0,0:0|0:0,0:0:0:0:
77,275,183191,5,0,3:0:0:0:
57,242,183305,1,0,3:0:0:0:
48,205,183419,1,0,3:0:0:0:
52,168,183532,1,0,3:0:0:0:
53,34,183646,5,0,1:0:0:0:
116,96,183760,1,0,1:0:0:0:
213,138,183873,1,0,1:0:0:0:
333,140,183987,1,0,1:0:0:0:
465,21,184101,5,6,1:0:0:0:
371,335,184328,1,2,0:0:0:0:
73,352,184555,1,4,0:0:0:0:
456,97,184782,5,6,1:0:0:0:
301,297,185010,1,2,1:2:0:0:
52,280,185237,1,4,0:0:0:0:
409,158,185464,5,6,1:0:0:0:
233,252,185691,1,2,0:0:0:0:
40,201,185919,1,4,0:0:0:0:
343,115,186146,5,6,1:0:0:0:
199,179,186373,1,2,0:0:0:0:
56,127,186601,1,4,0:0:0:0:
305,44,186828,5,2,1:0:0:0:
207,340,187055,1,4,0:0:0:0:
86,164,187283,5,0,1:0:0:0:
164,122,187396,1,0,1:0:0:0:
254,117,187510,1,0,1:0:0:0:
334,157,187624,1,0,1:0:0:0:
410,229,187737,5,6,1:0:0:0:
410,229,188192,1,2,0:0:0:0:
410,229,188646,1,2,0:0:0:0:
410,229,189101,1,0,3:0:0:0:
418,210,189177,1,0,3:0:0:0:
425,191,189252,1,0,3:0:0:0:
433,172,189328,1,0,3:0:0:0:
489,288,189555,5,12,0:0:0:0:
222,21,189783,1,6,0:3:0:0:
33,342,190010,1,8,0:1:0:0:
33,342,190692,5,8,0:0:0:0:
256,141,190919,1,8,0:1:0:0:
308,371,191146,5,0,1:0:0:0:
193,255,191260,1,2,0:0:0:0:
168,92,191374,1,6,1:0:0:0:
256,192,191487,12,0,194896,3:0:0:0:
308,293,195009,5,6,1:0:0:0:
308,293,195237,1,0,3:0:0:0:
468,241,195464,1,4,1:2:0:0:
363,368,195691,1,0,3:0:0:0:
363,368,195805,2,2,P|339:244|347:190,1,150.000005722046,2|0,3:0|0:0,0:3:0:0:
373,143,196146,5,0,3:0:0:0:
223,180,196373,2,2,P|202:129|176:99,1,75.0000028610231,2|0,1:0|0:0,0:3:0:0:
242,187,196600,5,2,0:0:0:0:
202,95,196714,1,0,3:0:0:0:
118,59,196828,5,6,1:0:0:0:
118,59,197055,1,0,3:0:0:0:
266,30,197282,1,6,1:2:0:0:
36,302,197510,5,0,0:0:0:0:
113,265,197623,1,0,3:0:0:0:
18,282,197737,2,0,P|36:247|40:204,1,75.0000028610231,4|0,0:0|0:0,0:0:0:0:
16,128,197964,1,2,0:0:0:0:
172,330,198191,5,2,1:0:0:0:
252,291,198305,1,2,0:0:0:0:
340,301,198418,1,6,3:0:0:0:
369,307,198494,1,6,3:0:0:0:
395,321,198570,1,6,3:0:0:0:
417,340,198646,5,6,1:0:0:0:
505,99,198873,2,2,P|427:170|334:195,1,150.000005722046,2|0,0:0|1:0,0:3:0:0:
282,21,199328,1,2,0:1:0:0:
237,105,199441,1,0,3:0:0:0:
257,206,199555,1,0,3:0:0:0:
257,206,199782,1,2,0:0:0:0:
81,343,200010,2,0,P|68:298|79:233,1,75.0000028610231,2|0,1:0|0:0,0:0:0:0:
70,362,200237,5,2,0:0:0:0:
86,261,200350,1,0,3:0:0:0:
39,176,200464,6,2,P|124:240|216:232,1,150.000005722046,6|0,1:0|3:0,0:3:0:0:
15,83,200918,1,4,1:2:0:0:
251,195,201146,1,2,0:0:0:0:
264,283,201259,2,2,P|305:220|370:180,1,150.000005722046,0|0,3:0|0:0,0:3:0:0:
394,329,201601,2,0,P|356:329|324:352,1,75.0000028610231,0|0,3:0|0:0,0:0:0:0:
468,376,201828,1,2,1:0:0:0:
469,182,202055,5,0,3:0:0:0:
490,104,202169,1,0,3:0:0:0:
455,35,202283,2,0,P|391:18|181:75,1,225.000008583069,6|0,1:0|0:0,0:0:0:0:
173,176,202737,5,4,0:3:0:0:
98,157,202851,1,4,0:3:0:0:
86,80,202965,2,0,P|152:80|343:196,1,262.500002503395,6|0,1:0|0:0,0:0:0:0:
419,263,203419,5,0,1:0:0:0:
475,211,203533,1,0,1:0:0:0:
444,140,203646,2,0,P|380:157|221:332,1,300,6|0,1:0|0:0,0:0:0:0:
108,383,204101,5,2,0:0:0:0:
41,348,204215,1,0,3:0:0:0:
24,275,204328,2,2,P|221:220|382:398,1,454.999979171754,6|0,1:0|0:0,0:3:0:0:
491,281,206146,5,2,0:0:0:0:
428,225,206374,1,0,0:0:0:0:
480,158,206601,2,0,P|488:130|492:73,1,75.0000028610231,2|0,0:0|0:0,0:0:0:0:
384,22,207055,2,0,P|376:76|393:143,1,112.500004291535,2|0,0:0|0:0,0:0:0:0:
398,144,207510,5,0,0:0:0:0:
307,195,207737,1,2,0:0:0:0:
363,255,207965,1,0,0:0:0:0:
381,335,208192,1,2,0:0:0:0:
258,306,208419,2,0,P|247:230|282:69,1,225.000008583069,2|0,0:0|0:0,0:0:0:0:
274,85,209555,1,4,0:0:0:0:
148,90,209783,6,0,P|172:52|177:15,2,75.0000028610231,2|0|0,0:0|0:0|0:0,0:0:0:0:
39,82,210465,1,2,0:0:0:0:
89,154,210692,1,0,0:0:0:0:
14,217,210919,1,2,0:0:0:0:
56,300,211146,1,0,0:0:0:0:
146,366,211374,5,2,0:0:0:0:
185,290,211601,1,0,0:0:0:0:
263,251,211828,1,0,0:0:0:0:
302,342,212055,2,0,B|245:329|214:253|253:233|227:171|181:162,1,225.000008583069,2|0,0:0|0:0,0:0:0:0:
169,28,212965,1,0,0:0:0:0:
193,25,213078,1,0,0:0:0:0:
221,25,213192,6,0,P|241:72|276:98,1,75.0000028610231,4|0,0:0|0:0,0:0:0:0:
376,45,213646,1,0,0:0:0:0:
338,117,213874,2,0,P|385:132|432:184,1,112.500004291535,2|0,0:0|0:0,0:0:0:0:
447,190,214328,2,0,P|400:205|353:257,1,112.500004291535,2|0,0:0|0:0,0:0:0:0:
372,261,214783,1,0,0:0:0:0:
387,271,214896,1,0,0:0:0:0:
402,280,215010,5,2,0:0:0:0:
464,351,215237,1,0,0:0:0:0:
371,369,215465,1,0,0:0:0:0:
260,283,215692,1,2,0:0:0:0:
260,283,216146,1,0,0:0:0:0:
80,366,216374,5,2,0:0:0:0:
43,319,216525,1,0,0:0:0:0:
35,254,216677,1,0,0:0:0:0:
55,183,216828,6,0,P|62:234|218:341,1,225.000008583069,6|0,0:0|0:0,0:0:0:0:
172,226,217737,2,0,P|152:162|230:14,1,240,6|0,0:0|0:0,0:0:0:0:
260,102,218646,2,0,B|217:143|237:227|314:211|329:275|310:334,1,255.000004863739,6|0,0:0|0:0,0:0:0:0:
415,384,219555,2,0,B|370:340|391:254|470:271|487:205|467:143,1,269.999991760254,6|0,0:0|0:0,0:0:0:0:
467,143,220465,1,4,0:0:0:0:
509,5,220692,5,2,0:0:0:0:
450,64,220919,1,0,0:0:0:0:
375,17,221146,2,0,P|353:64|346:108,2,89.9999972534181,2|0|0,0:0|0:0|0:0,0:0:0:0:
334,193,221828,1,2,0:0:0:0:
322,103,222055,1,0,0:0:0:0:
178,162,222283,5,2,0:0:0:0:
203,65,222510,1,0,0:0:0:0:
103,92,222737,1,0,0:0:0:0:
190,172,222965,2,0,B|179:114|83:92|44:207|122:251|101:349|3:383,1,359.999989013672,2|0,0:0|0:0,0:0:0:0:
21,374,224101,1,4,0:0:0:0:
190,290,224328,5,2,0:0:0:0:
190,290,224555,2,0,P|238:295|281:333,1,89.9999972534181
358,372,225010,1,2,0:0:0:0:
358,372,225237,1,0,0:0:0:0:
405,195,225465,2,0,P|376:228|366:272,1,89.9999972534181,2|0,0:0|0:0,0:0:0:0:
498,232,225919,5,2,0:0:0:0:
480,146,226146,1,0,0:0:0:0:
361,100,226374,1,0,0:0:0:0:
394,6,226601,1,2,0:0:0:0:
159,69,227055,1,2,0:0:0:0:
214,146,227283,1,0,0:0:0:0:
159,221,227510,1,0,0:0:0:0:
47,19,227737,6,0,P|65:83|93:145,1,134.999995880127,6|0,0:0|0:0,0:0:0:0:
103,155,228192,1,0,0:0:0:0:
30,228,228419,2,0,P|57:254|88:299,1,89.9999972534181,2|2,0:0|0:0,0:0:0:0:
194,360,228874,2,0,B|145:285|240:184|188:98,1,269.999991760254,2|0,0:0|0:0,0:0:0:0:
429,366,230237,5,2,0:0:0:0:
491,295,230465,1,0,0:0:0:0:
491,295,230692,1,0,0:0:0:0:
392,245,230919,2,0,P|405:204|404:151,1,89.9999972534181,2|0,0:0|0:0,0:0:0:0:
502,51,231374,6,0,P|431:103|242:149,1,269.999991760254,6|0,0:0|0:0,0:0:0:0:
265,31,232283,2,0,P|230:109|158:192,1,179.999994506836,6|0,0:0|0:0,0:0:0:0:
100,230,232965,1,0,0:0:0:0:
132,52,233192,2,0,B|143:18|78:-42|-12:27|31:109|31:114|31:118|165:166|221:265|217:382|117:421|-3:383|34:274,1,629.999980773926,6|0,0:0|0:0,0:0:0:0:
169,228,235010,5,6,0:0:0:0:
169,228,235465,1,0,0:0:0:0:
324,359,235919,1,2,0:0:0:0:
316,322,236071,1,0,0:0:0:0:
325,281,236222,1,0,0:0:0:0:
351,241,236374,1,2,0:0:0:0:
381,214,236525,1,0,0:0:0:0:
413,200,236677,1,0,0:0:0:0:
442,198,236828,5,4,0:0:0:0:
442,198,237283,1,0,0:0:0:0:
483,361,237737,1,2,0:0:0:0:
429,350,237889,1,0,0:0:0:0:
387,325,238040,1,0,0:0:0:0:
359,293,238192,1,2,0:0:0:0:
348,258,238343,1,0,0:0:0:0:
348,227,238495,1,0,0:0:0:0:
356,204,238646,6,0,B|278:218|289:335|192:369,1,239.999992675781,4|0,0:0|0:0,0:0:0:0:
179,284,239404,1,0,0:0:0:0:
115,335,239555,5,2,0:0:0:0:
91,301,239707,1,0,0:0:0:0:
81,254,239858,1,0,0:0:0:0:
88,212,240010,1,2,0:0:0:0:
108,182,240161,1,0,0:0:0:0:
131,163,240313,1,0,0:0:0:0:
154,156,240465,5,6,0:0:0:0:
183,148,240616,1,0,0:0:0:0:
213,128,240768,1,0,0:0:0:0:
241,97,240919,1,2,0:0:0:0:
254,50,241071,1,0,0:0:0:0:
221,7,241222,1,0,0:0:0:0:
162,20,241374,5,6,0:0:0:0:
135,80,241525,1,0,0:0:0:0:
163,146,241677,1,0,0:0:0:0:
233,179,241828,1,2,0:0:0:0:
317,180,241980,1,0,0:0:0:0:
390,128,242131,1,0,0:0:0:0:
430,40,242283,1,6,0:0:0:0:
489,280,242737,6,0,L|495:230,4,29.9999990844727,2|0|0|0|0,0:0|0:0|0:0|0:0|0:0,0:0:0:0:
427,337,243192,2,0,L|433:387,4,29.9999990844727,2|0|0|0|0,0:0|0:0|0:0|0:0|0:0,0:0:0:0:
378,265,243646,1,2,0:0:0:0:
337,269,243798,1,0,0:0:0:0:
310,286,243949,1,0,0:0:0:0:
299,300,244101,1,6,0:0:0:0:
237,66,244555,6,0,L|243:16,4,29.9999990844727,2|0|0|0|0,0:0|0:0|0:0|0:0|0:0,0:0:0:0:
182,125,245010,2,0,L|188:175,4,29.9999990844727,2|0|0|0|0,0:0|0:0|0:0|0:0|0:0,0:0:0:0:
122,64,245465,2,0,L|128:14,4,29.9999990844727,2|0|0|0|0,0:0|0:0|0:0|0:0|0:0,0:0:0:0:
70,129,245919,5,6,0:0:0:0:
70,129,246374,1,0,0:0:0:0:
37,340,246828,1,2,0:0:0:0:
43,323,246980,1,0,0:0:0:0:
57,303,247131,1,0,0:0:0:0:
80,284,247283,1,2,0:0:0:0:
112,268,247434,1,0,0:0:0:0:
153,263,247586,1,0,0:0:0:0:
199,273,247737,5,2,0:0:0:0:
244,303,247889,1,0,0:0:0:0:
300,323,248040,1,0,0:0:0:0:
366,319,248192,1,2,0:0:0:0:
431,290,248343,1,0,0:0:0:0:
473,217,248495,1,0,0:0:0:0:
453,123,248646,1,6,0:0:0:0:
55,20,249555,6,0,B|105:51|108:121|46:130|53:192|88:221,1,220.000006713867,6|2,1:2|0:0,0:0:0:0:
184,201,250237,1,0,0:0:0:0:
184,201,250350,2,0,P|152:284|135:351,1,110.000003356934,2|0,0:0|0:0,0:0:0:0:
130,381,250691,5,0,0:0:0:0:
39,312,250919,1,2,0:0:0:0:
233,358,251146,1,0,0:0:0:0:
272,316,251260,1,0,0:0:0:0:
329,322,251374,6,0,P|316:221|255:110,1,220.000006713867,2|2,0:0|0:0,0:0:0:0:
333,18,252055,1,2,0:0:0:0:
333,18,252169,2,0,P|363:67|431:95,1,110.000003356934,2|0,0:0|0:0,0:0:0:0:
491,97,252510,5,0,0:0:0:0:
417,199,252737,1,2,0:0:0:0:
506,319,252964,1,0,0:0:0:0:
449,311,253078,1,0,0:0:0:0:
409,352,253191,5,4,0:0:0:0:
307,235,253419,1,2,0:0:0:0:
307,235,253532,2,0,P|259:252|218:296,1,110.000003356934,2|0,0:0|0:0,0:0:0:0:
209,374,253873,1,0,0:0:0:0:
331,319,254100,1,2,0:0:0:0:
142,321,254328,1,2,0:0:0:0:
142,321,254442,2,0,P|124:265|138:202,1,110.000003356934,2|0,0:0|0:0,0:0:0:0:
168,150,254782,1,0,0:0:0:0:
38,275,255010,5,4,0:0:0:0:
1,99,255237,1,2,0:0:0:0:
1,99,255351,2,0,P|61:100|154:44,1,165.000005035401,2|0,0:0|0:0,0:0:0:0:
280,12,255919,2,0,P|269:109|253:277,1,239.999992675781,4|2,0:0|0:0,0:0:0:0:
338,368,256601,1,0,0:0:0:0:
382,325,256715,1,0,0:0:0:0:
442,334,256828,6,0,P|459:276|460:217,1,119.999996337891,4|0,0:0|0:0,0:0:0:0:
384,26,257283,1,0,0:0:0:0:
508,139,257510,1,2,0:0:0:0:
508,139,257624,2,0,P|459:122|369:112,1,119.999996337891,2|0,0:0|0:0,0:0:0:0:
311,114,257965,1,0,0:0:0:0:
266,255,258192,1,2,0:0:0:0:
156,346,258419,1,0,0:0:0:0:
101,330,258533,1,0,0:0:0:0:
64,284,258646,5,4,0:0:0:0:
133,198,258874,1,2,0:0:0:0:
18,87,259101,1,0,0:0:0:0:
163,30,259328,1,2,0:0:0:0:
163,30,259442,2,0,P|105:99|34:203,1,179.999994506836,2|0,0:0|0:0,0:0:0:0:
53,172,260010,1,2,0:0:0:0:
155,285,260237,5,0,0:0:0:0:
237,288,260351,1,0,0:0:0:0:
278,354,260465,2,2,B|233:293|266:233|307:250|332:174|282:128,1,239.999992675781,4|0,0:0|0:0,0:0:0:0:
334,36,261146,5,2,0:0:0:0:
410,59,261260,1,0,0:0:0:0:
473,13,261374,2,2,B|409:54|420:122|464:120|462:200|399:226,1,239.999992675781,4|0,0:0|0:0,0:0:0:0:
459,377,262055,5,2,0:0:0:0:
393,313,262169,1,0,0:0:0:0:
291,330,262283,2,2,B|209:307|162:418|39:433|-12:293|103:180|221:325|221:325|242:158|132:118|132:118|135:195|49:236|-27:133|72:60,1,959.999970703126,6|14,0:0|3:0,0:0:0:0:
406,244,264783,5,14,3:0:0:0:
60,37,265919,5,6,1:0:0:0:
348,91,266146,1,0,3:0:0:0:
12,226,266374,1,2,1:0:0:0:
208,32,266601,1,2,0:0:0:0:
208,32,266714,2,2,P|259:111|236:260,1,200,0|0,3:0|0:0,0:3:0:0:
206,283,267055,5,2,3:2:0:0:
447,355,267283,1,2,1:0:0:0:
506,116,267510,1,2,0:0:0:0:
451,189,267624,1,0,0:0:0:0:
487,274,267737,5,6,0:0:0:0:
466,35,267964,1,0,3:0:0:0:
377,301,268192,1,2,1:0:0:0:
248,36,268419,1,2,0:0:0:0:
248,36,268533,2,2,P|308:80|341:209,1,200,0|0,3:0|0:0,0:3:0:0:
287,276,268874,5,0,3:0:0:0:
115,119,269101,1,2,1:0:0:0:
14,343,269328,1,0,0:0:0:0:
86,282,269442,1,0,0:0:0:0:
177,266,269555,5,6,1:0:0:0:
37,52,269783,1,2,3:2:0:0:
37,52,269896,2,2,P|98:98|219:121,1,200,2|0,0:0|0:0,0:3:0:0:
302,91,270237,1,2,0:0:0:0:
377,313,270464,1,6,0:0:0:0:
475,15,270692,1,2,3:2:0:0:
475,15,270805,2,2,P|405:103|393:198,1,200,2|0,0:0|0:0,0:3:0:0:
447,255,271146,1,2,0:0:0:0:
230,362,271374,5,6,1:0:0:0:
184,129,271601,1,2,0:0:0:0:
184,129,271714,1,0,0:0:0:0:
303,118,271828,6,0,P|242:113|110:60,1,200,0|0,1:0|0:0,0:0:0:0:
240,61,272169,1,0,3:0:0:0:
240,61,272283,2,0,P|134:82|28:200,1,250,4|0,0:0|3:0,0:0:0:0:
6,287,272624,1,2,0:0:0:0:
6,287,272737,5,0,1:0:0:0:
107,266,272851,1,4,0:3:0:0:
221,289,272964,1,4,0:3:0:0:
309,370,273078,1,4,0:3:0:0:
495,253,273192,6,0,P|462:278|378:292,1,100,6|0,1:0|0:0,0:0:0:0:
314,269,273419,2,0,P|276:231|258:171,1,100,6|0,3:0|0:0,0:0:0:0:
267,96,273646,2,0,P|301:51|372:14,1,100,2|0,1:0|0:0,0:0:0:0:
440,94,273874,1,6,0:0:0:0:
339,7,273987,2,2,P|412:137|448:254,1,200,2|0,0:0|0:0,0:3:0:0:
499,315,274328,6,2,P|459:301|398:306,1,100,4|0,0:0|0:0,0:3:0:0:
320,359,274555,2,0,P|300:299|262:251,1,100,2|0,1:0|0:0,0:0:0:0:
109,126,274783,1,0,1:0:0:0:
162,49,274896,1,0,1:0:0:0:
255,53,275010,6,2,P|114:93|46:222,1,300,6|0,1:0|0:0,0:3:0:0:
49,310,275465,1,0,1:0:0:0:
33,46,275692,1,2,0:0:0:0:
109,126,275805,1,2,3:0:0:0:
217,147,275919,1,4,0:0:0:0:
217,147,276146,1,2,3:0:0:0:
217,147,276374,1,0,1:0:0:0:
468,12,276601,5,2,0:0:0:0:
382,109,276715,1,2,0:0:0:0:
489,211,276828,2,2,B|418:176|318:254|365:322|234:384|134:326,1,400,6|0,1:0|1:0,0:3:0:0:
7,94,277510,5,2,0:0:0:0:
121,155,277624,1,2,0:0:0:0:
56,288,277737,2,2,B|110:230|231:269|210:349|354:363|428:274,1,400,6|0,1:0|1:0,0:3:0:0:
354,7,278419,1,2,0:0:0:0:
262,73,278533,1,2,3:0:0:0:
256,192,278646,5,6,1:0:0:0:
256,192,278874,1,2,3:0:0:0:
256,192,279101,1,0,1:0:0:0:
371,129,279328,5,2,3:0:0:0:
400,165,279404,1,2,3:0:0:0:
442,185,279480,1,2,3:0:0:0:
488,186,279555,5,2,1:0:0:0:
507,97,279669,1,0,1:0:0:0:
437,25,279783,1,0,1:0:0:0:
327,18,279896,1,2,1:0:0:0:
249,109,280010,1,0,1:0:0:0:
261,238,280124,1,0,1:0:0:0:
129,284,280237,1,2,1:0:0:0:
9,192,280351,1,0,1:0:0:0:
11,23,280465,5,6,1:0:0:0:
174,349,280692,1,2,0:0:0:0:
504,311,280919,1,4,0:0:0:0:
30,108,281146,5,6,1:0:0:0:
237,298,281374,1,2,1:2:0:0:
507,231,281601,1,4,0:0:0:0:
89,173,281828,5,6,1:0:0:0:
299,242,282055,1,2,0:0:0:0:
500,149,282283,1,4,0:0:0:0:
153,122,282510,5,6,1:0:0:0:
323,165,282737,1,2,0:0:0:0:
469,80,282965,1,4,0:0:0:0:
246,86,283192,5,6,1:0:0:0:
304,21,283419,1,2,0:0:0:0:
379,68,283646,1,4,0:0:0:0:
456,252,283874,5,0,1:0:0:0:
497,141,283987,1,0,1:0:0:0:
501,23,284101,5,6,1:0:0:0:
338,349,284328,1,2,0:0:0:0:
8,311,284555,1,4,0:0:0:0:
482,108,284782,5,6,1:0:0:0:
275,298,285010,1,2,1:2:0:0:
5,231,285237,1,4,0:0:0:0:
423,173,285464,5,6,1:0:0:0:
213,242,285691,1,2,0:0:0:0:
12,149,285919,1,4,0:0:0:0:
359,122,286146,5,6,1:0:0:0:
189,165,286373,1,2,0:0:0:0:
43,80,286601,1,4,0:0:0:0:
266,86,286828,5,6,1:0:0:0:
208,21,287055,1,2,0:0:0:0:
133,68,287282,1,4,0:0:0:0:
56,252,287510,5,0,1:0:0:0:
15,141,287623,1,0,1:0:0:0:
11,23,287737,5,6,1:0:0:0:
174,349,287964,1,2,0:0:0:0:
343,360,288078,1,0,3:0:0:0:
504,311,288191,1,4,0:0:0:0:
30,108,288418,5,6,1:0:0:0:
237,298,288646,1,2,1:2:0:0:
378,286,288760,1,0,3:0:0:0:
507,231,288873,1,4,0:0:0:0:
89,173,289100,5,6,1:0:0:0:
299,242,289327,1,2,0:0:0:0:
405,209,289442,1,0,3:0:0:0:
500,149,289555,1,4,0:0:0:0:
153,122,289782,5,6,1:0:0:0:
323,165,290009,1,2,0:0:0:0:
404,133,290124,1,0,3:0:0:0:
469,80,290237,1,4,0:0:0:0:
245,79,290464,5,6,1:0:0:0:
303,14,290691,1,2,0:0:0:0:
348,25,290805,1,0,0:0:0:0:
378,61,290918,1,4,0:0:0:0:
367,360,291146,5,0,1:0:0:0:
256,192,291260,1,0,1:0:0:0:
59,157,291374,5,6,1:0:0:0:
59,157,291828,1,2,0:0:0:0:
59,157,292283,1,2,0:0:0:0:
87,276,292510,1,0,3:0:0:0:
196,325,292737,1,0,1:0:0:0:
238,244,292851,1,0,1:0:0:0:
319,207,292965,1,4,3:0:0:0:
458,343,293192,5,4,1:0:0:0:
428,141,293419,1,2,0:0:0:0:
256,28,293646,1,8,0:1:0:0:
256,28,294101,5,2,0:0:0:0:
212,100,294328,1,6,3:0:0:0:
304,208,294555,1,8,3:2:0:0:
253,364,294783,5,0,1:0:0:0:
299,293,294896,1,0,1:0:0:0:
219,184,295010,1,6,1:0:0:0:
256,192,295124,12,0,298533,3:0:0:0:
190,123,298646,5,6,1:0:0:0:
190,123,298874,1,2,0:0:0:0:
322,261,299101,1,4,1:2:0:0:
337,23,299328,1,2,3:0:0:0:
337,23,299442,2,2,P|299:138|243:209,1,200,0|0,3:0|0:0,0:3:0:0:
330,146,299783,5,0,3:0:0:0:
177,350,300010,2,0,P|129:313|67:306,1,100,2|0,1:0|0:0,0:0:0:0:
175,241,300237,5,0,3:0:0:0:
134,340,300351,1,0,3:0:0:0:
39,377,300465,5,6,1:0:0:0:
39,377,300692,1,0,3:0:0:0:
280,335,300919,1,6,1:2:0:0:
74,70,301146,5,0,0:0:0:0:
74,70,301260,1,0,3:0:0:0:
129,3,301374,2,2,P|106:60|65:120,1,100,4|0,0:0|0:0,0:3:0:0:
13,150,301601,1,2,3:0:0:0:
152,273,301828,5,2,1:0:0:0:
217,210,301942,1,0,1:0:0:0:
247,122,302055,1,6,3:0:0:0:
247,88,302131,1,6,3:0:0:0:
239,55,302207,1,2,3:0:0:0:
225,24,302283,5,6,1:0:0:0:
429,17,302510,2,2,P|358:95|327:197,1,200,2|0,0:0|1:0,0:3:0:0:
479,363,302965,1,2,3:1:0:0:
424,289,303078,1,0,3:0:0:0:
424,195,303192,1,2,0:0:0:0:
424,195,303419,1,0,3:0:0:0:
306,376,303646,2,0,P|299:333|330:272,1,100,2|0,1:0|0:0,0:0:0:0:
278,378,303874,5,2,3:0:0:0:
225,286,303987,1,0,3:0:0:0:
269,188,304101,6,2,P|212:104|105:80,1,200,6|0,1:0|3:0,0:3:0:0:
120,78,304555,1,6,1:2:0:0:
68,304,304783,1,0,3:0:0:0:
103,382,304896,2,2,P|129:271|93:168,1,200,6|0,3:0|0:0,0:3:0:0:
83,279,305237,2,0,P|145:304|193:330,1,100,2|0,0:0|0:0,0:0:0:0:
251,377,305465,1,6,1:2:0:0:
495,64,305692,5,2,3:0:0:0:
417,92,305805,1,2,3:0:0:0:
394,171,305919,2,2,B|287:143|221:250|100:222,1,300,6|0,1:0|0:0,0:3:0:0:
10,239,306374,5,0,1:0:0:0:
21,163,306487,1,2,3:0:0:0:
94,137,306601,2,2,B|230:127|287:270|439:262,1,375,6|0,1:0|0:0,0:3:0:0:
512,217,307055,5,6,0:3:0:0:
510,132,307169,1,8,0:3:0:0:
439,93,307283,2,2,B|274:109|237:292|54:314,1,450.000017166138,6|0,1:0|0:0,0:3:0:0:
16,176,307737,5,2,3:0:0:0:
16,125,307813,1,2,3:0:0:0:
35,78,307889,1,2,3:0:0:0:
73,46,307965,2,2,B|225:19|299:183|207:199|288:366|437:350,1,525.000020027161,6|0,1:0|0:0,0:3:0:0:
256,16,310465,6,0,B|408:279|408:279|103:279|103:279|206:103|206:103|408:104|408:104|256:367|256:367|103:104|103:104|170:103,1,1692.3333,4|0,0:0|0:0,0:0:0:0:
