osu file format v14

[General]
AudioFilename: audio.mp3
AudioLeadIn: 0
PreviewTime: 56471
Countdown: 0
SampleSet: Soft
StackLeniency: 0.7
Mode: 0
LetterboxInBreaks: 0
WidescreenStoryboard: 0

[Editor]
Bookmarks: 80802,129804,160802,203469,233136
DistanceSpacing: 1.4
BeatDivisor: 4
GridSize: 32
TimelineZoom: 1.2

[Metadata]
Title:Hitokoto no Kyori
TitleUnicode:ヒトコトの距離
Artist:*namirin
ArtistUnicode:*なみりん
Creator:sahuang
Version:joker's Hard
Source:
Tags:5colors Beomsan Akitoshi Corinn joker- Linada Left Sotarks Slayed My Angel Azusa
BeatmapID:1418132
BeatmapSetID:667290

[Difficulty]
HPDrainRate:5
CircleSize:3.8
OverallDifficulty:6
ApproachRate:7.5
SliderMultiplier:1.35
SliderTickRate:1

[Events]
//Background and Video events
0,0,"lol.jpg",0,0
//Break Periods
2,83653,90628
2,171653,181295
//Storyboard Layer 0 (Background)
//Storyboard Layer 1 (Fail)
//Storyboard Layer 2 (Pass)
//Storyboard Layer 3 (Foreground)
//Storyboard Sound Samples

[TimingPoints]
787,333.333333333333,4,2,1,40,1,0
787,-111.111111111111,4,2,1,40,0,0
8120,-125,4,2,1,40,0,0
8786,-100,4,2,1,50,0,0
13953,-100,4,2,1,50,0,0
24786,-111.111111111111,4,2,2,45,0,0
34120,-111.111111111111,4,2,1,45,0,0
34453,-100,4,2,1,45,0,0
35453,-100,4,2,1,45,0,0
46120,-111.111111111111,4,2,1,45,0,0
51453,-100,4,2,1,45,0,0
52786,-100,4,2,1,60,0,0
56786,-95.2380952380952,4,2,1,70,0,1
60203,-95.2380952380952,4,2,1,10,0,1
60286,-95.2380952380952,4,2,1,70,0,1
72786,-100,4,2,1,70,0,0
76453,-100,4,2,1,70,0,0
78120,-100,4,2,1,70,0,1
79786,-100,4,2,1,70,0,1
80786,-100,4,2,1,60,0,0
91453,-111.111111111111,4,2,1,60,0,0
100786,-100,4,2,1,60,0,0
101036,-100,4,2,1,60,0,0
101120,-100,4,2,1,60,0,0
101370,-100,4,2,1,60,0,0
101453,-100,4,2,1,60,0,0
102120,-100,4,2,1,60,0,0
109036,-100,4,2,1,10,0,0
109120,-100,4,2,1,60,0,0
109536,-100,4,2,1,10,0,0
109620,-100,4,2,1,60,0,0
112120,-100,4,2,1,60,0,0
112786,-111.111111111111,4,2,1,60,0,0
118120,-100,4,2,1,60,0,0
119453,-100,4,2,1,60,0,0
123453,-95.2380952380951,4,2,1,70,0,1
139453,-100,4,2,1,70,0,0
143120,-100,4,2,1,70,0,0
144786,-100,4,2,1,70,0,1
146453,-100,4,2,1,70,0,1
147453,-100,4,2,1,55,0,1
147786,-100,4,2,1,55,0,0
149786,-100,4,2,1,55,0,0
150120,-100,4,2,1,55,0,0
159286,-100,4,2,1,60,0,0
160286,-100,4,2,1,60,0,0
168953,-100,4,2,1,60,0,0
181453,-100,4,2,1,60,0,0
182120,-111.111111111111,4,2,2,60,0,0
186286,-111.111111111111,4,2,1,60,0,0
186453,-111.111111111111,4,2,1,60,0,0
186786,-100,4,2,1,60,0,0
195453,-100,4,2,1,70,0,0
198120,-95.2380952380951,4,2,1,70,0,1
208786,-100,4,2,1,70,0,0
214120,-100,4,2,1,70,0,1
216453,-100,4,2,1,70,0,1
216786,-100,4,2,1,40,0,0
233120,-100,4,2,1,10,0,0

[Colours]
Combo1 : 248,174,1
Combo2 : 109,183,46
Combo3 : 226,0,81
Combo4 : 119,127,189
Combo5 : 0,126,199
SliderTrackOverride : 0,0,15
SliderBorder : 255,255,248

[HitObjects]
82,200,453,5,0,0:0:0:0:
82,200,787,2,0,P|135:178|200:188,1,121.499996292114,2|2,0:0|0:0,0:0:0:0:
271,226,1286,2,0,P|324:248|389:238,1,121.499996292114,2|2,0:0|0:0,0:0:0:0:
450,183,1786,1,2,0:0:0:0:
450,183,1953,1,2,0:0:0:0:
392,120,2120,6,0,L|268:96,1,121.499996292114,2|2,0:0|0:0,0:0:0:0:
214,34,2620,2,0,P|159:21|87:58,1,121.499996292114,2|2,0:0|0:0,0:0:0:0:
56,117,3120,1,2,0:0:0:0:
56,117,3286,1,2,0:0:0:0:
103,187,3453,6,0,B|122:226|122:226|108:323,1,121.499996292114,2|0,0:0|0:0,0:0:0:0:
182,349,3953,1,0,0:0:0:0:
182,349,4120,2,0,P|238:325|311:349,1,121.499996292114,2|2,0:0|0:0,0:0:0:0:
446,259,4786,6,0,P|390:235|317:259,1,121.499996292114,2|2,0:0|0:0,0:0:0:0:
273,180,5286,2,0,B|252:152|252:152|274:56,1,121.499996292114,2|2,0:0|0:0,0:0:0:0:
337,13,5786,1,2,0:0:0:0:
468,121,6120,6,0,P|411:117|338:146,1,121.499996292114,2|0,0:0|0:0,0:0:0:0:
273,180,6620,1,0,0:0:0:0:
273,180,6786,2,0,P|216:184|143:155,1,121.499996292114,2|2,0:0|0:0,0:0:0:0:
48,30,7453,6,0,P|26:95|40:155,1,121.499996292114,2|2,0:0|0:0,0:0:0:0:
72,222,7953,1,0,1:0:0:0:
155,163,8120,2,0,P|214:155|261:188,1,108,14|0,0:0|0:0,0:0:0:0:
421,91,8786,6,0,L|399:235,1,135,6|8,1:0|0:0,0:0:0:0:
337,295,9286,1,10,0:0:0:0:
337,295,9453,2,0,P|284:272|252:263,1,67.5,8|8,0:0|0:0,0:0:0:0:
196,322,9786,1,8,0:0:0:0:
196,322,9953,1,8,0:0:0:0:
122,219,10120,6,0,P|177:179|255:204,1,135,4|0,2:0|0:0,0:0:0:0:
343,120,10620,2,0,P|288:80|210:105,1,135,4|0,2:0|0:0,0:0:0:0:
114,34,11120,1,6,1:0:0:0:
114,34,11453,6,0,L|127:193,1,135,4|8,1:0|0:0,0:0:0:0:
63,240,11953,1,10,0:0:0:0:
63,240,12120,2,0,L|88:313,1,67.5,10|8,0:0|0:0,0:0:0:0:
169,346,12453,1,8,0:0:0:0:
250,296,12620,1,8,0:0:0:0:
250,296,12703,1,8,0:0:0:0:
250,296,12786,1,4,1:0:0:0:
217,124,13953,5,8,0:0:0:0:
217,124,14036,1,8,0:0:0:0:
217,124,14120,2,0,P|269:109|299:104,1,67.5,4|0,1:0|0:0,0:0:0:0:
276,201,14453,2,0,P|330:198|360:199,1,67.5,8|2,0:0|0:0,2:0:0:0:
315,288,14786,2,0,P|367:300|396:310,1,67.5,2|0,1:0|0:0,2:0:0:0:
463,351,15120,1,10,0:0:0:0:
463,351,15286,1,0,0:0:0:0:
503,265,15453,6,0,L|480:119,1,135,2|8,1:0|0:0,0:0:0:0:
422,57,15953,1,2,0:0:0:0:
422,57,16120,2,0,P|379:70|328:75,1,67.5,2|0,1:0|0:0,0:0:0:0:
305,153,16453,2,0,P|262:140|211:135,1,67.5,10|0,0:0|0:0,0:0:0:0:
173,203,16786,6,0,P|183:246|204:293,1,67.5,2|0,1:0|0:0,0:0:0:0:
125,336,17120,1,10,0:0:0:0:
125,336,17286,1,0,1:0:0:0:
40,292,17453,2,0,P|50:248|71:201,1,67.5,2|0,0:0|1:0,0:0:0:0:
98,141,17786,1,10,0:0:0:0:
173,203,17953,6,0,P|227:229|315:198,1,135,0|2,0:0|1:0,0:0:0:0:
377,161,18453,2,0,P|426:167|459:180,1,67.5,10|0,0:0|0:0,0:0:0:0:
509,240,18786,1,2,1:0:0:0:
509,240,18953,1,2,0:0:0:0:
439,304,19120,2,0,P|406:312|372:315,1,67.5,10|2,0:0|0:0,0:0:0:0:
279,247,19453,6,0,L|266:172,1,67.5,6|0,1:0|0:0,0:0:0:0:
175,202,19786,2,0,L|179:127,1,67.5,10|0,0:0|0:0,0:0:0:0:
83,143,20120,2,0,L|111:74,1,67.5,2|0,1:0|0:0,0:0:0:0:
185,26,20453,1,10,0:0:0:0:
274,57,20620,6,0,L|438:39,1,135,2|0,0:0|0:0,0:0:0:0:
492,86,21120,1,10,0:0:0:0:
430,157,21286,2,0,P|395:217|422:302,1,135,2|2,1:0|1:0,0:0:0:0:
445,364,21786,1,8,0:0:0:0:
329,344,21953,6,0,L|178:358,1,135,6|2,1:0|1:0,0:0:0:0:
121,296,22453,2,0,P|105:252|101:207,1,67.5,10|2,0:0|0:0,0:0:0:0:
131,144,22786,1,2,1:0:0:0:
131,144,22953,1,2,0:0:0:0:
209,197,23120,1,10,0:0:0:0:
294,100,23286,6,0,P|236:68|156:78,1,135,6|0,1:0|0:0,0:0:0:0:
86,27,23786,1,10,0:0:0:0:
43,111,23953,1,8,3:0:0:0:
43,111,24036,1,8,3:0:0:0:
43,111,24120,2,0,L|56:184,1,67.5,4|4,3:0|3:0,0:0:0:0:
2,256,24453,2,0,L|32:319,1,67.5,2|2,3:0|0:0,0:0:0:0:
113,247,24786,6,0,P|163:217|239:237,1,121.499996292114,14|10,1:2|0:0,0:0:0:0:
295,270,25286,2,0,L|425:257,1,121.499996292114,2|2,0:0|0:0,0:0:0:0:
467,187,25786,1,10,0:0:0:0:
467,187,25953,1,2,1:0:0:0:
405,128,26120,6,0,P|330:97|274:111,1,121.499996292114,10|10,1:2|0:0,0:0:0:0:
222,151,26620,2,0,L|241:278,1,121.499996292114,2|2,0:0|0:0,0:0:0:0:
94,358,27286,1,2,0:0:0:0:
94,358,27453,6,0,P|74:292|89:238,1,121.499996292114,10|8,1:2|0:0,0:0:0:0:
133,171,27953,2,0,B|176:186|176:186|265:167,1,121.499996292114,0|2,0:0|0:0,0:0:0:0:
332,147,28453,1,10,0:0:0:0:
332,147,28620,1,0,1:0:0:0:
397,200,28786,6,0,P|378:264|405:328,1,121.499996292114,8|8,1:2|0:0,0:0:0:0:
444,383,29286,1,0,0:0:0:0:
505,48,29953,5,2,0:0:0:0:
505,48,30120,2,0,L|362:66,1,121.499996292114,10|10,1:2|0:0,0:0:0:0:
314,111,30620,2,0,P|253:86|176:112,1,121.499996292114,2|0,0:0|0:0,0:0:0:0:
101,234,31286,1,2,1:0:0:0:
101,234,31453,6,0,B|140:246|140:246|225:231,1,121.499996292114,10|10,1:2|0:0,0:0:0:0:
286,179,31953,2,0,P|343:167|406:220,1,121.499996292114,2|2,0:0|0:0,0:0:0:0:
434,273,32453,1,8,0:0:0:0:
268,350,32786,6,0,L|132:338,1,121.499996292114,10|10,1:2|0:0,0:0:0:0:
69,375,33286,1,2,0:0:0:0:
0,219,33620,2,0,P|63:229|111:192,1,121.499996292114,2|0,0:0|0:0,0:0:0:0:
150,123,34120,5,2,1:2:0:0:
265,272,34453,2,0,L|287:123,1,135,8|2,0:0|0:0,0:0:0:0:
376,100,34953,2,0,L|367:51,5,33.75,8|8|8|0|8|0,0:0|0:0|0:0|1:0|0:0|1:0,0:0:0:0:
333,36,35453,6,0,L|180:50,1,135,6|10,1:0|0:0,0:0:0:0:
128,111,35953,2,0,P|109:180|135:245,1,135,2|0,0:0|1:0,0:0:0:0:
179,318,36453,1,10,0:0:0:0:
179,318,36620,1,2,1:0:0:0:
263,276,36786,6,0,B|305:259|305:259|412:285,1,135,2|10,1:0|0:0,0:0:0:0:
475,235,37286,1,2,0:0:0:0:
475,235,37453,1,0,1:0:0:0:
428,152,37620,2,0,L|435:67,1,67.5,2|8,1:0|0:0,0:0:0:0:
261,4,38120,6,0,L|279:161,1,135,2|8,1:0|0:0,0:0:0:0:
221,215,38620,2,0,P|146:229|96:190,1,135,0|2,0:0|1:0,0:0:0:0:
51,116,39120,1,10,0:0:0:0:
51,116,39286,1,2,1:0:0:0:
133,70,39453,6,0,P|173:75|219:95,1,67.5,0|0,1:0|0:0,0:0:0:0:
276,138,39786,1,8,0:0:0:0:
276,138,39953,1,0,0:0:0:0:
357,89,40120,2,0,B|398:74|398:74|507:101,1,135,2|10,1:0|0:0,0:0:0:0:
380,251,40786,6,0,P|314:264|255:219,1,135,2|10,1:0|0:0,0:0:0:0:
186,168,41286,2,0,L|40:192,1,135,2|2,0:0|1:0,0:0:0:0:
1,110,41786,1,10,0:0:0:0:
183,39,42120,6,0,P|202:98|182:174,1,135,2|10,1:0|0:0,0:0:0:0:
134,246,42620,2,0,L|157:389,1,135,2|2,0:0|1:0,0:0:0:0:
235,328,43120,1,10,0:0:0:0:
235,328,43286,1,2,1:0:0:0:
321,366,43453,6,0,P|382:379|450:317,1,135,0|8,1:0|0:0,0:0:0:0:
487,157,44120,1,0,1:0:0:0:
487,157,44286,1,0,1:0:0:0:
409,210,44453,2,0,P|348:223|280:161,1,135,8|0,0:0|1:0,0:0:0:0:
240,104,44953,5,8,0:0:0:0:
240,104,45120,1,2,0:0:0:0:
294,26,45286,1,0,1:0:0:0:
294,26,45370,1,0,1:0:0:0:
294,26,45453,2,0,L|370:40,1,67.5,10|8,0:0|3:0,0:0:0:0:
448,4,45786,2,0,L|497:55,1,67.5,2|0,1:0|0:0,0:0:0:0:
490,164,46120,6,0,L|354:177,1,121.499996292114,6|2,1:0|0:0,0:0:0:0:
297,128,46620,1,2,1:0:0:0:
297,128,46786,2,0,B|173:115|173:115|111:148,1,182.249994438172,8|8,0:0|0:0,0:0:0:0:
54,194,47453,5,2,1:0:0:0:
54,194,47620,1,8,0:0:0:0:
139,340,47953,1,2,1:0:0:0:
139,340,48120,2,0,P|188:311|261:327,1,121.499996292114,8|0,0:0|0:0,0:0:0:0:
329,374,48620,1,8,0:0:0:0:
329,374,48703,1,8,0:0:0:0:
329,374,48786,6,0,L|453:356,1,121.499996292114,2|2,1:0|0:0,0:0:0:0:
497,286,49286,1,2,1:0:0:0:
497,286,49453,2,0,P|506:234|509:215,1,60.7499981460572,8|2,0:0|0:0,0:0:0:0:
461,154,49786,1,2,0:0:0:0:
461,154,49953,2,0,P|452:102|449:83,1,60.7499981460572,10|0,0:0|1:0,0:0:0:0:
403,222,50286,6,0,L|278:201,1,121.499996292114,8|0,0:0|0:0,0:0:0:0:
217,246,50786,1,10,0:0:0:0:
89,124,51120,2,0,L|83:74,3,30.3749990730286,10|0|8|8,0:0|0:0|0:0|0:0,0:0:0:0:
107,51,51453,6,0,P|160:24|232:43,1,135,6|10,1:0|0:0,0:0:0:0:
299,106,51953,1,0,1:0:0:0:
299,106,52120,2,0,L|287:187,1,67.5,2|2,0:0|1:0,0:0:0:0:
340,252,52453,2,0,L|328:333,1,67.5,10|0,0:0|0:0,0:0:0:0:
233,262,52786,6,0,B|188:246|188:246|89:266,1,135,2|8,1:0|0:0,0:0:0:0:
13,230,53286,1,0,1:0:0:0:
13,230,53453,2,0,P|2:186|6:145,1,67.5,2|2,0:0|1:0,0:0:0:0:
76,104,53786,2,0,P|87:60|83:19,1,67.5,8|0,0:0|0:0,0:0:0:0:
145,169,54120,6,0,L|280:179,1,135,6|8,1:0|0:0,0:0:0:0:
229,282,54620,2,0,P|293:294|357:264,1,135,4|0,1:0|1:0,0:0:0:0:
430,207,55120,1,8,0:0:0:0:
384,124,55286,1,0,1:0:0:0:
384,124,55370,1,0,1:0:0:0:
384,124,55453,6,0,L|397:51,1,67.5,8|8,0:0|3:0,0:0:0:0:
308,11,55786,2,0,L|270:4,3,33.75,8|8|8|8,0:0|3:0|3:0|3:0,0:0:0:0:
234,31,56120,1,4,3:0:0:0:
207,217,56453,1,0,3:0:0:0:
112,42,56786,6,0,L|91:199,1,141.749995674133,6|10,1:0|0:0,0:0:0:0:
136,272,57286,2,0,P|194:306|279:271,1,141.749995674133,2|2,0:0|0:0,0:0:0:0:
338,223,57786,1,10,0:0:0:0:
338,223,57953,1,2,0:0:0:0:
279,142,58120,6,0,B|261:97|261:97|282:-4,1,141.749995674133,6|10,1:0|0:0,0:0:0:0:
371,49,58620,2,0,P|414:60|459:64,1,70.8749978370667,2|0,0:0|0:0,0:0:0:0:
490,152,58953,1,2,0:0:0:0:
490,152,59120,2,0,P|447:163|402:167,1,70.8749978370667,10|2,0:0|0:0,0:0:0:0:
282,139,59453,6,0,B|209:102|137:144,1,141.749995674133,6|8,1:0|0:0,0:0:0:0:
79,211,59953,2,0,B|62:255|62:255|82:349,1,141.749995674133,2|2,0:0|0:0,0:0:0:0:
175,381,60453,1,10,0:0:0:0:
175,381,60620,1,2,0:0:0:0:
230,298,60786,6,0,L|375:313,1,141.749995674133,6|10,1:0|0:0,0:0:0:0:
453,257,61286,2,0,P|401:214|321:225,1,141.749995674133,2|0,0:0|1:0,0:0:0:0:
244,169,61786,2,0,L|228:86,1,70.8749978370667,10|0,0:0|0:0,0:0:0:0:
119,21,62120,6,0,L|100:169,1,141.749995674133,6|8,1:0|0:0,0:0:0:0:
64,254,62620,1,0,0:0:0:0:
64,254,62786,2,0,P|105:255|155:272,1,70.8749978370667,2|0,1:0|0:0,0:0:0:0:
214,321,63120,2,0,P|249:320|283:312,1,70.8749978370667,10|0,0:0|0:0,0:0:0:0:
356,380,63453,6,0,P|381:311|357:245,1,141.749995674133,6|10,1:0|0:0,0:0:0:0:
310,162,63953,1,0,0:0:0:0:
310,162,64120,2,0,L|324:83,1,70.8749978370667,2|0,1:0|0:0,0:0:0:0:
267,9,64453,1,10,0:0:0:0:
179,187,64786,6,0,P|244:153|324:169,1,141.749995674133,6|8,0:0|0:0,0:0:0:0:
263,273,65286,2,0,L|112:291,1,141.749995674133,6|0,1:0|0:0,0:0:0:0:
41,232,65786,1,8,0:0:0:0:
41,232,65953,1,6,3:0:0:0:
60,113,66120,6,0,B|75:12|75:12|95:53,1,141.749995674133,6|10,1:0|0:0,0:0:0:0:
155,159,66620,2,0,P|211:127|284:147,1,141.749995674133,6|8,1:0|3:0,0:0:0:0:
368,96,67120,1,8,0:0:0:0:
470,154,67286,1,8,3:0:0:0:
470,154,67370,1,4,3:0:0:0:
470,154,67453,6,0,L|490:297,1,141.749995674133,6|8,1:0|0:0,0:0:0:0:
419,365,67953,2,0,P|347:377|285:321,1,141.749995674133,2|2,0:0|0:0,0:0:0:0:
248,250,68453,1,10,0:0:0:0:
248,250,68620,1,2,0:0:0:0:
184,325,68786,6,0,L|22:304,1,141.749995674133,6|10,1:0|0:0,0:0:0:0:
10,213,69286,2,0,L|-5:119,1,70.8749978370667,2|0,0:0|0:0,0:0:0:0:
68,71,69620,1,2,0:0:0:0:
68,71,69786,2,0,L|147:88,1,70.8749978370667,10|0,0:0|0:0,0:0:0:0:
183,211,70120,6,0,L|338:195,1,141.749995674133,6|8,1:0|0:0,0:0:0:0:
402,135,70620,1,0,0:0:0:0:
402,135,70786,2,0,P|388:90|362:49,1,70.8749978370667,2|0,1:0|0:0,0:0:0:0:
295,10,71120,2,0,P|279:41|269:75,1,70.8749978370667,10|0,0:0|0:0,0:0:0:0:
324,196,71453,6,0,L|311:354,1,141.749995674133,6|10,1:0|0:0,0:0:0:0:
214,259,71953,2,0,P|156:227|78:250,1,141.749995674133,6|2,1:0|1:0,0:0:0:0:
14,343,72453,1,10,0:0:0:0:
244,341,72786,6,0,L|380:333,1,135,4|0,1:0|0:0,0:0:0:0:
453,275,73286,1,0,1:0:0:0:
453,275,73453,2,0,L|467:204,1,67.5,10|0,0:0|0:0,0:0:0:0:
410,132,73786,2,0,L|416:59,1,67.5,2|0,0:0|0:0,0:0:0:0:
330,26,74120,5,2,1:0:0:0:
330,26,74286,2,0,P|295:29|259:41,1,67.5,8|0,0:0|0:0,0:0:0:0:
186,93,74620,1,0,1:0:0:0:
114,32,74786,2,0,P|92:95|119:160,1,135,10|2,0:0|0:0,0:0:0:0:
196,340,75453,6,0,L|218:196,1,135,2|0,1:0|0:0,0:0:0:0:
268,127,75953,1,2,1:0:0:0:
331,197,76120,2,0,P|377:226|417:243,1,67.5,10|0,0:0|0:0,0:0:0:0:
456,165,76453,2,0,P|485:119|502:79,1,67.5,12|0,0:0|0:0,0:0:0:0:
421,23,76786,5,8,0:0:0:0:
421,23,76953,2,0,L|344:35,1,67.5,0|0,1:0|1:0,0:0:0:0:
260,17,77286,1,8,3:0:0:0:
260,17,77453,2,0,L|183:29,1,67.5,0|0,0:0|1:0,0:0:0:0:
139,105,77786,1,10,0:0:0:0:
139,105,78120,6,0,L|118:246,1,135,6|8,1:0|0:0,0:0:0:0:
162,322,78620,1,10,0:0:0:0:
162,322,78786,2,0,P|200:310|251:305,1,67.5,8|8,0:0|0:0,0:0:0:0:
316,340,79120,2,0,L|361:331,3,33.75,8|0|4|4,0:0|0:0|3:0|3:0,0:0:0:0:
386,304,79453,1,0,1:0:0:0:
313,129,79786,6,0,L|296:262,1,135,14|6,0:0|3:0,0:0:0:0:
218,317,80286,1,2,1:0:0:0:
218,317,80453,1,10,0:0:0:0:
142,260,80620,1,8,0:0:0:0:
142,260,80703,1,8,0:0:0:0:
142,260,80786,1,6,1:0:0:0:
256,192,80870,12,0,83453,0:0:0:0:
125,292,91453,6,0,P|184:269|260:291,1,121.499996292114,6|2,1:0|1:0,0:0:0:0:
310,325,91953,2,0,L|444:310,1,121.499996292114,2|2,0:0|0:0,0:0:0:0:
473,237,92453,1,2,1:0:0:0:
473,237,92620,1,2,0:0:0:0:
413,176,92786,6,0,P|361:147|279:166,1,121.499996292114,2|2,1:0|1:0,0:0:0:0:
226,194,93286,2,0,B|186:207|186:207|94:184,1,121.499996292114,2|2,0:0|0:0,0:0:0:0:
35,33,93953,1,2,0:0:0:0:
35,33,94120,6,0,L|180:46,1,121.499996292114,2|0,1:0|1:0,0:0:0:0:
218,101,94620,1,0,0:0:0:0:
218,101,94786,1,0,1:0:0:0:
295,65,94953,2,0,L|361:70,1,60.7499981460572,2|2,0:0|1:0,0:0:0:0:
422,122,95286,1,2,0:0:0:0:
422,122,95453,6,0,P|435:190|408:249,1,121.499996292114,0|0,1:0|1:0,0:0:0:0:
359,300,95953,1,0,0:0:0:0:
359,300,96120,2,0,L|295:313,1,60.7499981460572,0|0,1:0|0:0,0:0:0:0:
236,254,96453,2,0,L|172:241,1,60.7499981460572,0|2,1:0|0:0,0:0:0:0:
111,296,96786,6,0,P|91:234|125:175,1,121.499996292114,2|2,1:0|1:0,0:0:0:0:
177,128,97286,2,0,L|309:142,1,121.499996292114,2|0,0:0|0:0,0:0:0:0:
364,88,97786,1,0,1:0:0:0:
312,20,97953,1,2,0:0:0:0:
312,20,98120,6,0,P|253:45|176:23,1,121.499996292114,2|2,1:0|1:0,0:0:0:0:
116,9,98620,2,0,L|88:94,1,60.7499981460572,2|0,0:0|0:0,0:0:0:0:
36,126,98953,1,2,0:0:0:0:
36,126,99120,2,0,L|55:183,1,60.7499981460572,0|0,1:0|0:0,0:0:0:0:
90,261,99453,5,6,1:0:0:0:
90,261,100786,5,2,1:0:0:0:
212,116,101120,2,0,L|359:129,1,135,12|0,0:0|1:0,0:0:0:0:
409,198,101620,2,0,L|449:191,5,33.75,8|0|8|8|10|8,0:0|1:0|0:0|0:0|0:0|0:0,0:0:0:0:
487,206,102120,6,0,P|509:268|487:330,1,135,6|10,1:0|0:0,0:0:0:0:
408,382,102620,2,0,L|336:365,1,67.5,2|0,0:0|1:0,0:0:0:0:
273,301,102953,1,2,1:0:0:0:
273,301,103120,2,0,L|258:218,1,67.5,8|2,0:0|1:0,0:0:0:0:
196,165,103453,6,0,P|136:184|63:124,1,135,2|10,1:0|0:0,0:0:0:0:
27,69,103953,2,0,L|163:40,1,135,2|2,1:0|1:0,0:0:0:0:
250,14,104453,1,8,0:0:0:0:
250,14,104620,1,2,0:0:0:0:
294,97,104786,6,0,P|332:124|423:102,1,135,2|8,1:0|0:0,0:0:0:0:
496,157,105286,2,0,L|481:246,1,67.5,0|0,0:0|1:0,0:0:0:0:
400,272,105620,1,2,1:0:0:0:
400,272,105786,1,10,0:0:0:0:
320,221,105953,1,2,1:0:0:0:
320,221,106120,6,0,L|160:233,1,135,0|8,1:0|0:0,0:0:0:0:
103,183,106620,1,0,0:0:0:0:
103,183,106786,2,0,P|87:148|79:118,1,67.5,2|0,1:0|1:0,0:0:0:0:
144,50,107120,2,0,P|176:59|206:73,1,67.5,10|0,0:0|0:0,0:0:0:0:
261,150,107453,6,0,P|236:197|256:284,1,135,2|10,1:0|0:0,0:0:0:0:
306,350,107953,2,0,P|353:338|392:328,1,67.5,2|0,0:0|1:0,0:0:0:0:
438,263,108286,1,2,1:0:0:0:
438,263,108453,2,0,P|405:254|372:246,1,67.5,10|0,0:0|0:0,0:0:0:0:
437,177,108786,6,0,P|460:119|434:43,1,135,2|10,1:0|0:0,0:0:0:0:
355,10,109286,2,0,L|338:81,1,67.5,2|0,0:0|0:0,0:0:0:0:
304,164,109620,1,2,1:0:0:0:
304,164,109786,2,0,L|218:183,1,67.5,10|2,0:0|1:0,0:0:0:0:
156,129,110120,6,0,P|89:113|27:158,1,135,0|8,1:0|0:0,0:0:0:0:
1,233,110620,1,0,0:0:0:0:
1,233,110786,2,0,L|15:310,1,67.5,0|0,1:0|1:0,0:0:0:0:
91,352,111120,2,0,P|136:313|224:341,1,135,8|0,0:0|1:0,0:0:0:0:
283,379,111620,5,8,0:0:0:0:
283,379,111786,1,2,0:0:0:0:
353,315,111953,1,0,1:0:0:0:
353,315,112036,1,8,0:0:0:0:
353,315,112120,2,0,L|366:227,1,67.5,10|8,0:0|3:0,0:0:0:0:
380,155,112453,1,4,0:3:0:0:
227,229,112786,6,0,P|155:232|105:187,1,121.499996292114,6|2,1:0|0:0,0:0:0:0:
65,138,113286,1,2,1:0:0:0:
65,138,113453,2,0,B|160:91|161:188|255:123,1,182.249994438172,8|8,0:0|0:0,0:0:0:0:
317,95,114120,5,2,1:0:0:0:
317,95,114286,1,8,0:0:0:0:
365,258,114620,1,2,1:0:0:0:
365,258,114786,2,0,L|231:278,1,121.499996292114,8|0,0:0|0:0,0:0:0:0:
172,321,115286,1,8,0:0:0:0:
172,321,115370,1,8,0:0:0:0:
172,321,115453,6,0,P|90:332|49:298,1,121.499996292114,2|2,1:0|0:0,0:0:0:0:
12,242,115953,1,2,1:0:0:0:
12,242,116120,2,0,P|5:199|3:170,1,60.7499981460572,8|2,0:0|0:0,0:0:0:0:
58,117,116453,1,2,0:0:0:0:
58,117,116620,2,0,L|142:106,1,60.7499981460572,10|0,0:0|1:0,0:0:0:0:
183,164,116953,6,0,P|237:137|299:151,1,121.499996292114,8|0,0:0|0:0,0:0:0:0:
369,189,117453,1,10,0:0:0:0:
269,326,117786,2,0,L|217:338,3,30.3749990730286,10|0|8|8,0:0|0:0|0:0|0:0,0:0:0:0:
203,297,118120,6,0,L|182:159,1,135,6|10,1:0|0:0,0:0:0:0:
214,74,118620,1,0,1:0:0:0:
214,74,118786,2,0,L|141:50,1,67.5,2|2,0:0|1:0,0:0:0:0:
82,120,119120,2,0,L|9:144,1,67.5,10|0,0:0|0:0,0:0:0:0:
2,234,119453,6,0,P|51:262|137:244,1,135,2|8,1:0|0:0,0:0:0:0:
214,215,119953,1,0,1:0:0:0:
214,215,120120,2,0,L|289:222,1,67.5,2|2,0:0|1:0,0:0:0:0:
336,298,120453,2,0,L|411:291,1,67.5,10|0,0:0|0:0,0:0:0:0:
489,217,120786,6,0,P|509:153|470:77,1,135,6|8,1:0|0:0,0:0:0:0:
381,26,121286,2,0,L|407:173,1,135,4|0,1:0|1:0,0:0:0:0:
343,231,121786,1,8,0:0:0:0:
269,175,121953,1,0,1:0:0:0:
269,175,122036,1,0,1:0:0:0:
269,175,122120,6,0,L|253:103,1,67.5,8|8,0:0|3:0,0:0:0:0:
176,54,122453,2,0,L|134:57,3,33.75,8|8|8|8,0:0|3:0|3:0|3:0,0:0:0:0:
100,33,122786,1,4,3:0:0:0:
36,211,123120,1,0,3:0:0:0:
232,185,123453,6,0,L|392:198,1,141.749995674133,6|10,1:0|0:0,0:0:0:0:
435,280,123953,2,0,P|471:215|454:135,1,141.749995674133,2|2,0:0|0:0,0:0:0:0:
420,60,124453,1,10,0:0:0:0:
420,60,124620,1,2,0:0:0:0:
329,99,124786,6,0,B|290:115|290:115|180:87,1,141.749995674133,6|10,1:0|0:0,0:0:0:0:
100,55,125286,2,0,P|85:110|78:152,1,70.8749978370667,2|0,0:0|0:0,0:0:0:0:
156,190,125620,1,2,0:0:0:0:
156,190,125786,2,0,P|171:245|178:287,1,70.8749978370667,10|2,0:0|0:0,0:0:0:0:
238,360,126120,6,0,P|304:377|366:345,1,141.749995674133,6|8,1:0|0:0,0:0:0:0:
437,275,126620,2,0,B|457:233|457:233|436:121,1,141.749995674133,2|2,0:0|0:0,0:0:0:0:
343,112,127120,1,10,0:0:0:0:
343,112,127286,1,2,0:0:0:0:
276,186,127453,6,0,P|213:174|145:224,1,141.749995674133,6|10,1:0|0:0,0:0:0:0:
71,273,127953,2,0,B|52:230|52:230|82:116,1,141.749995674133,2|0,0:0|1:0,0:0:0:0:
102,42,128453,2,0,L|187:28,1,70.8749978370667,10|0,0:0|0:0,0:0:0:0:
259,113,128786,6,0,L|422:125,1,141.749995674133,6|8,1:0|0:0,0:0:0:0:
473,191,129286,1,0,0:0:0:0:
473,191,129453,2,0,P|452:246|442:284,1,70.8749978370667,2|0,1:0|0:0,0:0:0:0:
368,316,129786,2,0,P|334:305|301:291,1,70.8749978370667,10|0,0:0|0:0,0:0:0:0:
223,228,130120,6,0,L|75:241,1,141.749995674133,6|10,1:0|0:0,0:0:0:0:
25,158,130620,1,0,0:0:0:0:
25,158,130786,2,0,P|14:107|14:73,1,70.8749978370667,2|0,1:0|0:0,0:0:0:0:
94,29,131120,2,0,P|105:80|105:114,1,70.8749978370667,10|0,0:0|0:0,0:0:0:0:
213,147,131453,6,0,B|318:141|318:141|271:92,1,141.749995674133,6|8,0:0|0:0,0:0:0:0:
213,33,131953,2,0,P|263:2|349:18,1,141.749995674133,6|0,1:0|0:0,0:0:0:0:
435,64,132453,1,8,0:0:0:0:
435,64,132620,1,6,3:0:0:0:
357,166,132786,6,0,B|340:204|340:204|364:312,1,141.749995674133,6|10,1:0|0:0,0:0:0:0:
268,381,133286,2,0,P|226:341|119:354,1,141.749995674133,6|8,1:0|3:0,0:0:0:0:
52,373,133786,1,8,0:0:0:0:
14,280,133953,1,8,3:0:0:0:
14,280,134036,1,4,3:0:0:0:
14,280,134120,6,0,L|35:133,1,141.749995674133,6|8,1:0|0:0,0:0:0:0:
112,200,134620,2,0,P|176:229|259:182,1,141.749995674133,2|2,0:0|0:0,0:0:0:0:
312,137,135120,1,10,0:0:0:0:
312,137,135286,1,2,0:0:0:0:
368,218,135453,6,0,B|388:259|388:259|371:367,1,141.749995674133,6|10,1:0|0:0,0:0:0:0:
471,339,135953,2,0,L|487:255,1,70.8749978370667,2|0,0:0|0:0,0:0:0:0:
454,174,136286,1,2,0:0:0:0:
454,174,136453,2,0,L|440:104,1,70.8749978370667,10|0,0:0|0:0,0:0:0:0:
342,26,136786,6,0,P|287:64|197:39,1,141.749995674133,6|8,1:0|0:0,0:0:0:0:
125,13,137286,1,0,0:0:0:0:
125,13,137453,2,0,P|111:66|105:106,1,70.8749978370667,2|0,1:0|0:0,0:0:0:0:
184,145,137786,2,0,P|198:198|204:238,1,70.8749978370667,10|0,0:0|0:0,0:0:0:0:
124,303,138120,6,0,P|182:331|267:311,1,141.749995674133,6|10,1:0|0:0,0:0:0:0:
319,217,138620,2,0,L|474:229,1,141.749995674133,6|2,1:0|1:0,0:0:0:0:
408,105,139120,1,10,0:0:0:0:
234,179,139453,6,0,L|216:33,1,135,6|0,1:0|0:0,0:0:0:0:
130,82,139953,1,0,1:0:0:0:
130,82,140120,2,0,L|114:166,1,67.5,10|0,0:0|0:0,0:0:0:0:
50,214,140453,2,0,L|67:295,1,67.5,2|0,0:0|0:0,0:0:0:0:
140,335,140786,5,2,1:0:0:0:
140,335,140953,1,8,0:0:0:0:
223,291,141120,2,0,P|258:282|300:280,1,67.5,0|0,0:0|1:0,0:0:0:0:
390,281,141453,2,0,B|410:239|410:239|394:135,1,135,10|2,0:0|0:0,0:0:0:0:
284,1,142120,6,0,L|304:143,1,135,2|0,1:0|0:0,0:0:0:0:
254,218,142620,1,2,1:0:0:0:
254,218,142786,2,0,L|173:206,1,67.5,10|0,0:0|0:0,0:0:0:0:
93,124,143120,2,0,L|159:114,1,67.5,12|0,0:0|0:0,0:0:0:0:
231,51,143453,5,8,0:0:0:0:
231,51,143620,2,0,P|265:59|304:80,1,67.5,0|0,1:0|1:0,0:0:0:0:
365,11,143953,1,8,3:0:0:0:
365,11,144120,2,0,P|391:33|416:69,1,67.5,0|0,0:0|1:0,0:0:0:0:
446,147,144453,1,10,0:0:0:0:
446,147,144786,6,0,L|433:303,1,135,6|8,1:0|0:0,0:0:0:0:
367,347,145286,1,8,0:0:0:0:
367,347,145453,2,0,P|320:332|289:317,1,67.5,8|8,0:0|0:0,0:0:0:0:
225,271,145786,2,0,L|171:276,3,33.75,8|0|4|4,0:0|0:0|3:0|3:0,0:0:0:0:
151,248,146120,1,0,1:0:0:0:
229,76,146453,6,0,P|155:47|93:75,1,135,14|6,0:0|3:0,0:0:0:0:
32,124,146953,1,2,1:0:0:0:
32,124,147120,1,10,0:0:0:0:
84,202,147286,1,8,0:0:0:0:
84,202,147370,1,8,0:0:0:0:
84,202,147453,2,0,L|162:183,1,67.5,0|0,1:0|1:0,0:0:0:0:
214,285,147786,6,0,P|260:309|351:280,1,135,12|8,0:0|3:0,0:0:0:0:
418,241,148286,1,8,3:0:0:0:
418,241,148453,1,8,0:0:0:0:
311,172,148620,6,0,B|274:152|274:152|169:176,1,135,4|8,1:0|0:0,0:0:0:0:
94,140,149120,1,8,0:0:0:0:
16,240,149286,2,0,P|53:270|152:253,1,135,12|0,0:0|1:0,0:0:0:0:
183,172,149786,1,12,0:0:0:0:
275,344,150120,6,0,L|293:203,1,135,6|8,1:0|0:0,0:0:0:0:
327,24,150786,1,0,1:0:0:0:
327,24,150953,2,0,P|368:10|419:4,1,67.5,2|10,0:0|0:0,0:0:0:0:
462,68,151286,6,0,L|448:211,1,135,2|2,3:2|0:0,0:0:0:0:
408,288,151786,1,10,0:0:0:0:
408,288,151953,1,2,0:0:0:0:
325,241,152120,2,0,L|244:251,1,67.5,2|2,1:0|0:0,0:0:0:0:
177,198,152453,1,10,0:0:0:0:
177,198,152620,1,2,3:2:0:0:
102,254,152786,6,0,P|78:190|110:121,1,135,2|8,1:0|0:0,0:0:0:0:
246,9,153453,1,0,1:0:0:0:
246,9,153620,2,0,L|234:92,1,67.5,2|8,0:0|0:0,0:0:0:0:
279,160,153953,1,2,3:2:0:0:
279,160,154120,6,0,L|349:143,1,67.5,2|2,1:0|0:0,0:0:0:0:
411,76,154453,1,10,0:0:0:0:
411,76,154620,2,0,P|438:142|413:207,1,135,2|0,0:0|0:0,0:0:0:0:
364,277,155120,2,0,L|291:263,1,67.5,8|0,0:0|3:0,0:0:0:0:
226,332,155453,6,0,L|153:290,1,67.5,0|2,1:0|0:0,0:0:0:0:
122,214,155786,1,10,0:0:0:0:
122,214,155953,1,2,0:0:0:0:
191,149,156120,2,0,L|262:143,1,67.5,2|2,1:0|0:0,0:0:0:0:
344,181,156453,1,10,0:0:0:0:
431,93,156620,6,0,P|361:58|302:64,1,135,6|2,1:0|1:0,0:0:0:0:
224,15,157120,1,10,0:0:0:0:
148,75,157286,1,2,1:0:0:0:
148,75,157453,2,0,L|64:65,1,67.5,2|10,0:0|3:2,0:0:0:0:
13,133,157786,1,4,3:0:0:0:
13,133,157953,1,10,3:2:0:0:
76,202,158120,6,0,L|58:287,1,67.5,10|10,0:0|0:0,0:0:0:0:
129,334,158453,1,10,0:0:0:0:
189,240,158620,1,14,0:0:0:0:
339,354,158953,1,10,0:0:0:0:
431,189,159286,6,0,P|372:163|288:184,1,135,10|2,3:2|1:0,0:0:0:0:
243,102,159786,1,10,0:0:0:0:
243,102,159953,1,2,1:0:0:0:
170,163,160120,1,2,0:0:0:0:
85,121,160286,2,0,L|31:126,5,33.75,0|0|10|8|10|0,1:0|1:0|0:0|0:0|0:0|0:0,0:0:0:0:
21,160,160786,6,0,P|0:220|28:289,1,135,6|8,1:0|0:0,0:0:0:0:
83,357,161286,1,0,0:0:0:0:
83,357,161453,2,0,L|163:331,1,67.5,0|0,1:0|0:0,0:0:0:0:
208,263,161786,2,0,L|284:276,1,67.5,8|0,0:0|3:0,0:0:0:0:
329,196,162120,6,0,P|385:229|466:197,1,135,0|8,1:0|0:0,0:0:0:0:
500,133,162620,1,0,3:0:0:0:
500,133,162786,2,0,L|485:65,1,67.5,2|0,1:0|0:0,0:0:0:0:
410,8,163120,1,8,0:0:0:0:
357,86,163286,1,2,0:0:0:0:
357,86,163370,1,2,0:0:0:0:
357,86,163453,6,0,L|210:77,1,135,2|8,1:0|0:0,0:0:0:0:
140,29,163953,1,0,3:0:0:0:
140,29,164120,1,0,1:0:0:0:
75,97,164286,2,0,L|95:181,1,67.5,2|10,0:0|0:0,0:0:0:0:
160,260,164620,6,0,P|222:223|291:245,1,135,6|2,1:0|1:0,0:0:0:0:
361,283,165120,1,10,0:0:0:0:
361,283,165286,1,2,0:0:0:0:
438,228,165453,2,0,L|418:75,1,135,0|10,1:0|0:0,0:0:0:0:
242,159,166120,5,2,1:0:0:0:
242,159,166286,1,2,0:0:0:0:
204,71,166453,1,10,0:0:0:0:
204,71,166620,2,0,L|362:52,1,135,2|0,0:0|1:0,0:0:0:0:
419,6,167120,1,10,0:0:0:0:
508,95,167286,1,6,1:0:0:0:
508,95,167453,6,0,L|496:180,1,67.5,2|2,0:0|1:0,0:0:0:0:
439,235,167786,1,10,0:0:0:0:
366,173,167953,1,2,0:0:0:0:
366,173,168120,2,0,P|324:165|274:163,1,67.5,0|0,1:0|1:0,0:0:0:0:
232,252,168453,1,8,0:0:0:0:
131,91,168786,5,10,0:0:0:0:
131,91,168953,1,10,0:0:0:0:
77,272,169286,1,10,0:0:0:0:
241,178,169620,1,10,0:0:0:0:
39,66,169953,6,0,P|18:131|37:192,1,135,6|8,1:0|0:0,0:0:0:0:
81,276,170453,1,8,0:0:0:0:
81,276,170620,1,8,0:0:0:0:
161,226,170786,1,10,0:0:0:0:
161,226,170953,1,8,0:0:0:0:
237,281,171120,2,0,L|285:286,3,33.75,8|8|8|4,0:0|0:0|3:0|3:0,0:0:0:0:
310,258,171453,5,6,1:0:0:0:
318,255,182120,6,0,L|462:240,1,121.499996292114,4|8,1:0|0:0,0:0:0:0:
504,85,182786,2,0,L|383:72,1,121.499996292114,8|8,0:0|0:0,0:0:0:0:
305,105,183286,1,2,1:0:0:0:
305,105,183453,6,0,P|258:82|174:100,1,121.499996292114,10|10,1:2|0:0,0:0:0:0:
89,226,184120,2,0,P|148:235|202:210,1,121.499996292114,10|10,0:0|0:0,0:0:0:0:
338,311,184786,6,0,B|355:272|355:272|335:173,1,121.499996292114,10|8,1:2|0:0,0:0:0:0:
259,35,185453,2,0,B|276:74|276:74|256:173,1,121.499996292114,10|8,0:0|0:0,0:0:0:0:
202,209,185953,2,0,P|116:179|73:200,1,121.499996292114,2|0,1:0|1:0,0:0:0:0:
28,256,186453,1,8,0:0:0:0:
35,67,186786,6,0,L|179:83,1,135,10|10,0:0|0:0,0:0:0:0:
258,149,187286,6,0,P|304:116|392:136,1,135,6|2,1:0|1:0,0:0:0:0:
443,194,187786,2,0,L|428:277,1,67.5,10|0,0:0|0:0,0:0:0:0:
372,335,188120,2,0,B|326:351|326:351|219:325,1,135,2|10,1:0|0:0,0:0:0:0:
166,273,188620,6,0,P|191:219|174:143,1,135,2|2,1:0|1:0,0:0:0:0:
91,65,189120,2,0,L|68:204,1,135,10|0,0:0|1:0,0:0:0:0:
26,286,189620,1,2,1:0:0:0:
26,286,189786,1,10,0:0:0:0:
109,370,189953,6,0,P|158:335|246:352,1,135,6|0,1:0|1:0,0:0:0:0:
291,269,190453,2,0,L|438:283,1,135,8|8,0:0|0:0,0:0:0:0:
492,214,190953,1,2,1:0:0:0:
492,214,191120,1,10,0:0:0:0:
415,129,191286,6,0,P|351:102|277:137,1,135,6|8,1:0|0:0,0:0:0:0:
217,180,191786,1,8,0:0:0:0:
217,180,191953,1,8,0:0:0:0:
139,125,192120,1,8,0:0:0:0:
139,125,192286,1,8,0:0:0:0:
61,179,192453,2,0,L|50:222,3,33.75,10|8|8|8,0:0|0:0|0:0|0:0,0:0:0:0:
71,255,192786,5,14,0:0:0:0:
71,255,194120,5,6,1:0:0:0:
241,343,194953,1,2,0:0:0:0:
241,343,195120,2,0,P|291:328|338:322,1,67.5,2|2,0:0|0:0,0:0:0:0:
396,238,195453,6,0,P|423:188|394:106,1,135,4|8,1:0|0:0,0:0:0:0:
334,51,195953,2,0,P|307:101|336:183,1,135,4|8,1:0|0:0,0:0:0:0:
272,251,196453,1,8,0:0:0:0:
272,251,196536,1,8,0:0:0:0:
272,251,196620,1,8,0:0:0:0:
167,191,196786,6,0,L|13:203,1,135,4|8,1:0|3:0,0:0:0:0:
107,95,197286,2,0,P|151:64|249:87,1,135,4|8,1:0|3:0,0:0:0:0:
310,118,197786,2,0,L|361:108,3,33.75,4|8|4|4,1:0|3:0|3:0|3:0,0:0:0:0:
387,135,198120,6,0,L|378:286,1,141.749995674133,6|8,1:0|0:0,0:0:0:0:
295,339,198620,1,0,3:0:0:0:
295,339,198786,2,0,P|241:321|207:318,1,70.8749978370667,2|0,1:0|0:0,0:0:0:0:
138,273,199120,2,0,P|124:240|118:205,1,70.8749978370667,14|0,0:0|0:0,0:0:0:0:
151,111,199453,6,0,P|200:86|287:109,1,141.749995674133,0|14,1:0|0:0,0:0:0:0:
354,171,199953,1,0,3:0:0:0:
354,171,200120,2,0,L|448:157,1,70.8749978370667,2|0,1:0|1:0,0:0:0:0:
503,261,200453,2,0,L|409:247,1,70.8749978370667,14|0,0:0|0:0,0:0:0:0:
368,346,200786,6,0,P|297:365|239:319,1,141.749995674133,4|8,1:0|0:0,0:0:0:0:
337,246,201286,2,0,B|361:206|361:206|339:96,1,141.749995674133,6|0,1:0|0:0,0:0:0:0:
265,49,201786,1,8,0:0:0:0:
265,49,201953,1,2,1:0:0:0:
210,154,202120,6,0,L|50:135,1,141.749995674133,6|10,1:0|0:0,0:0:0:0:
4,244,202620,2,0,P|44:284|134:273,1,141.749995674133,6|4,1:0|3:0,0:0:0:0:
212,233,203120,1,8,0:0:0:0:
271,311,203286,1,8,3:0:0:0:
271,311,203370,1,4,3:0:0:0:
271,311,203453,6,0,L|418:292,1,141.749995674133,6|14,1:0|0:0,0:0:0:0:
480,221,203953,2,0,P|507:163|477:84,1,141.749995674133,2|2,0:0|0:0,0:0:0:0:
405,31,204453,1,14,0:0:0:0:
405,31,204620,1,2,0:0:0:0:
341,106,204786,6,0,L|188:91,1,141.749995674133,2|14,1:0|0:0,0:0:0:0:
114,143,205286,2,0,L|130:229,1,70.8749978370667,2|0,0:0|0:0,0:0:0:0:
208,270,205620,1,2,0:0:0:0:
208,270,205786,2,0,L|225:193,1,70.8749978370667,12|2,0:0|0:0,0:0:0:0:
319,271,206120,6,0,P|378:300|453:282,1,141.749995674133,6|14,1:0|0:0,0:0:0:0:
504,201,206620,2,0,L|519:118,1,70.8749978370667,2|0,0:0|1:0,0:0:0:0:
450,56,206953,1,2,0:0:0:0:
385,131,207120,1,14,0:0:0:0:
385,131,207286,1,2,0:0:0:0:
275,66,207453,6,0,P|206:49|136:89,1,141.749995674133,6|10,1:0|0:0,0:0:0:0:
85,195,207953,2,0,B|128:213|128:213|231:189,1,141.749995674133,6|2,1:0|1:0,0:0:0:0:
306,241,208453,1,8,0:0:0:0:
306,241,208620,1,0,1:0:0:0:
239,330,208786,6,0,L|87:348,1,135,4|0,1:0|0:0,0:0:0:0:
35,281,209286,1,0,1:0:0:0:
35,281,209453,2,0,L|11:207,1,67.5,10|0,0:0|0:0,0:0:0:0:
103,185,209786,2,0,L|87:106,1,67.5,2|0,0:0|0:0,0:0:0:0:
159,54,210120,5,2,1:0:0:0:
159,54,210286,1,8,0:0:0:0:
229,117,210453,2,0,P|283:144|306:148,1,67.5,0|0,0:0|1:0,0:0:0:0:
376,108,210786,2,0,P|445:98|504:140,1,135,10|2,0:0|0:0,0:0:0:0:
410,299,211453,6,0,L|256:313,1,135,6|0,1:2|0:2,0:0:0:0:
196,259,211953,1,2,1:0:0:0:
196,259,212120,2,0,L|111:246,1,67.5,10|0,0:0|0:0,0:0:0:0:
67,176,212453,2,0,L|77:109,1,67.5,12|0,0:0|0:0,0:0:0:0:
150,49,212786,5,8,0:0:0:0:
150,49,212953,2,0,P|201:87|231:100,1,67.5,0|0,1:0|1:0,0:0:0:0:
171,177,213286,1,8,3:0:0:0:
171,177,213453,2,0,P|233:188|266:187,1,67.5,0|0,0:0|1:0,0:0:0:0:
301,119,213786,1,10,0:0:0:0:
301,119,214120,6,0,P|361:93|428:116,1,135,4|0,1:0|1:0,0:0:0:0:
494,226,214620,1,14,0:0:0:0:
494,226,214786,2,0,L|482:301,1,67.5,2|0,1:0|1:0,0:0:0:0:
381,346,215120,2,0,L|362:267,1,67.5,12|0,0:0|1:0,0:0:0:0:
256,192,215453,1,12,0:0:0:0:
181,359,216120,5,0,0:0:0:0:
181,359,216286,1,0,0:0:0:0:
103,304,216453,2,0,L|83:229,1,67.5,0|0,0:0|0:0,0:0:0:0:
110,118,216786,6,0,P|151:123|200:149,1,67.5,4|0,1:0|0:0,0:0:0:0:
210,44,217120,2,0,P|244:66|277:111,1,67.5,8|2,0:0|0:0,0:0:0:0:
328,17,217453,2,0,P|349:52|358:107,1,67.5,2|0,1:0|0:0,0:0:0:0:
312,161,217786,1,10,0:0:0:0:
312,161,217953,1,0,0:0:0:0:
388,217,218120,6,0,L|363:366,1,135,2|8,1:0|0:0,0:0:0:0:
276,383,218620,1,2,0:0:0:0:
276,383,218786,2,0,P|213:360|209:359,1,67.5,2|0,1:0|0:0,0:0:0:0:
162,279,219120,2,0,P|99:302|95:303,1,67.5,10|0,0:0|0:0,0:0:0:0:
22,245,219453,6,0,L|7:167,1,67.5,2|0,1:0|0:0,0:0:0:0:
58,97,219786,1,10,0:0:0:0:
58,97,219953,1,0,1:0:0:0:
134,152,220120,2,0,L|213:159,1,67.5,2|0,0:0|1:0,0:0:0:0:
285,115,220453,1,10,0:0:0:0:
340,191,220620,6,0,P|383:224|477:210,1,135,2|2,1:0|1:0,0:0:0:0:
511,140,221120,2,0,L|494:68,1,67.5,10|0,0:0|0:0,0:0:0:0:
411,29,221453,1,2,1:0:0:0:
411,29,221620,1,2,0:0:0:0:
330,77,221786,2,0,P|285:88|237:86,1,67.5,10|2,0:0|0:0,0:0:0:0:
151,31,222120,6,0,P|137:75|132:117,1,67.5,6|0,1:0|0:0,0:0:0:0:
39,109,222453,2,0,P|45:154|59:194,1,67.5,10|0,0:0|0:0,0:0:0:0:
1,254,222786,2,0,P|27:292|57:321,1,67.5,2|0,1:0|0:0,0:0:0:0:
120,361,223120,1,10,0:0:0:0:
188,296,223286,6,0,L|331:306,1,135,2|0,0:0|0:0,0:0:0:0:
403,354,223786,1,10,0:0:0:0:
453,273,223953,2,0,B|473:226|473:226|457:138,1,135,2|2,1:0|1:0,0:0:0:0:
377,93,224453,1,8,0:0:0:0:
333,187,224620,6,0,P|262:194|213:154,1,135,6|2,1:0|1:0,0:0:0:0:
176,69,225120,2,0,L|248:47,1,67.5,10|2,0:0|0:0,0:0:0:0:
328,15,225453,1,2,1:0:0:0:
328,15,225620,1,2,0:0:0:0:
377,93,225786,1,10,0:0:0:0:
333,187,225953,6,0,L|350:326,1,135,4|0,1:0|0:0,0:0:0:0:
272,376,226453,1,10,0:0:0:0:
193,322,226620,1,8,0:0:0:0:
193,322,226703,1,8,0:0:0:0:
193,322,226786,2,0,L|180:241,1,67.5,4|4,3:0|3:0,0:0:0:0:
88,238,227120,2,0,L|98:157,1,67.5,4|0,3:0|0:0,0:0:0:0:
169,111,227453,5,4,0:0:0:0:
256,192,227536,12,0,233120,0:0:0:0:
