osu file format v14

[General]
AudioFilename: audio.mp3
AudioLeadIn: 0
PreviewTime: 56471
Countdown: 0
SampleSet: Soft
StackLeniency: 0.7
Mode: 0
LetterboxInBreaks: 0
WidescreenStoryboard: 0

[Editor]
DistanceSpacing: 0.6
BeatDivisor: 4
GridSize: 32
TimelineZoom: 1.7

[Metadata]
Title:Hitokoto no Kyori
TitleUnicode:ヒトコトの距離
Artist:*namirin
ArtistUnicode:*なみりん
Creator:sahuang
Version:Sotarks' Sympathy
Source:
Tags:5colors Beomsan Akitoshi Corinn joker- Linada Left Sotarks Slayed My Angel Azusa
BeatmapID:1411985
BeatmapSetID:667290

[Difficulty]
HPDrainRate:6
CircleSize:3.5
OverallDifficulty:9
ApproachRate:9.2
SliderMultiplier:1.82
SliderTickRate:1

[Events]
//Background and Video events
0,0,"lol.jpg",0,0
//Break Periods
2,80986,90716
2,171653,181469
//Storyboard Layer 0 (Background)
//Storyboard Layer 1 (Fail)
//Storyboard Layer 2 (Pass)
//Storyboard Layer 3 (Foreground)
//Storyboard Sound Samples

[TimingPoints]
787,333.333333333333,4,2,1,32,1,0
787,-161.290322580645,4,2,1,32,0,0
7953,-161.290322580645,4,2,1,42,0,0
8120,-192.307692307692,4,2,1,52,0,0
8703,-192.307692307692,4,2,1,5,0,0
8786,-192.307692307692,4,2,1,62,0,0
10120,-98.0392156862744,4,2,1,62,0,0
23536,-98.0392156862744,4,2,1,5,0,0
23620,-98.0392156862744,4,2,1,62,0,0
24786,-121.951219512195,4,2,2,42,0,0
25036,-121.951219512195,4,2,2,5,0,0
25120,-121.951219512195,4,2,2,42,0,0
26370,-121.951219512195,4,2,2,5,0,0
26453,-121.951219512195,4,2,2,42,0,0
30370,-121.951219512195,4,2,2,5,0,0
30453,-121.951219512195,4,2,2,42,0,0
31703,-121.951219512195,4,2,2,5,0,0
31786,-121.951219512195,4,2,2,42,0,0
33036,-121.951219512195,4,2,2,5,0,0
33120,-121.951219512195,4,2,2,42,0,0
34120,-89.2857142857143,4,2,1,52,0,0
34703,-89.2857142857143,4,2,1,5,0,0
34786,-89.2857142857143,4,2,1,52,0,0
35453,-98.0392156862745,4,2,1,52,0,0
35703,-98.0392156862745,4,2,1,5,0,0
35786,-98.0392156862745,4,2,1,52,0,0
37036,-98.0392156862745,4,2,1,5,0,0
37120,-98.0392156862745,4,2,1,52,0,0
39703,-98.0392156862745,4,2,1,5,0,0
39786,-98.0392156862745,4,2,1,52,0,0
41036,-98.0392156862745,4,2,1,5,0,0
41120,-98.0392156862745,4,2,1,52,0,0
42370,-98.0392156862745,4,2,1,5,0,0
42453,-98.0392156862745,4,2,1,52,0,0
46036,-98.0392156862745,4,2,1,5,0,0
46120,-138.888888888889,4,2,1,42,0,0
50786,-138.888888888889,4,2,1,52,0,0
51453,-98.0392156862746,4,2,1,62,0,0
51703,-98.0392156862746,4,2,1,5,0,0
51786,-98.0392156862746,4,2,1,62,0,0
53036,-98.0392156862746,4,2,1,5,0,0
53120,-98.0392156862746,4,2,1,62,0,0
54120,-89.2857142857143,4,2,1,62,0,0
54870,-89.2857142857143,4,2,1,5,0,0
54953,-89.2857142857143,4,2,1,62,0,0
56453,-161.290322580645,4,2,1,62,0,0
56786,-89.2857142857143,4,2,1,72,0,1
57036,-89.2857142857143,4,2,1,5,0,1
57120,-89.2857142857143,4,2,1,72,0,1
58370,-89.2857142857143,4,2,1,5,0,1
58453,-89.2857142857143,4,2,1,72,0,1
59703,-89.2857142857143,4,2,1,5,0,1
59786,-89.2857142857143,4,2,1,72,0,1
61036,-89.2857142857143,4,2,1,5,0,1
61120,-89.2857142857143,4,2,1,72,0,1
62036,-89.2857142857143,4,2,1,5,0,1
62120,-89.2857142857143,4,2,1,72,0,1
62370,-89.2857142857143,4,2,1,5,0,1
62453,-89.2857142857143,4,2,1,72,0,1
63703,-89.2857142857143,4,2,1,5,0,1
63786,-89.2857142857143,4,2,1,72,0,1
64370,-89.2857142857143,4,2,1,5,0,1
64453,-89.2857142857143,4,2,1,72,0,1
64703,-89.2857142857143,4,2,1,5,0,1
64786,-81.9672131147541,4,2,1,72,0,1
65036,-81.9672131147541,4,2,1,5,0,1
65120,-81.9672131147541,4,2,1,72,0,1
66620,-81.9672131147541,4,2,1,82,0,1
66870,-81.9672131147541,4,2,1,5,0,1
66953,-81.9672131147541,4,2,1,72,0,0
67453,-81.9672131147541,4,2,1,72,0,1
67703,-81.9672131147541,4,2,1,5,0,1
67786,-81.9672131147541,4,2,1,72,0,1
69036,-81.9672131147541,4,2,1,5,0,1
69120,-81.9672131147541,4,2,1,72,0,1
70370,-81.9672131147541,4,2,1,5,0,1
70453,-81.9672131147541,4,2,1,72,0,1
71703,-81.9672131147541,4,2,1,5,0,1
71786,-81.9672131147541,4,2,1,72,0,1
72203,-81.9672131147541,4,2,1,5,0,1
72286,-81.9672131147541,4,2,1,72,0,1
72703,-81.9672131147541,4,2,1,5,0,1
72786,-121.951219512195,4,2,1,62,0,0
72870,-121.951219512195,4,2,1,52,0,0
74953,-121.951219512195,4,2,1,32,0,0
75120,-121.951219512195,4,2,1,52,0,0
75286,-121.951219512195,4,2,1,32,0,0
75453,-121.951219512195,4,2,1,42,0,0
76370,-121.951219512195,4,2,1,5,0,0
76453,-98.0392156862745,4,2,1,52,0,0
76786,-121.951219512195,4,2,1,52,0,0
77786,-121.951219512195,4,2,1,62,0,0
78036,-121.951219512195,4,2,1,5,0,0
78120,-81.9672131147541,4,2,1,72,0,1
79453,-81.9672131147541,4,2,1,72,0,0
79786,-81.9672131147541,4,2,1,72,0,1
80036,-81.9672131147541,4,2,1,5,0,1
80120,-81.9672131147541,4,2,1,72,0,1
80786,-81.9672131147541,4,2,1,72,0,0
91286,-108.695652173913,4,2,1,42,0,0
91703,-108.695652173913,4,2,1,5,0,0
91786,-108.695652173913,4,2,1,42,0,0
93036,-108.695652173913,4,2,1,5,0,0
93120,-108.695652173913,4,2,1,42,0,0
97036,-108.695652173913,4,2,1,5,0,0
97120,-108.695652173913,4,2,1,42,0,0
98370,-108.695652173913,4,2,1,5,0,0
98453,-108.695652173913,4,2,1,42,0,0
101453,-98.0392156862745,4,2,1,42,0,0
102120,-98.0392156862745,4,2,1,52,0,0
102370,-98.0392156862745,4,2,1,5,0,0
102453,-98.0392156862745,4,2,1,52,0,0
103703,-98.0392156862745,4,2,1,5,0,0
103786,-98.0392156862745,4,2,1,52,0,0
105036,-98.0392156862745,4,2,1,5,0,0
105120,-98.0392156862745,4,2,1,52,0,0
106370,-98.0392156862745,4,2,1,5,0,0
106453,-98.0392156862745,4,2,1,52,0,0
107370,-98.0392156862745,4,2,1,5,0,0
107453,-98.0392156862745,4,2,1,52,0,0
107703,-98.0392156862745,4,2,1,5,0,0
107786,-98.0392156862745,4,2,1,52,0,0
109036,-98.0392156862745,4,2,1,5,0,0
109120,-98.0392156862745,4,2,1,52,0,0
112703,-98.0392156862745,4,2,1,5,0,0
112786,-138.888888888889,4,2,1,42,0,0
118120,-98.0392156862745,4,2,1,52,0,0
118370,-98.0392156862745,4,2,1,5,0,0
118453,-98.0392156862745,4,2,1,52,0,0
119703,-98.0392156862745,4,2,1,5,0,0
119786,-98.0392156862745,4,2,1,52,0,0
120786,-89.2857142857143,4,2,1,62,0,0
121536,-89.2857142857143,4,2,1,5,0,0
121620,-89.2857142857143,4,2,1,62,0,0
123120,-161.290322580645,4,2,1,62,0,0
123453,-89.2857142857143,4,2,1,72,0,1
123703,-89.2857142857143,4,2,1,5,0,1
123787,-89.2857142857143,4,2,1,72,0,1
125037,-89.2857142857143,4,2,1,5,0,1
125120,-89.2857142857143,4,2,1,72,0,1
126370,-89.2857142857143,4,2,1,5,0,1
126453,-89.2857142857143,4,2,1,72,0,1
127703,-89.2857142857143,4,2,1,5,0,1
127787,-89.2857142857143,4,2,1,72,0,1
128703,-89.2857142857143,4,2,1,5,0,1
128787,-89.2857142857143,4,2,1,72,0,1
129037,-89.2857142857143,4,2,1,5,0,1
129120,-89.2857142857143,4,2,1,72,0,1
130370,-89.2857142857143,4,2,1,5,0,1
130453,-89.2857142857143,4,2,1,72,0,1
131037,-89.2857142857143,4,2,1,5,0,1
131120,-89.2857142857143,4,2,1,72,0,1
131370,-89.2857142857143,4,2,1,5,0,1
131453,-81.9672131147541,4,2,1,72,0,1
131703,-81.9672131147541,4,2,1,5,0,1
131787,-81.9672131147541,4,2,1,72,0,1
133287,-81.9672131147541,4,2,1,82,0,1
133537,-81.9672131147541,4,2,1,5,0,1
133620,-81.9672131147541,4,2,1,72,0,0
134120,-81.9672131147541,4,2,1,72,0,1
134370,-81.9672131147541,4,2,1,5,0,1
134453,-81.9672131147541,4,2,1,72,0,1
135703,-81.9672131147541,4,2,1,5,0,1
135787,-81.9672131147541,4,2,1,72,0,1
137037,-81.9672131147541,4,2,1,5,0,1
137120,-81.9672131147541,4,2,1,72,0,1
138370,-81.9672131147541,4,2,1,5,0,1
138453,-81.9672131147541,4,2,1,72,0,1
138870,-81.9672131147541,4,2,1,5,0,1
138953,-81.9672131147541,4,2,1,72,0,1
139370,-81.9672131147541,4,2,1,5,0,1
139453,-138.888888888889,4,2,1,52,0,0
143036,-138.888888888889,4,2,1,5,0,0
143120,-98.0392156862746,4,2,1,52,0,0
143370,-98.0392156862746,4,2,1,5,0,0
143453,-121.951219512195,4,2,1,52,0,0
144453,-121.951219512195,4,2,1,62,0,0
144703,-121.951219512195,4,2,1,5,0,0
144786,-81.9672131147541,4,2,1,72,0,1
146120,-81.9672131147541,4,2,1,72,0,0
146453,-81.9672131147541,4,2,1,72,0,1
146703,-81.9672131147541,4,2,1,5,0,1
146786,-81.9672131147541,4,2,1,72,0,1
147453,-81.9672131147541,4,2,1,62,0,0
147620,-81.9672131147541,4,2,1,52,0,0
147786,-75.7575757575758,4,2,1,72,0,1
148036,-75.7575757575758,4,2,1,5,0,1
148120,-75.7575757575758,4,2,1,72,0,0
148620,-75.7575757575758,4,2,1,72,0,1
148870,-75.7575757575758,4,2,1,5,0,1
148953,-75.7575757575758,4,2,1,72,0,1
149536,-75.7575757575758,4,2,1,5,0,1
149620,-75.7575757575758,4,2,1,72,0,1
149786,-161.290322580645,4,2,1,72,0,0
150036,-161.290322580645,4,2,1,5,0,0
150120,-89.2857142857143,4,2,1,72,0,1
150370,-89.2857142857143,4,2,1,5,0,1
150453,-89.2857142857143,4,2,1,72,0,1
153036,-89.2857142857143,4,2,1,5,0,1
153120,-89.2857142857143,4,2,1,72,0,1
156620,-81.9672131147541,4,2,1,72,0,1
156870,-81.9672131147541,4,2,1,5,0,1
156953,-81.9672131147541,4,2,1,72,0,1
157620,-81.9672131147541,4,2,1,62,0,1
157786,-81.9672131147541,4,2,1,52,0,1
157953,-81.9672131147541,4,2,1,62,0,1
158453,-81.9672131147541,4,2,1,72,0,0
158620,-75.7575757575758,4,2,1,82,0,1
158870,-75.7575757575758,4,2,1,5,0,0
158953,-75.7575757575758,4,2,1,72,0,1
159203,-75.7575757575758,4,2,1,72,0,0
159286,-89.2857142857143,4,2,1,72,0,1
159536,-89.2857142857143,4,2,1,5,0,1
159620,-89.2857142857143,4,2,1,72,0,1
160703,-89.2857142857143,4,2,1,72,0,0
160786,-89.2857142857143,4,2,1,72,0,1
161036,-89.2857142857143,4,2,1,5,0,1
161120,-89.2857142857143,4,2,1,72,0,1
162370,-89.2857142857143,4,2,1,72,0,1
162453,-89.2857142857143,4,2,1,72,0,1
163703,-89.2857142857143,4,2,1,5,0,1
163786,-89.2857142857143,4,2,1,72,0,1
165786,-121.951219512195,4,2,1,72,0,1
166036,-121.951219512195,4,2,1,5,0,1
166120,-89.2857142857143,4,2,1,72,0,1
168786,-89.2857142857143,4,2,1,82,0,1
169953,-89.2857142857143,4,2,1,92,0,1
170203,-89.2857142857143,4,2,1,92,0,1
170286,-89.2857142857143,4,2,1,92,0,1
171453,-89.2857142857143,4,2,1,72,0,0
182120,-108.695652173913,4,2,2,52,0,0
182370,-108.695652173913,4,2,2,5,0,0
182453,-108.695652173913,4,2,2,52,0,0
183703,-108.695652173913,4,2,2,5,0,0
183786,-108.695652173913,4,2,2,52,0,0
184703,-108.695652173913,4,2,2,5,0,0
184786,-108.695652173913,4,2,2,52,0,0
185036,-108.695652173913,4,2,2,5,0,0
185120,-108.695652173913,4,2,2,52,0,0
186203,-108.695652173913,4,2,2,5,0,0
186286,-108.695652173913,4,2,1,52,0,0
186703,-108.695652173913,4,2,1,5,0,0
186786,-108.695652173913,4,2,1,52,0,0
187286,-98.0392156862745,4,2,1,62,0,0
187536,-98.0392156862745,4,2,1,5,0,0
187620,-98.0392156862745,4,2,1,62,0,0
188036,-98.0392156862745,4,2,1,5,0,0
188120,-98.0392156862745,4,2,1,62,0,0
189953,-98.0392156862745,4,2,1,72,0,0
190203,-98.0392156862745,4,2,1,5,0,0
190286,-98.0392156862745,4,2,1,72,0,0
191536,-98.0392156862745,4,2,1,5,0,0
191620,-98.0392156862745,4,2,1,82,0,0
192786,-161.290322580645,4,2,1,62,0,1
192870,-161.290322580645,4,2,1,62,0,0
194120,-161.290322580645,4,2,1,62,0,1
194203,-161.290322580645,4,2,1,62,0,0
195453,-89.2857142857143,4,2,1,62,0,1
195703,-89.2857142857143,4,2,1,5,0,0
195786,-89.2857142857143,4,2,1,62,0,0
195953,-89.2857142857143,4,2,1,62,0,1
197786,-89.2857142857143,4,2,1,62,0,0
198120,-89.2857142857143,4,2,1,72,0,1
198370,-89.2857142857143,4,2,1,5,0,1
198453,-89.2857142857143,4,2,1,72,0,1
199036,-89.2857142857143,4,2,1,5,0,1
199120,-89.2857142857143,4,2,1,72,0,1
199370,-89.2857142857143,4,2,1,5,0,1
199453,-89.2857142857143,4,2,1,72,0,1
199703,-89.2857142857143,4,2,1,5,0,1
199786,-89.2857142857143,4,2,1,72,0,1
200703,-89.2857142857143,4,2,1,5,0,1
200786,-81.9672131147541,4,2,1,82,0,1
201036,-81.9672131147541,4,2,1,5,0,1
201120,-81.9672131147541,4,2,1,82,0,1
202370,-81.9672131147541,4,2,1,5,0,1
202453,-81.9672131147541,4,2,1,82,0,1
203120,-89.2857142857143,4,2,1,72,0,0
203453,-89.2857142857143,4,2,1,72,0,1
203703,-89.2857142857143,4,2,1,5,0,1
203786,-89.2857142857143,4,2,1,72,0,1
205036,-89.2857142857143,4,2,1,5,0,1
205120,-89.2857142857143,4,2,1,72,0,1
207453,-81.9672131147541,4,2,1,72,0,1
207703,-81.9672131147541,4,2,1,5,0,1
207786,-81.9672131147541,4,2,1,72,0,1
208203,-81.9672131147541,4,2,1,5,0,1
208286,-81.9672131147541,4,2,1,72,0,1
208786,-121.951219512195,4,2,1,62,0,0
208870,-121.951219512195,4,2,1,52,0,0
210953,-121.951219512195,4,2,1,32,0,0
211120,-121.951219512195,4,2,1,52,0,0
211286,-121.951219512195,4,2,1,32,0,0
211453,-121.951219512195,4,2,1,52,0,0
212370,-121.951219512195,4,2,1,5,0,0
212453,-98.0392156862745,4,2,1,62,0,0
212703,-98.0392156862745,4,2,1,5,0,0
212786,-121.951219512195,4,2,1,62,0,0
214036,-121.951219512195,4,2,1,5,0,0
214120,-121.951219512195,4,2,1,62,0,0
215453,-89.2857142857143,4,2,1,72,0,0
215786,-161.290322580645,4,2,1,32,0,0
216036,-161.290322580645,4,2,1,5,0,0
216120,-161.290322580645,4,2,1,32,0,0
216453,-192.307692307692,4,2,1,42,0,0
216703,-192.307692307692,4,2,1,5,0,0
216786,-98.0392156862745,4,2,1,62,0,0
226203,-98.0392156862745,4,2,1,5,0,0
226286,-98.0392156862745,4,2,1,62,0,0
227286,-98.0392156862745,4,2,1,32,0,0
227453,-98.0392156862745,4,2,1,52,0,0
228786,-98.0392156862745,4,2,1,52,0,0
230120,-98.0392156862745,4,2,1,42,0,0
231453,-98.0392156862745,4,2,1,32,0,0
232453,-98.0392156862745,4,2,1,22,0,0
232953,-98.0392156862745,4,2,1,12,0,0
233286,-98.0392156862745,4,2,1,5,0,0

[Colours]
Combo1 : 248,174,1
Combo2 : 109,183,46
Combo3 : 226,0,81
Combo4 : 119,127,189
Combo5 : 0,126,199
SliderTrackOverride : 0,0,15
SliderBorder : 255,255,248

[HitObjects]
187,56,787,38,0,P|184:127|172:179,1,112.839995523316,2|2,0:0|0:0,0:0:0:0:
268,105,1286,2,0,B|322:82|322:127|386:106,1,112.839995523316,2|2,0:0|0:0,0:0:0:0:
446,42,1786,2,0,P|468:77|469:116,1,56.4199977616578,2|2,0:0|0:0,0:0:0:0:
430,269,2120,6,0,P|385:264|309:229,1,112.839995523316,2|2,0:0|0:0,0:0:0:0:
344,337,2620,2,0,L|216:320,1,112.839995523316,2|2,0:0|0:0,0:0:0:0:
141,342,3120,1,2,0:0:0:0:
141,342,3286,1,2,0:0:0:0:
171,189,3453,54,0,P|164:131|158:113,2,56.4199977616578,2|0|0,0:0|0:0|0:0,0:0:0:0:
84,175,3953,1,0,0:0:0:0:
112,73,4120,2,0,P|145:55|219:81,1,112.839995523316,2|2,0:0|0:0,0:0:0:0:
373,304,4786,6,0,B|389:248|344:248|371:181,1,112.839995523316,2|2,0:0|0:0,0:0:0:0:
442,100,5286,2,0,L|320:94,1,112.839995523316,2|2,0:0|0:0,0:0:0:0:
245,129,5786,1,2,0:0:0:0:
68,302,6120,54,0,P|119:307|172:266,1,112.839995523316,2|0,0:0|0:0,0:0:0:0:
100,220,6620,1,0,0:0:0:0:
129,136,6786,2,0,L|134:72,1,56.4199977616578,2|0,0:0|0:0,0:0:0:0:
245,129,7120,2,0,L|249:185,1,56.4199977616578,2|0,0:0|0:0,0:0:0:0:
198,270,7453,6,0,P|254:282|321:249,1,112.839995523316,2|2,0:0|0:0,0:0:0:0:
388,56,7953,1,0,1:0:0:0:
397,303,8120,2,0,B|432:220|354:220|399:123,1,165.619998989136,14|0,0:0|0:0,0:0:0:0:
397,303,8786,37,6,1:0:0:0:
397,303,9120,1,8,0:0:0:0:
148,144,9286,1,10,0:0:0:0:
471,173,9453,1,8,0:0:0:0:
150,120,9620,1,8,0:0:0:0:
389,320,9786,1,8,0:0:0:0:
342,19,9953,1,8,0:0:0:0:
271,279,10120,6,0,B|210:273|210:273|157:292|157:292|75:281,1,185.640001133057,4|0,1:0|0:0,0:0:0:0:
335,60,10620,2,0,P|369:120|295:194,1,185.640001133057,4|0,1:0|0:0,0:0:0:0:
130,43,11120,2,0,P|72:50|39:84,1,92.8200005665283,6|0,1:0|0:0,0:0:0:0:
89,282,11453,53,4,1:0:0:0:
89,282,11786,1,8,0:0:0:0:
236,39,11953,1,10,0:0:0:0:
292,348,12120,1,10,0:0:0:0:
232,26,12286,1,8,0:0:0:0:
81,296,12453,1,8,0:0:0:0:
300,108,12620,1,8,0:0:0:0:
346,104,12703,1,8,0:0:0:0:
392,101,12786,5,4,1:0:0:0:
392,101,13953,2,0,L|400:162,1,46.4100002832642,8|8,0:0|0:0,0:0:0:0:
345,321,14120,37,4,1:0:0:0:
265,108,14286,1,2,0:0:0:0:
452,230,14453,1,8,0:0:0:0:
212,324,14620,1,2,0:0:0:0:
341,47,14786,2,0,P|361:112|358:155,1,92.8200005665283,2|0,1:0|0:0,0:0:0:0:
345,321,15120,2,0,P|348:274|364:231,1,92.8200005665283,10|0,0:0|0:0,0:0:0:0:
191,58,15453,54,0,B|147:152|235:151|188:255,1,185.640001133057,2|8,1:0|0:0,0:0:0:0:
265,108,15953,1,2,0:0:0:0:
113,202,16120,2,0,L|17:190,1,92.8200005665283,2|0,1:0|0:0,0:0:0:0:
265,108,16453,2,0,L|361:96,1,92.8200005665283,10|0,0:0|0:0,0:0:0:0:
300,261,16786,5,2,1:0:0:0:
292,21,16953,1,2,0:0:0:0:
394,250,17120,1,10,0:0:0:0:
195,46,17286,1,0,1:0:0:0:
213,276,17453,1,2,0:0:0:0:
265,108,17620,1,0,1:0:0:0:
322,342,17786,1,10,0:0:0:0:
357,96,17953,54,0,P|423:90|460:88,1,92.8200005665283,2|0,1:0|0:0,0:0:0:0:
421,168,18286,1,2,1:0:0:0:
265,108,18453,2,0,P|199:102|162:100,1,92.8200005665283,10|0,0:0|0:0,0:0:0:0:
43,236,18786,1,2,1:0:0:0:
242,191,18953,1,2,0:0:0:0:
65,152,19120,1,10,0:0:0:0:
213,276,19286,1,2,0:0:0:0:
84,66,19453,5,6,1:0:0:0:
129,258,19620,1,2,0:0:0:0:
173,87,19786,1,10,0:0:0:0:
213,276,19953,1,0,0:0:0:0:
265,108,20120,1,2,1:0:0:0:
299,297,20286,1,0,0:0:0:0:
151,172,20453,1,10,0:0:0:0:
357,132,20620,1,2,0:0:0:0:
230,362,20786,54,0,P|176:359|142:323,1,92.8200005665283,0|0,1:0|0:0,0:0:0:0:
265,108,21120,1,10,0:0:0:0:
213,276,21286,2,0,B|233:134|233:134|275:99,1,185.640001133057,2|2,1:0|1:0,0:0:0:0:
230,362,21786,1,8,0:0:0:0:
151,172,21953,6,0,B|254:153|222:236|355:203,1,185.640001133057,6|2,1:0|1:0,0:0:0:0:
442,42,22453,1,10,0:0:0:0:
500,212,22620,1,2,0:0:0:0:
296,121,22786,1,2,1:0:0:0:
413,360,22953,1,2,0:0:0:0:
427,54,23120,1,10,0:0:0:0:
253,281,23286,54,0,B|182:257|188:324|85:288,1,139.230000849792,6|0,1:0|0:0,0:0:0:0:
78,281,23620,1,10,0:0:0:0:
230,362,23786,1,0,0:0:0:0:
166,129,23953,1,8,3:0:0:0:
151,172,24036,1,8,3:0:0:0:
147,218,24119,1,4,3:0:0:0:
229,62,24286,1,4,3:0:0:0:
253,281,24453,2,0,L|357:271,1,92.8200005665283,2|2,3:0|0:0,0:0:0:0:
448,192,24786,38,0,P|393:191|342:136,1,111.930001707916,14|0,1:2|0:0,0:0:0:0:
337,119,25120,1,10,0:0:0:0:
439,40,25286,2,0,B|443:68|443:68|420:125,1,74.6200011386109,2|8,0:0|0:0,0:0:0:0:
312,252,25620,1,2,0:0:0:0:
350,34,25786,1,10,0:0:0:0:
390,217,25953,1,2,1:0:0:0:
231,79,26120,6,0,B|148:58|148:58|120:75,1,111.930001707916,10|0,1:2|0:0,0:0:0:0:
96,97,26453,1,10,0:0:0:0:
226,157,26620,2,0,L|233:256,1,74.6200011386109,2|8,0:0|0:0,0:0:0:0:
64,201,26953,2,0,L|68:114,1,74.6200011386109,2|8,0:0|0:0,0:0:0:0:
173,34,27286,1,2,0:0:0:0:
182,232,27453,54,0,P|241:244|313:159,1,149.240002277222,10|8,1:2|0:0,0:0:0:0:
273,81,27953,1,0,0:0:0:0:
230,157,28120,2,0,L|324:171,1,74.6200011386109,8|2,0:0|0:0,0:0:0:0:
361,93,28453,1,10,0:0:0:0:
378,282,28620,1,0,1:0:0:0:
439,113,28786,6,0,B|446:108|443:80|443:80|470:153|414:152|441:211,1,149.240002277222,8|8,1:2|0:0,0:0:0:0:
425,353,29286,2,0,P|373:372|337:357,1,74.6200011386109,0|8,0:0|0:0,0:0:0:0:
288,285,29620,1,0,0:0:0:0:
329,201,29786,1,8,0:0:0:0:
378,282,29953,1,2,0:0:0:0:
215,357,30120,54,0,L|73:341,1,111.930001707916,10|0,1:2|0:0,0:0:0:0:
65,338,30453,1,10,0:0:0:0:
190,188,30620,2,0,L|188:284,2,74.6200011386109,2|8|0,0:0|0:0|0:0,0:0:0:0:
169,85,31120,1,8,0:0:0:0:
102,246,31286,1,2,1:0:0:0:
298,121,31453,6,0,B|364:111|340:157|418:141,1,111.930001707916,10|0,1:2|0:0,0:0:0:0:
445,125,31786,1,10,0:0:0:0:
294,207,31953,2,0,P|291:261|307:301,1,74.6200011386109,2|8,0:0|0:0,0:0:0:0:
469,232,32286,2,0,P|483:189|480:152,1,74.6200011386109,2|8,0:0|0:0,0:0:0:0:
294,207,32786,54,0,B|154:202,1,111.930001707916,10|0,1:2|0:0,0:0:0:0:
140,201,33120,1,10,0:0:0:0:
196,40,33286,2,0,P|223:93|222:123,1,74.6200011386109,2|8,0:0|0:0,0:0:0:0:
49,171,33620,2,0,P|82:124|118:116,1,74.6200011386109,2|8,0:0|0:0,0:0:0:0:
198,225,33953,1,0,0:0:0:0:
342,55,34120,21,2,1:2:0:0:
289,347,34453,2,0,B|163:353|163:353|171:318,1,152.880001866211,8|0,0:0|0:0,0:0:0:0:
177,292,34786,1,2,0:0:0:0:
259,13,34953,21,8,0:0:0:0:
238,59,35036,1,8,0:0:0:0:
247,108,35120,1,8,0:0:0:0:
274,151,35203,1,0,1:0:0:0:
296,197,35286,1,8,0:0:0:0:
299,247,35369,1,0,1:0:0:0:
274,291,35453,38,0,B|231:302|231:302|175:288|175:288|119:306,1,139.230000849792,6|0,1:0|0:0,0:0:0:0:
99,313,35786,1,10,0:0:0:0:
140,115,35953,2,0,P|162:185|164:215,1,92.8200005665283,2|0,0:0|1:0,0:0:0:0:
63,328,36286,1,0,1:0:0:0:
77,181,36453,1,10,0:0:0:0:
139,299,36620,1,2,1:0:0:0:
230,130,36786,54,0,B|340:114|340:114|369:142,1,139.230000849792,2|0,1:0|0:0,0:0:0:0:
378,161,37120,1,10,0:0:0:0:
275,41,37286,1,2,0:0:0:0:
296,210,37453,1,0,1:0:0:0:
456,114,37620,1,2,1:0:0:0:
366,283,37786,1,8,0:0:0:0:
378,161,37953,1,2,0:0:0:0:
452,311,38120,6,0,P|411:360|289:330,2,185.640001133057,2|8|0,1:0|0:0|1:0,0:0:0:0:
378,161,38953,1,2,1:0:0:0:
366,283,39120,1,10,0:0:0:0:
460,197,39286,1,2,1:0:0:0:
304,215,39453,54,0,B|255:211|255:211|213:232|213:232|134:230,1,139.230000849792,0|0,1:0|0:0,0:0:0:0:
128,228,39786,2,0,P|49:207|32:192,1,92.8200005665283,8|0,0:0|0:0,0:0:0:0:
147,36,40120,1,2,1:0:0:0:
187,150,40286,1,0,1:0:0:0:
45,114,40453,2,0,P|85:91|131:87,1,92.8200005665283,10|0,0:0|0:0,0:0:0:0:
198,293,40786,6,0,P|132:289|143:213,1,139.230000849792,2|0,1:0|0:0,0:0:0:0:
155,187,41120,1,10,0:0:0:0:
291,288,41286,2,0,P|273:354|242:375,1,92.8200005665283,2|0,0:0|1:0,0:0:0:0:
198,293,41620,1,2,1:0:0:0:
273,148,41786,2,0,L|367:141,1,92.8200005665283,10|0,0:0|0:0,0:0:0:0:
460,333,42120,54,0,P|440:274|452:171,1,139.230000849792,2|0,1:0|0:0,0:0:0:0:
457,156,42453,1,10,0:0:0:0:
368,322,42620,2,0,P|312:313|285:269,1,92.8200005665283,2|0,0:0|1:0,0:0:0:0:
338,73,42953,1,2,1:0:0:0:
358,240,43120,1,10,0:0:0:0:
457,156,43286,1,2,1:0:0:0:
276,147,43453,6,0,P|209:152|164:165,1,92.8200005665283,0|0,1:0|0:0,0:0:0:0:
328,335,43786,2,0,P|395:330|440:317,1,92.8200005665283,8|0,0:0|0:0,0:0:0:0:
368,85,44120,2,0,P|364:149|366:216,1,92.8200005665283,0|0,1:0|1:0,0:0:0:0:
236,349,44453,2,0,P|235:302|232:256,1,92.8200005665283,8|0,0:0|0:0,0:0:0:0:
112,60,44786,53,0,1:0:0:0:
102,273,44953,1,8,0:0:0:0:
161,163,45120,1,2,0:0:0:0:
205,245,45286,1,0,1:0:0:0:
205,245,45370,1,0,1:0:0:0:
205,245,45453,1,10,0:0:0:0:
120,77,45620,1,8,3:0:0:0:
121,293,45786,2,0,P|167:336|251:331,1,139.230000849792,2|0,1:0|0:0,0:0:0:0:
279,303,46120,54,0,B|346:271|351:335|430:294,1,131.040003199219,6|2,1:0|0:0,0:0:0:0:
452,147,46620,1,2,1:0:0:0:
496,223,46786,2,0,P|449:235|376:189,1,131.040003199219,8|0,0:0|0:0,0:0:0:0:
418,64,47286,1,8,0:0:0:0:
372,220,47453,5,2,1:0:0:0:
406,39,47620,1,8,0:0:0:0:
452,147,47786,1,2,0:0:0:0:
397,22,47953,1,2,1:0:0:0:
347,204,48120,2,0,P|297:206|207:197,1,131.040003199219,8|0,0:0|0:0,0:0:0:0:
119,81,48620,1,8,0:0:0:0:
155,79,48703,1,8,0:0:0:0:
193,79,48786,54,0,P|219:114|209:209,1,131.040003199219,2|2,1:0|0:0,0:0:0:0:
124,331,49286,1,2,1:0:0:0:
87,249,49453,2,0,P|131:243|165:251,1,65.5200015996094,8|2,0:0|0:0,0:0:0:0:
212,319,49786,1,2,0:0:0:0:
280,200,49953,2,0,P|236:194|202:202,1,65.5200015996094,10|0,0:0|1:0,0:0:0:0:
90,81,50286,2,0,P|134:75|168:83,1,65.5200015996094,8|0,0:0|1:0,0:0:0:0:
205,161,50620,1,0,0:0:0:0:
30,169,50786,5,10,0:0:0:0:
233,75,50953,1,0,1:0:0:0:
16,32,51120,1,10,0:0:0:0:
205,161,51286,1,8,0:0:0:0:
255,164,51370,1,8,0:0:0:0:
296,141,51453,22,0,P|362:123|442:142,1,139.230000849792,6|0,1:0|0:0,0:0:0:0:
461,159,51786,1,10,0:0:0:0:
224,249,51953,2,0,P|171:247|139:208,1,92.8200005665283,0|2,1:0|0:0,0:0:0:0:
198,68,52286,1,2,1:0:0:0:
198,68,52370,1,2,0:0:0:0:
198,68,52453,2,0,L|205:169,1,92.8200005665283,10|0,0:0|0:0,0:0:0:0:
71,275,52786,54,0,B|37:209|96:198|62:113,1,139.230000849792,2|0,1:0|0:0,0:0:0:0:
54,109,53120,1,8,0:0:0:0:
147,230,53286,2,0,L|251:218,1,92.8200005665283,0|2,1:0|0:0,0:0:0:0:
403,57,53620,1,2,1:0:0:0:
403,57,53703,1,2,0:0:0:0:
403,57,53786,2,0,L|290:67,1,92.8200005665283,8|0,0:0|0:0,0:0:0:0:
316,259,54120,6,0,B|365:156|251:166|322:45,1,203.840002488281,6|8,1:0|0:0,0:0:0:0:
406,284,54620,2,0,P|364:342|268:333,1,152.880001866211,4|0,1:0|0:0,0:0:0:0:
250,322,54953,1,0,1:0:0:0:
393,111,55120,1,8,0:0:0:0:
241,212,55286,2,0,L|168:205,1,50.9600006220703,0|0,1:0|1:0,0:0:0:0:
320,41,55453,53,8,0:0:0:0:
407,251,55620,1,8,3:0:0:0:
192,117,55786,1,8,0:0:0:0:
152,125,55869,1,8,3:0:0:0:
120,150,55952,1,8,3:0:0:0:
102,186,56036,1,8,3:0:0:0:
101,227,56119,1,4,3:0:0:0:
101,227,56453,38,0,L|167:234,1,56.4199977616578,0|0,3:0|3:0,3:0:0:0:
372,310,56786,54,0,P|293:311|240:236,1,152.880001866211,6|0,1:0|0:0,0:0:0:0:
241,212,57120,1,10,0:0:0:0:
333,48,57286,1,2,0:0:0:0:
335,227,57453,1,0,1:0:0:0:
235,32,57620,1,2,0:0:0:0:
182,288,57786,1,10,0:0:0:0:
271,114,57953,1,2,0:0:0:0:
319,325,58120,38,0,P|373:321|429:231,1,152.880001866211,6|0,1:0|0:0,0:0:0:0:
427,198,58453,1,10,0:0:0:0:
228,285,58620,2,0,P|167:272|122:241,1,101.920001244141,2|0,0:0|1:0,0:0:0:0:
116,47,58953,1,2,0:0:0:0:
208,190,59120,1,10,0:0:0:0:
31,250,59286,1,2,0:0:0:0:
204,88,59453,6,0,B|277:62|279:127|375:85,1,152.880001866211,6|0,1:0|0:0,0:0:0:0:
384,69,59786,1,8,0:0:0:0:
234,173,59953,2,0,P|220:248|223:303,1,101.920001244141,2|0,0:0|1:0,0:0:0:0:
315,16,60286,1,2,0:0:0:0:
303,243,60453,1,10,0:0:0:0:
315,16,60620,1,2,0:0:0:0:
222,291,60786,6,0,B|98:310|98:310|117:262,1,152.880001866211,6|0,1:0|0:0,0:0:0:0:
124,246,61120,1,10,0:0:0:0:
231,52,61286,1,2,0:0:0:0:
303,243,61453,1,0,1:0:0:0:
140,203,61620,1,0,1:0:0:0:
311,92,61786,38,0,P|368:68|362:152,1,152.880001866211,10|0,0:0|0:0,0:0:0:0:
308,105,62120,2,0,B|230:75|231:148|139:101,1,152.880001866211,6|0,1:0|0:0,0:0:0:0:
128,76,62453,2,0,P|74:70|26:89,1,101.920001244141,8|0,0:0|0:0,0:0:0:0:
87,258,62786,2,0,P|99:205|86:155,1,101.920001244141,2|0,1:0|0:0,0:0:0:0:
45,341,63120,2,0,P|99:347|147:328,1,101.920001244141,10|0,0:0|0:0,0:0:0:0:
313,207,63453,6,0,P|235:176|172:225,1,152.880001866211,6|0,1:0|0:0,0:0:0:0:
202,253,63786,2,0,P|249:271|297:249,1,101.920001244141,10|0,0:0|0:0,0:0:0:0:
248,59,64120,2,0,B|251:185|251:185|273:148,1,152.880001866211,2|0,1:0|0:0,0:0:0:0:
284,127,64453,2,0,B|351:93|360:161|440:116,1,152.880001866211,10|0,0:0|0:0,0:0:0:0:
472,55,64786,6,0,L|489:268,1,166.529993139176,6|0,0:0|0:0,0:0:0:0:
489,265,65120,1,8,0:0:0:0:
386,44,65286,1,6,1:0:0:0:
362,235,65453,1,10,3:0:0:0:
395,136,65620,1,0,1:0:0:0:
425,316,65786,1,8,0:0:0:0:
448,214,65953,1,6,3:0:0:0:
213,326,66120,38,0,B|132:316|130:367|33:342|33:342|97:283,1,222.039990852234,6|10,1:0|0:0,0:0:0:0:
186,42,66620,2,0,P|229:108|233:210,1,166.529993139176,6|0,1:0|0:0,0:0:0:0:
170,247,66953,2,0,P|134:246|114:234,1,55.5099977130586,8|0,3:0|1:0,0:0:0:0:
75,81,67120,1,8,0:0:0:0:
116,86,67203,1,8,0:0:0:0:
145,110,67286,2,0,P|163:142|165:183,1,55.5099977130586,8|4,3:0|3:0,0:0:0:0:
87,313,67453,6,0,P|38:257|77:164,1,166.529993139176,6|0,1:0|0:0,0:0:0:0:
84,162,67786,1,8,0:0:0:0:
351,287,67953,1,2,0:0:0:0:
170,247,68120,1,0,1:0:0:0:
376,139,68286,1,2,0:0:0:0:
166,160,68453,1,10,0:0:0:0:
376,303,68620,1,2,0:0:0:0:
273,31,68786,6,0,B|289:93|289:93|271:134|271:134|280:197,1,166.529993139176,6|0,1:0|0:0,0:0:0:0:
288,224,69120,1,10,0:0:0:0:
100,91,69286,2,0,P|173:69|216:89,1,111.019995426117,2|0,0:0|1:0,0:0:0:0:
362,158,69620,1,2,0:0:0:0:
158,163,69786,2,0,L|151:284,1,111.019995426117,10|0,0:0|0:0,0:0:0:0:
445,191,70120,38,0,P|439:111|345:71,1,166.529993139176,6|0,1:0|0:0,0:0:0:0:
328,80,70453,2,0,L|211:87,1,111.019995426117,8|0,0:0|0:0,0:0:0:0:
151,273,70786,2,0,L|268:280,1,111.019995426117,2|0,1:0|0:0,0:0:0:0:
136,37,71120,2,0,P|119:105|159:159,1,111.019995426117,10|0,0:0|0:0,0:0:0:0:
341,339,71453,6,0,P|361:267|294:189,1,166.529993139176,6|0,1:0|0:0,0:0:0:0:
269,184,71786,1,10,0:0:0:0:
99,361,71953,2,0,P|170:374|245:304,1,166.529993139176,6|0,1:0|0:0,0:0:0:0:
261,279,72286,1,2,1:0:0:0:
136,37,72453,2,0,P|109:121|173:183,1,166.529993139176,10|0,0:0|0:0,0:0:0:0:
188,101,72786,6,0,B|230:87|230:87|281:94|281:94|338:70,1,149.240002277222,4|0,1:0|0:0,0:0:0:0:
412,24,73286,1,0,1:0:0:0:
337,167,73453,2,0,L|354:325,1,149.240002277222,10|2,0:0|0:0,0:0:0:0:
123,174,74120,1,2,1:0:0:0:
188,101,74286,2,0,P|216:144|181:253,1,149.240002277222,8|0,0:0|1:0,0:0:0:0:
77,330,74786,2,0,P|131:305|162:304,1,74.6200011386109,10|0,0:0|0:0,0:0:0:0:
267,262,75120,2,0,P|213:237|182:236,1,74.6200011386109,2|0,0:0|0:0,0:0:0:0:
348,297,75453,38,0,B|378:227|314:229|351:131,1,149.240002277222,2|0,1:0|0:0,0:0:0:0:
400,68,75953,1,2,1:0:0:0:
507,201,76120,2,0,P|445:215|416:170,1,111.930001707916,10|0,0:0|0:0,0:0:0:0:
420,134,76453,2,0,P|476:108|519:181,1,139.230000849792,12|0,0:0|0:0,0:0:0:0:
507,201,76786,5,8,0:0:0:0:
348,297,76953,1,0,1:0:0:0:
400,68,77120,1,0,1:0:0:0:
437,328,77286,2,0,P|435:270|421:227,1,74.6200011386109,8|0,3:0|0:0,0:0:0:0:
310,70,77620,1,0,1:0:0:0:
254,333,77786,2,0,P|256:275|282:199,1,111.930001707916,10|0,0:0|0:0,0:0:0:0:
289,188,78120,5,6,1:0:0:0:
289,188,78453,1,8,0:0:0:0:
61,326,78620,1,10,0:0:0:0:
365,282,78786,1,8,0:0:0:0:
121,95,78953,1,8,0:0:0:0:
413,41,79120,2,0,P|427:110|425:127,1,55.5099977130586,8|8,0:0|0:0,0:0:0:0:
262,296,79286,2,0,P|266:268|275:242,1,55.5099977130586,4|4,3:0|3:0,0:0:0:0:
330,78,79453,1,0,1:0:0:0:
330,78,79786,38,0,B|238:45|257:139|125:94,1,166.529993139176,14|0,0:0|0:0,0:0:0:0:
121,95,80120,1,6,3:0:0:0:
300,163,80286,1,2,1:0:0:0:
87,302,80453,1,10,0:0:0:0:
194,39,80620,1,8,0:0:0:0:
212,90,80703,1,8,0:0:0:0:
199,143,80786,5,6,1:0:0:0:
255,191,91286,21,2,0:0:0:0:
255,191,91453,2,0,B|322:168|307:228|414:185,1,125.579995784363,6|0,1:0|0:0,0:0:0:0:
409,183,91786,1,2,1:0:0:0:
387,32,91953,2,0,P|356:102|352:123,1,83.7199971895753,2|0,0:0|1:0,0:0:0:0:
377,197,92286,1,2,0:0:0:0:
447,99,92453,1,2,1:0:0:0:
447,99,92620,1,2,0:0:0:0:
267,117,92786,6,0,L|108:98,1,125.579995784363,2|0,1:0|0:0,0:0:0:0:
102,95,93120,1,2,1:0:0:0:
253,25,93286,1,2,0:0:0:0:
266,117,93453,1,0,1:0:0:0:
89,187,93620,1,2,0:0:0:0:
102,95,93787,1,0,1:0:0:0:
283,208,93953,1,2,0:0:0:0:
133,271,94120,54,0,P|77:284|0:197,2,167.439994379151,2|0|0,1:0|1:0|1:0,0:0:0:0:
189,192,94953,1,2,0:0:0:0:
259,309,95120,1,2,1:0:0:0:
241,113,95286,1,2,0:0:0:0:
350,271,95453,6,0,P|270:270|167:233,1,167.439994379151,0|0,1:0|1:0,0:0:0:0:
399,187,95953,2,0,P|430:231|446:269,1,83.7199971895753,0|0,0:0|1:0,0:0:0:0:
413,100,96286,1,0,0:0:0:0:
350,271,96453,1,0,1:0:0:0:
320,104,96620,1,2,0:0:0:0:
269,308,96786,54,0,B|240:246|290:246|248:163,1,125.579995784363,2|0,1:0|0:0,0:0:0:0:
238,155,97120,1,2,1:0:0:0:
103,247,97286,2,0,P|150:238|194:222,1,83.7199971895753,2|0,0:0|1:0,0:0:0:0:
104,159,97620,1,0,0:0:0:0:
102,332,97786,1,0,1:0:0:0:
16,232,97953,1,2,0:0:0:0:
199,312,98120,6,0,L|345:294,1,125.579995784363,2|0,1:0|0:0,0:0:0:0:
363,290,98453,1,2,1:0:0:0:
213,219,98620,1,2,0:0:0:0:
324,77,98786,1,0,1:0:0:0:
325,210,98953,1,2,0:0:0:0:
154,109,99120,1,0,1:0:0:0:
118,225,99286,1,0,0:0:0:0:
418,56,99453,53,6,1:0:0:0:
84,330,100786,21,2,1:0:0:0:
466,183,101120,1,12,0:0:0:0:
84,36,101453,1,0,1:0:0:0:
247,24,101620,21,8,0:0:0:0:
248,65,101703,1,0,1:0:0:0:
250,107,101786,1,8,0:0:0:0:
251,149,101869,1,8,0:0:0:0:
253,190,101953,1,10,0:0:0:0:
254,232,102036,1,8,0:0:0:0:
257,278,102120,38,0,P|305:238|391:266,1,139.230000849792,6|0,1:0|0:0,0:0:0:0:
405,281,102453,1,10,0:0:0:0:
251,149,102620,2,0,L|255:257,1,92.8200005665283,2|0,1:0|1:0,1:0:0:0:
159,103,102953,1,2,1:0:0:0:
256,320,103120,1,8,0:0:0:0:
249,114,103286,1,2,1:0:0:0:
86,350,103453,54,0,P|74:288|71:188,1,139.230000849792,2|0,1:0|0:0,0:0:0:0:
76,181,103786,1,10,0:0:0:0:
282,313,103953,2,0,P|223:308|159:281,1,92.8200005665283,2|0,1:0|1:0,0:0:0:0:
143,98,104286,1,2,1:0:0:0:
251,223,104453,1,8,0:0:0:0:
63,249,104620,1,2,0:0:0:0:
222,138,104786,6,0,B|275:132|275:132|310:148|310:148|368:143,1,139.230000849792,2|0,1:0|0:0,0:0:0:0:
399,138,105120,1,8,0:0:0:0:
244,233,105286,1,0,0:0:0:0:
332,57,105453,1,0,1:0:0:0:
380,231,105620,1,2,1:0:0:0:
202,131,105786,1,10,0:0:0:0:
344,46,105953,1,2,1:0:0:0:
223,224,106120,54,0,P|165:221|112:135,1,139.230000849792,0|0,1:0|0:0,0:0:0:0:
111,118,106453,1,8,0:0:0:0:
288,143,106620,1,0,0:0:0:0:
151,296,106786,1,2,1:0:0:0:
202,131,106953,1,0,1:0:0:0:
253,314,107120,2,0,P|321:308|395:296,1,139.230000849792,10|0,0:0|0:0,0:0:0:0:
463,259,107453,6,0,P|414:272|338:200,1,139.230000849792,2|0,1:0|0:0,0:0:0:0:
332,183,107786,1,10,0:0:0:0:
415,32,107953,2,0,P|424:101|426:151,1,92.8200005665283,2|0,0:0|1:0,0:0:0:0:
287,284,108286,1,2,1:0:0:0:
245,105,108453,2,0,P|324:91|357:89,1,92.8200005665283,10|0,0:0|0:0,0:0:0:0:
352,343,108786,54,0,P|276:371|204:320,1,139.230000849792,2|0,1:0|0:0,0:0:0:0:
191,327,109120,1,10,0:0:0:0:
117,135,109286,1,2,0:0:0:0:
306,181,109453,1,0,1:0:0:0:
93,337,109620,1,2,1:0:0:0:
287,284,109786,1,10,0:0:0:0:
105,125,109953,1,2,1:0:0:0:
365,336,110120,6,0,B|412:242|323:246|379:149,2,185.640001133057,0|8|0,1:0|0:0|1:0,0:0:0:0:
328,69,110953,1,0,1:0:0:0:
282,294,111120,1,8,0:0:0:0:
450,207,111286,1,0,1:0:0:0:
202,118,111453,53,0,1:0:0:0:
315,377,111620,1,8,0:0:0:0:
338,192,111786,1,2,0:0:0:0:
171,333,111953,1,0,1:0:0:0:
132,325,112036,1,8,0:0:0:0:
98,317,112120,1,10,0:0:0:0:
330,279,112286,1,8,3:0:0:0:
21,255,112453,2,0,P|79:233|163:246,1,139.230000849792,4|0,0:3|0:0,0:0:0:0:
226,320,112786,54,0,B|173:335|173:335|70:310,1,131.040003199219,6|2,1:0|0:0,0:0:0:0:
225,192,113286,1,2,1:0:0:0:
269,268,113452,2,0,P|222:280|149:234,1,131.040003199219,8|0,0:0|0:0,0:0:0:0:
315,112,113952,1,8,0:0:0:0:
269,268,114119,5,2,1:0:0:0:
303,87,114286,1,8,0:0:0:0:
349,195,114452,1,2,0:0:0:0:
294,70,114619,1,2,1:0:0:0:
225,192,114786,2,0,P|175:194|85:185,1,131.040003199219,8|0,0:0|0:0,0:0:0:0:
1,79,115286,1,8,0:0:0:0:
37,64,115369,1,8,0:0:0:0:
77,64,115452,54,0,B|103:99|103:99|93:194,1,131.040003199219,2|2,1:0|0:0,0:0:0:0:
37,353,115952,1,2,1:0:0:0:
82,270,116119,2,0,P|126:264|160:272,1,65.5200015996094,8|2,0:0|0:0,0:0:0:0:
297,340,116452,1,2,0:0:0:0:
333,251,116619,2,0,P|289:245|255:253,1,65.5200015996094,10|0,0:0|1:0,0:0:0:0:
110,178,116953,2,0,P|154:172|188:180,1,65.5200015996094,8|0,0:0|1:0,0:0:0:0:
269,249,117286,1,0,0:0:0:0:
46,290,117453,5,10,0:0:0:0:
254,124,117620,1,0,1:0:0:0:
147,266,117787,1,10,0:0:0:0:
206,49,117953,1,8,0:0:0:0:
252,34,118037,1,8,0:0:0:0:
298,42,118120,22,0,P|335:76|342:172,1,139.230000849792,6|0,1:0|0:0,0:0:0:0:
339,197,118453,1,10,0:0:0:0:
177,71,118620,2,0,P|158:112|171:156,1,92.8200005665283,0|2,1:0|0:0,0:0:0:0:
351,43,118953,1,2,1:0:0:0:
351,43,119037,1,2,0:0:0:0:
351,43,119120,2,0,P|363:87|355:132,1,92.8200005665283,10|0,0:0|0:0,0:0:0:0:
265,264,119453,54,0,B|299:198|240:187|274:102,1,139.230000849792,2|0,1:0|0:0,0:0:0:0:
278,93,119787,1,8,0:0:0:0:
194,224,119953,2,0,P|143:232|98:238,1,92.8200005665283,0|2,1:0|0:0,0:0:0:0:
189,66,120287,1,2,1:0:0:0:
189,66,120370,1,2,0:0:0:0:
189,66,120453,2,0,P|239:76|277:93,1,92.8200005665283,8|0,0:0|0:0,0:0:0:0:
276,287,120787,6,0,B|291:213|291:213|263:148|263:148|285:55,1,203.840002488281,6|8,1:0|0:0,0:0:0:0:
358,307,121287,2,0,P|316:365|220:356,1,152.880001866211,4|0,1:0|0:0,0:0:0:0:
349,140,121620,1,0,1:0:0:0:
198,233,121787,1,8,0:0:0:0:
264,47,121953,2,0,L|280:105,1,50.9600006220703,0|0,1:0|1:0,0:0:0:0:
276,287,122120,53,8,0:0:0:0:
390,63,122287,1,8,3:0:0:0:
361,246,122453,1,8,0:0:0:0:
340,209,122536,1,8,3:0:0:0:
305,188,122619,1,8,3:0:0:0:
265,182,122703,1,8,3:0:0:0:
227,195,122786,1,4,3:0:0:0:
227,195,123120,38,0,P|185:193|167:182,1,56.4199977616578,0|0,3:0|3:0,0:0:0:0:
59,43,123453,54,0,B|111:24|111:24|202:106,1,152.880001866211,6|0,1:0|0:0,0:0:0:0:
211,116,123787,1,10,0:0:0:0:
125,316,123953,1,2,0:0:0:0:
97,127,124120,1,0,1:0:0:0:
254,339,124287,1,2,0:0:0:0:
307,83,124453,1,10,0:0:0:0:
194,251,124620,1,2,0:0:0:0:
118,41,124787,38,0,P|64:45|8:135,1,152.880001866211,6|0,1:0|0:0,0:0:0:0:
16,168,125120,1,10,0:0:0:0:
212,49,125287,2,0,P|273:62|318:93,1,101.920001244141,2|0,0:0|1:0,0:0:0:0:
367,300,125620,1,2,0:0:0:0:
238,143,125787,1,10,0:0:0:0:
428,80,125953,1,2,0:0:0:0:
285,283,126120,6,0,B|212:309|210:244|114:286,1,152.880001866211,6|0,1:0|0:0,0:0:0:0:
105,302,126453,1,8,0:0:0:0:
255,198,126620,2,0,P|269:123|266:68,1,101.920001244141,2|0,0:0|1:0,0:0:0:0:
174,355,126953,1,2,0:0:0:0:
186,128,127120,1,10,0:0:0:0:
174,355,127287,1,2,0:0:0:0:
268,97,127453,6,0,B|325:106|328:71|392:78|392:78|373:126,1,152.880001866211,6|0,1:0|0:0,0:0:0:0:
368,136,127787,1,10,0:0:0:0:
258,319,127953,1,2,0:0:0:0:
186,128,128120,1,0,1:0:0:0:
354,166,128287,1,0,1:0:0:0:
108,293,128453,38,0,B|39:262|39:262|114:233,1,152.880001866211,10|0,0:0|0:0,0:0:0:0:
181,266,128787,2,0,B|239:274|239:274|279:258|279:258|350:270,1,152.880001866211,6|0,1:0|0:0,0:0:0:0:
361,295,129120,2,0,L|475:313,1,101.920001244141,8|0,0:0|0:0,0:0:0:0:
404,118,129453,2,0,L|405:221,1,101.920001244141,2|0,1:0|0:0,0:0:0:0:
444,30,129787,2,0,L|342:43,1,101.920001244141,10|0,0:0|0:0,0:0:0:0:
172,161,130120,6,0,B|242:198|242:198|312:160,1,152.880001866211,6|0,1:0|0:0,0:0:0:0:
292,119,130453,2,0,B|242:100|242:100|193:119,1,101.920001244141,10|0,0:0|0:0,0:0:0:0:
241,312,130787,2,0,B|238:186|238:186|216:223,1,152.880001866211,2|0,1:0|0:0,0:0:0:0:
205,244,131120,2,0,B|148:257|148:257|110:241|110:241|49:255,1,152.880001866211,10|0,0:0|0:0,0:0:0:0:
17,316,131453,6,0,B|-10:240|0:103,1,166.529993139176,6|0,0:0|0:0,0:0:0:0:
0,106,131787,1,8,0:0:0:0:
103,327,131953,1,6,1:0:0:0:
127,136,132120,1,10,3:0:0:0:
94,235,132287,1,0,1:0:0:0:
64,55,132453,1,8,0:0:0:0:
41,157,132620,1,6,3:0:0:0:
251,37,132787,38,0,B|332:47|334:-4|431:21|431:21|367:80,1,222.039990852234,6|10,1:0|0:0,0:0:0:0:
276,262,133287,2,0,B|209:211|209:211|301:165,1,166.529993139176,6|0,1:0|0:0,0:0:0:0:
367,166,133620,2,0,L|421:195,1,55.5099977130586,8|0,3:0|1:0,0:0:0:0:
480,302,133787,1,8,0:0:0:0:
441,308,133870,1,8,0:0:0:0:
405,313,133953,2,0,L|341:272,1,55.5099977130586,8|4,3:0|3:0,0:0:0:0:
404,47,134120,6,0,B|446:91|446:91|414:196,1,166.529993139176,6|0,1:0|0:0,0:0:0:0:
387,234,134453,1,8,0:0:0:0:
171,86,134620,1,2,0:0:0:0:
352,126,134787,1,0,1:0:0:0:
160,222,134953,1,2,0:0:0:0:
358,283,135120,1,10,0:0:0:0:
155,68,135287,1,2,0:0:0:0:
249,342,135453,6,0,B|209:269|278:254|242:176,1,166.529993139176,6|0,1:0|0:0,0:0:0:0:
233,143,135787,1,10,0:0:0:0:
422,282,135953,2,0,P|349:304|306:284,1,111.019995426117,2|0,0:0|1:0,0:0:0:0:
160,215,136287,1,2,0:0:0:0:
364,210,136453,2,0,P|367:159|345:84,1,111.019995426117,10|0,0:0|0:0,0:0:0:0:
78,177,136787,38,0,B|72:242|72:242|86:290|158:315,1,166.529993139176,6|0,1:0|0:0,0:0:0:0:
194,293,137120,2,0,P|242:283|311:286,1,111.019995426117,8|0,0:0|0:0,0:0:0:0:
371,100,137453,2,0,P|312:92|254:93,1,111.019995426117,2|0,1:0|0:0,0:0:0:0:
386,336,137787,2,0,P|403:268|363:214,1,111.019995426117,10|0,0:0|0:0,0:0:0:0:
181,34,138120,6,0,B|161:106|161:106|228:184,1,166.529993139176,6|0,1:0|0:0,0:0:0:0:
253,189,138453,1,10,0:0:0:0:
426,33,138620,2,0,B|352:14|352:14|267:61,1,166.529993139176,6|0,1:0|0:0,0:0:0:0:
260,92,138953,1,2,1:0:0:0:
386,336,139120,2,0,B|391:203|391:203|344:243,1,166.529993139176,10|0,0:0|0:0,0:0:0:0:
305,276,139453,6,0,B|272:283|272:283|246:275|246:275|207:288|151:275,1,131.040003199219,6|0,1:0|0:0,0:0:0:0:
98,240,139953,1,0,1:0:0:0:
217,68,140120,2,0,L|204:205,1,131.040003199219,10|2,0:0|0:0,0:0:0:0:
416,52,140787,1,2,1:0:0:0:
464,130,140953,2,0,P|427:143|335:92,1,131.040003199219,8|0,0:0|1:0,0:0:0:0:
155,88,141453,2,0,P|199:76|229:59,1,65.5200015996094,10|0,0:0|0:0,0:0:0:0:
287,177,141786,2,0,P|243:165|213:148,1,65.5200015996094,2|0,0:0|0:0,0:0:0:0:
346,109,142120,38,0,P|377:157|351:244,1,131.040003199219,2|0,1:0|0:0,0:0:0:0:
312,306,142620,1,2,1:0:0:0:
113,238,142786,2,0,B|158:216|158:216|219:247,1,98.2800023994141,10|0,0:0|0:0,0:0:0:0:
220,288,143120,2,0,B|157:323|157:323|78:278,1,139.230000849792,12|0,0:0|0:0,0:0:0:0:
113,238,143453,5,8,0:0:0:0:
302,332,143620,1,0,1:0:0:0:
220,105,143787,1,0,1:0:0:0:
214,361,143953,2,0,P|216:303|230:260,1,74.6200011386109,8|0,3:0|0:0,0:0:0:0:
310,107,144287,1,0,1:0:0:0:
394,364,144453,2,0,P|392:306|366:230,1,111.930001707916,10|0,0:0|0:0,0:0:0:0:
344,216,144786,5,6,1:0:0:0:
344,216,145120,1,8,0:0:0:0:
88,313,145286,1,8,0:0:0:0:
189,29,145453,1,8,0:0:0:0:
313,322,145620,1,8,0:0:0:0:
75,100,145786,2,0,P|99:89|128:85,1,55.5099977130586,8|8,0:0|0:0,0:0:0:0:
395,141,145952,2,0,P|368:131|341:127,1,55.5099977130586,4|4,3:0|3:0,0:0:0:0:
85,205,146119,1,0,1:0:0:0:
85,205,146453,38,0,B|161:179|165:254|267:200,1,166.529993139176,14|0,0:0|0:0,0:0:0:0:
284,185,146787,1,6,3:0:0:0:
118,290,146953,1,2,1:0:0:0:
372,236,147120,1,10,0:0:0:0:
224,78,147286,38,0,P|207:143|207:163,1,55.5099977130586,8|8,0:0|0:0,0:0:0:0:
236,315,147453,1,0,1:0:0:0:
236,315,147620,1,0,1:0:0:0:
314,50,147786,6,0,L|82:35,1,180.179999450134,12|0,0:0|0:0,0:0:0:0:
93,54,148120,1,8,3:0:0:0:
293,134,148286,1,8,3:0:0:0:
36,255,148453,1,8,0:0:0:0:
231,30,148620,54,0,P|244:132|253:245,1,180.179999450134,4|0,1:0|0:0,0:0:0:0:
245,255,148953,1,8,0:0:0:0:
397,16,149120,1,8,0:0:0:0:
381,284,149286,6,0,P|333:225|239:265,1,180.179999450134,12|0,0:0|0:0,0:0:0:0:
227,293,149620,1,0,1:0:0:0:
79,167,149786,54,0,P|128:155|183:152,1,84.6299966424867,12|0,0:0|0:0,0:0:0:0:
243,171,150120,54,0,P|167:155|87:85,1,152.880001866211,6|0,1:0|0:0,0:0:0:0:
78,74,150453,2,0,L|288:55,1,203.840002488281,8|0,0:0|1:0,0:0:0:0:
214,256,150953,1,2,0:0:0:0:
281,55,151120,1,10,0:0:0:0:
291,288,151286,2,0,P|247:337|189:329,1,101.920001244141,2|0,0:0|1:0,0:0:0:0:
289,184,151620,37,2,0:0:0:0:
369,326,151786,1,10,0:0:0:0:
214,256,151953,1,2,0:0:0:0:
354,109,152120,1,2,1:0:0:0:
369,326,152286,1,2,0:0:0:0:
132,224,152453,1,10,0:0:0:0:
365,242,152620,1,2,3:2:0:0:
217,303,152786,22,0,B|191:222|249:234|215:111,1,152.880001866211,2|0,1:0|0:0,0:0:0:0:
196,109,153120,2,0,P|145:86|41:183,1,203.840002488281,8|0,0:0|1:0,0:0:0:0:
295,264,153620,1,2,0:0:0:0:
132,170,153786,1,8,0:0:0:0:
217,303,153953,1,2,3:2:0:0:
258,46,154120,37,2,1:0:0:0:
295,264,154286,1,2,0:0:0:0:
348,68,154453,1,10,0:0:0:0:
374,321,154620,2,0,P|389:273|378:224,2,101.920001244141,2|0|0,0:0|1:0|0:0,0:0:0:0:
181,168,155120,2,0,L|338:147,1,152.880001866211,8|0,0:0|0:0,0:0:0:0:
362,150,155453,22,0,P|430:135|468:117,1,101.920001244141,2|0,1:0|0:0,0:0:0:0:
212,41,155786,2,0,P|259:60|309:69,1,101.920001244141,10|0,0:0|0:0,0:0:0:0:
83,196,156120,2,0,P|133:186|180:167,1,101.920001244141,2|0,1:0|0:0,0:0:0:0:
317,57,156453,1,10,0:0:0:0:
447,237,156620,38,0,L|251:218,1,166.529993139176,6|0,1:0|0:0,0:0:0:0:
239,214,156953,1,2,1:0:0:0:
403,63,157120,1,10,0:0:0:0:
412,324,157286,1,2,1:0:0:0:
344,145,157453,1,2,0:0:0:0:
223,298,157620,1,10,3:2:0:0:
307,50,157786,1,4,3:0:0:0:
376,230,157953,1,10,3:2:0:0:
79,138,158120,21,10,0:0:0:0:
344,145,158286,1,10,0:0:0:0:
344,145,158370,1,10,0:0:0:0:
344,146,158453,1,10,0:0:0:0:
2,103,158620,38,0,B|66:92|66:92|121:111|121:111|188:100,1,180.179999450134,14|0,0:0|0:0,0:0:0:0:
222,94,158953,1,10,0:0:0:0:
269,330,159120,1,4,3:0:0:0:
294,42,159286,22,0,B|333:122|269:121|313:214,1,152.880001866211,10|0,3:2|0:0,0:0:0:0:
326,232,159620,1,2,1:0:0:0:
140,108,159786,1,10,0:0:0:0:
399,52,159953,1,2,1:0:0:0:
264,354,160120,1,2,0:0:0:0:
230,22,160286,38,0,P|262:74|264:86,1,50.9600006220703,0|0,1:0|1:0,0:0:0:0:
158,209,160453,1,10,0:0:0:0:
107,203,160536,1,8,0:0:0:0:
67,172,160620,1,10,0:0:0:0:
48,126,160703,1,0,0:0:0:0:
54,76,160786,22,0,B|114:54|123:109|242:72,1,152.880001866211,6|0,1:0|0:0,0:0:0:0:
258,63,161120,1,8,0:0:0:0:
311,251,161286,1,0,0:0:0:0:
338,14,161453,2,0,P|351:70|318:146,1,101.920001244141,0|0,1:0|0:0,0:0:0:0:
230,291,161786,2,0,P|220:241|233:192,1,101.920001244141,8|0,0:0|3:0,0:0:0:0:
421,134,162120,38,0,L|233:107,1,152.880001866211,0|0,1:0|0:0,0:0:0:0:
230,105,162453,1,8,0:0:0:0:
311,251,162620,1,0,3:0:0:0:
344,37,162786,2,0,L|460:32,1,101.920001244141,2|0,1:0|0:0,0:0:0:0:
503,237,163120,2,0,L|401:232,1,101.920001244141,8|2,0:0|0:0,0:0:0:0:
305,275,163370,1,2,0:0:0:0:
274,294,163453,22,0,B|184:301|111:271,1,152.880001866211,2|0,1:0|0:0,0:0:0:0:
96,248,163786,1,8,0:0:0:0:
212,63,163953,2,0,P|226:118|232:173,1,101.920001244141,0|0,3:0|1:0,0:0:0:0:
138,365,164286,1,2,0:0:0:0:
141,130,164453,1,10,0:0:0:0:
356,232,164620,38,0,B|193:250|193:250|157:206,1,203.840002488281,6|2,1:0|1:0,0:0:0:0:
413,153,165120,1,10,0:0:0:0:
141,130,165286,1,2,0:0:0:0:
276,91,165453,1,0,1:0:0:0:
167,219,165620,1,0,1:0:0:0:
356,232,165786,22,0,P|401:247|383:315,1,111.930001707916,10|0,0:0|0:0,0:0:0:0:
357,338,166120,37,2,1:0:0:0:
274,66,166286,1,2,0:0:0:0:
108,294,166453,1,10,0:0:0:0:
288,170,166620,2,0,L|412:184,1,101.920001244141,2|0,0:0|1:0,0:0:0:0:
80,120,166953,1,0,1:0:0:0:
310,56,167120,1,10,0:0:0:0:
242,281,167286,21,6,1:0:0:0:
159,17,167453,1,2,0:0:0:0:
157,337,167620,1,2,1:0:0:0:
224,73,167786,1,10,0:0:0:0:
305,351,167953,1,2,0:0:0:0:
247,161,168120,1,0,1:0:0:0:
242,281,168286,1,0,1:0:0:0:
329,121,168453,2,0,P|388:111|435:107,1,101.920001244141,8|0,0:0|0:0,0:0:0:0:
466,121,168703,1,0,0:0:0:0:
466,121,168786,37,10,0:0:0:0:
134,105,168953,1,10,0:0:0:0:
488,273,169286,5,10,0:0:0:0:
29,275,169620,1,10,0:0:0:0:
370,27,169953,54,0,B|398:111|337:99|380:205,1,152.880001866211,6|0,1:0|0:0,0:0:0:0:
389,222,170286,21,8,0:0:0:0:
69,159,170453,1,8,0:0:0:0:
458,135,170620,1,8,0:0:0:0:
79,184,170786,1,10,0:0:0:0:
411,263,170953,1,8,0:0:0:0:
234,46,171120,1,8,0:0:0:0:
237,94,171203,1,8,0:0:0:0:
240,143,171286,1,8,3:0:0:0:
243,189,171370,1,4,3:0:0:0:
247,234,171453,5,6,1:0:0:0:
240,189,182120,6,0,P|287:183|370:208,1,125.579995784363,4|0,1:0|0:0,0:0:0:0:
390,237,182453,2,0,P|437:246|482:225,1,83.7199971895753,8|0,0:0|0:0,0:0:0:0:
417,81,182786,2,0,L|242:64,1,167.439994379151,8|8,0:0|0:0,0:0:0:0:
140,145,183286,1,2,1:0:0:0:
3,65,183453,2,0,P|38:126|54:206,1,125.579995784363,10|0,1:2|0:0,0:0:0:0:
45,219,183786,2,0,P|34:278|35:318,1,83.7199971895753,10|0,0:0|0:0,0:0:0:0:
171,243,184120,2,0,P|169:201|159:160,1,83.7199971895753,10|0,0:0|0:0,0:0:0:0:
118,319,184453,2,0,P|172:339|245:295,1,125.579995784363,10|0,0:0|0:0,0:0:0:0:
256,263,184786,54,0,P|311:237|369:257,1,125.579995784363,10|0,1:2|0:0,0:0:0:0:
395,301,185120,2,0,L|488:288,1,83.7199971895753,8|0,0:0|0:0,0:0:0:0:
496,157,185453,2,0,L|403:144,1,83.7199971895753,10|0,0:0|0:0,0:0:0:0:
256,263,185786,1,8,0:0:0:0:
110,125,185953,2,0,P|182:114|249:163,1,125.579995784363,2|0,1:0|0:0,0:0:0:0:
254,172,186286,1,0,1:0:0:0:
458,65,186453,2,0,P|386:54|319:103,1,125.579995784363,8|0,0:0|0:0,0:0:0:0:
314,112,186786,1,10,0:0:0:0:
400,351,186953,1,0,1:0:0:0:
412,145,187120,1,10,0:0:0:0:
279,330,187286,38,0,P|208:323|114:301,1,139.230000849792,6|0,1:0|0:0,0:0:0:0:
101,295,187620,1,2,1:0:0:0:
191,68,187786,2,0,B|236:147|236:147|221:197,1,139.230000849792,10|0,0:0|0:0,0:0:0:0:
207,232,188120,2,0,P|157:222|112:211,1,92.8200005665283,2|0,1:0|0:0,0:0:0:0:
288,56,188453,1,10,0:0:0:0:
281,288,188620,37,2,1:0:0:0:
119,124,188786,1,0,0:0:0:0:
373,95,188953,1,2,1:0:0:0:
192,337,189120,2,0,P|183:257|218:144,1,185.640001133057,10|0,0:0|1:0,0:0:0:0:
96,342,189620,1,2,1:0:0:0:
196,66,189786,1,10,0:0:0:0:
263,235,189953,6,0,P|195:247|125:178,1,139.230000849792,6|0,1:0|0:0,0:0:0:0:
111,179,190286,1,0,1:0:0:0:
401,147,190453,5,8,0:0:0:0:
59,251,190620,1,0,1:0:0:0:
439,235,190786,5,8,0:0:0:0:
75,96,190953,1,2,1:0:0:0:
445,67,191120,37,10,0:0:0:0:
111,179,191286,2,0,B|185:159|171:220|277:183,1,139.230000849792,6|0,1:0|0:0,0:0:0:0:
285,180,191620,21,8,0:0:0:0:
118,330,191786,1,8,0:0:0:0:
192,30,191953,1,8,0:0:0:0:
425,203,192120,1,8,0:0:0:0:
121,92,192286,1,8,0:0:0:0:
163,118,192369,1,8,0:0:0:0:
214,116,192452,1,10,0:0:0:0:
258,93,192537,1,8,0:0:0:0:
302,70,192621,1,8,0:0:0:0:
353,68,192704,1,8,0:0:0:0:
395,94,192786,5,14,0:0:0:0:
53,324,194120,5,6,1:0:0:0:
241,88,194953,2,0,L|238:28,2,56.4199977616578,2|2|2,0:0|0:0|0:0,0:0:0:0:
368,266,195453,6,0,P|297:245|218:271,1,152.880001866211,4|0,1:0|0:0,0:0:0:0:
189,295,195786,1,8,0:0:0:0:
62,59,195953,6,0,P|133:38|212:64,1,152.880001866211,4|0,1:0|0:0,0:0:0:0:
241,88,196286,1,8,0:0:0:0:
117,349,196453,2,0,P|99:298|100:289,1,50.9600006220703,8|8,0:0|0:0,0:0:0:0:
137,132,196619,1,8,0:0:0:0:
374,277,196786,54,0,B|315:293|251:269,1,101.920001244141,4|8,1:0|0:0,0:0:0:0:
231,261,197036,1,8,0:0:0:0:
197,231,197120,1,8,3:0:0:0:
338,51,197286,21,4,1:0:0:0:
455,325,197453,1,8,0:0:0:0:
424,364,197536,1,8,3:0:0:0:
375,373,197619,1,8,3:0:0:0:
329,352,197703,1,4,3:0:0:0:
308,312,197786,1,4,1:0:0:0:
273,276,197869,1,8,3:0:0:0:
224,267,197952,1,4,3:0:0:0:
178,288,198036,1,4,3:0:0:0:
155,329,198120,38,0,P|99:344|20:293,1,152.880001866211,6|0,1:0|0:0,0:0:0:0:
11,247,198453,1,8,0:0:0:0:
106,46,198620,1,0,3:0:0:0:
104,259,198786,2,0,B|110:150|110:150|151:125,1,152.880001866211,2|0,1:0|0:0,0:0:0:0:
185,113,199120,2,0,P|238:125|326:71,1,152.880001866211,14|0,0:0|0:0,0:0:0:0:
341,28,199453,2,0,L|354:205,1,152.880001866211,0|0,1:0|0:0,0:0:0:0:
356,226,199786,1,10,0:0:0:0:
237,34,199953,1,0,3:0:0:0:
435,123,200120,1,2,1:0:0:0:
258,169,200286,1,0,1:0:0:0:
454,51,200453,2,0,P|475:141|485:225,1,152.880001866211,14|0,0:0|0:0,0:0:0:0:
465,247,200786,6,0,B|391:283|374:215|292:257,1,166.529993139176,4|0,1:0|0:0,0:0:0:0:
263,278,201120,1,8,0:0:0:0:
59,164,201286,2,0,P|135:197|219:89,1,222.039990852234,6|0,1:0|1:0,0:0:0:0:
169,326,201786,1,8,0:0:0:0:
130,107,201953,1,2,1:0:0:0:
84,324,202120,6,0,L|251:292,1,166.529993139176,6|0,1:0|0:0,0:0:0:0:
287,284,202453,1,10,0:0:0:0:
493,218,202620,2,0,P|428:226|332:167,1,166.529993139176,6|0,1:0|0:0,0:0:0:0:
276,95,202953,2,0,P|217:103|189:113,1,55.5099977130586,4|0,3:0|1:0,0:0:0:0:
151,185,203120,1,8,0:0:0:0:
101,193,203203,1,8,0:0:0:0:
53,176,203286,1,8,3:0:0:0:
20,138,203370,1,4,3:0:0:0:
31,87,203453,38,0,B|147:69|147:69|195:86,1,152.880001866211,6|0,1:0|0:0,0:0:0:0:
221,101,203786,1,14,0:0:0:0:
193,302,203953,1,2,0:0:0:0:
294,47,204120,1,0,1:0:0:0:
376,187,204286,1,2,0:0:0:0:
138,164,204453,1,14,0:0:0:0:
453,239,204620,1,2,0:0:0:0:
78,237,204786,6,0,P|154:254|216:200,1,152.880001866211,2|0,1:0|0:0,0:0:0:0:
223,169,205120,1,14,0:0:0:0:
280,347,205286,2,0,P|295:272|296:234,1,101.920001244141,2|0,0:0|1:0,0:0:0:0:
121,63,205620,2,0,P|125:113|137:163,1,101.920001244141,2|12,0:0|0:0,0:0:0:0:
195,256,205953,1,2,0:0:0:0:
416,161,206120,6,0,B|367:169|367:169|323:152|323:152|222:162,1,152.880001866211,6|0,1:0|0:0,0:0:0:0:
225,168,206453,1,14,0:0:0:0:
452,331,206620,2,0,L|474:230,1,101.920001244141,2|0,0:0|1:0,0:0:0:0:
371,71,206953,1,2,0:0:0:0:
307,241,207120,1,14,0:0:0:0:
144,74,207286,1,2,0:0:0:0:
156,347,207453,38,0,P|163:285|166:175,1,166.529993139176,6|0,1:0|0:0,0:0:0:0:
158,132,207786,1,10,0:0:0:0:
356,347,207953,2,0,P|349:285|346:175,1,166.529993139176,6|0,1:0|0:0,0:0:0:0:
354,132,208286,1,2,1:0:0:0:
254,351,208453,1,8,0:0:0:0:
253,134,208620,1,0,1:0:0:0:
350,278,208786,6,0,B|305:282|305:282|257:263|257:263|196:274,1,149.240002277222,4|0,1:0|0:0,0:0:0:0:
114,302,209286,1,0,1:0:0:0:
219,180,209453,2,0,P|230:112|151:65,1,149.240002277222,10|2,0:0|0:0,0:0:0:0:
429,221,210120,1,2,1:0:0:0:
351,264,210286,2,0,B|333:215|333:215|392:117,1,149.240002277222,8|0,0:0|1:0,0:0:0:0:
498,55,210786,2,0,L|409:61,1,74.6200011386109,10|0,0:0|0:0,0:0:0:0:
318,94,211120,2,0,L|394:138,1,74.6200011386109,2|0,0:0|0:0,0:0:0:0:
238,51,211453,6,0,B|218:101|218:101|234:139|234:139|197:212,1,149.240002277222,6|0,1:2|0:2,0:2:0:0:
136,262,211953,1,2,1:0:0:0:
61,108,212120,2,0,P|124:108|142:158,1,111.930001707916,10|0,0:0|0:0,0:0:0:0:
131,193,212453,2,0,P|70:205|45:124,1,139.230000849792,12|0,0:0|0:0,0:0:0:0:
61,108,212786,37,8,0:0:0:0:
238,51,212953,1,0,1:0:0:0:
136,262,213120,1,0,1:0:0:0:
158,0,213286,2,0,B|146:56|146:56|150:102,1,74.6200011386109,8|0,3:0|0:0,0:0:0:0:
224,280,213620,1,0,1:0:0:0:
337,37,213786,2,0,B|320:104|320:104|279:161,1,111.930001707916,10|0,0:0|0:0,0:0:0:0:
271,170,214120,21,4,1:0:0:0:
238,51,214286,1,0,1:0:0:0:
451,122,214453,1,0,1:0:0:0:
224,280,214620,1,14,0:0:0:0:
180,145,214786,1,2,1:0:0:0:
358,207,214953,1,0,1:0:0:0:
84,351,215120,1,12,0:0:0:0:
145,49,215286,1,0,1:0:0:0:
444,275,215453,1,12,0:0:0:0:
444,275,215786,6,0,P|391:293|343:295,1,84.6299966424867,2|0,0:0|0:0,0:0:0:0:
317,277,216120,2,0,P|283:271|249:272,1,56.4199977616578,2|2,0:0|0:0,0:0:0:0:
48,323,216453,6,0,P|74:309|124:296,1,70.9799995667725,2|0,0:0|0:0,0:0:0:0:
157,300,216786,5,4,1:0:0:0:
237,87,216952,1,2,0:0:0:0:
77,204,217119,1,8,0:0:0:0:
222,189,217286,1,2,0:0:0:0:
161,26,217453,2,0,L|144:134,1,92.8200005665283,2|0,1:0|0:0,0:0:0:0:
242,280,217786,2,0,L|223:190,1,92.8200005665283,10|0,0:0|0:0,0:0:0:0:
311,37,218120,6,0,B|355:131|267:130|314:234,1,185.640001133057,2|8,1:0|0:0,0:0:0:0:
237,87,218619,1,2,0:0:0:0:
389,181,218786,2,0,L|485:169,1,92.8200005665283,2|0,1:0|0:0,0:0:0:0:
237,87,219119,2,0,L|141:75,1,92.8200005665283,10|0,0:0|0:0,0:0:0:0:
202,240,219452,53,2,1:0:0:0:
67,38,219619,1,2,0:0:0:0:
108,229,219786,1,10,0:0:0:0:
318,56,219952,1,0,1:0:0:0:
289,255,220119,1,2,0:0:0:0:
237,87,220286,1,0,1:0:0:0:
180,321,220452,1,10,0:0:0:0:
145,75,220619,6,0,P|79:69|42:67,1,92.8200005665283,2|0,1:0|0:0,0:0:0:0:
81,147,220952,1,2,1:0:0:0:
237,87,221119,2,0,P|303:81|340:79,1,92.8200005665283,10|0,0:0|0:0,0:0:0:0:
459,215,221452,1,2,1:0:0:0:
260,170,221619,1,2,0:0:0:0:
437,131,221786,1,10,0:0:0:0:
289,255,221952,1,2,0:0:0:0:
418,45,222120,53,6,1:0:0:0:
373,237,222286,1,2,0:0:0:0:
329,66,222452,1,10,0:0:0:0:
289,255,222619,1,0,0:0:0:0:
237,87,222786,1,2,1:0:0:0:
203,276,222952,1,0,0:0:0:0:
351,151,223119,1,10,0:0:0:0:
145,111,223286,1,2,0:0:0:0:
272,341,223453,6,0,P|326:338|360:302,1,92.8200005665283,0|0,1:0|0:0,0:0:0:0:
237,87,223786,1,10,0:0:0:0:
289,255,223952,2,0,B|269:113|269:113|227:78,1,185.640001133057,2|2,1:0|1:0,0:0:0:0:
272,341,224452,1,8,0:0:0:0:
351,151,224620,54,0,B|248:132|280:215|147:182,1,185.640001133057,6|2,1:0|1:0,0:0:0:0:
438,198,225119,1,10,0:0:0:0:
199,108,225286,1,2,0:0:0:0:
429,287,225452,1,2,1:0:0:0:
143,273,225619,1,2,0:0:0:0:
449,114,225786,1,10,0:0:0:0:
134,183,225953,6,0,P|104:130|148:31,1,139.230000849792,4|0,1:0|0:0,0:0:0:0:
155,32,226286,2,0,P|196:20|257:39,1,92.8200005665283,10|2,0:0|0:0,0:0:0:0:
176,262,226620,1,8,0:0:0:0:
176,262,226703,1,8,0:0:0:0:
176,262,226786,2,0,P|135:274|72:250,1,92.8200005665283,4|4,3:0|3:0,0:0:0:0:
199,108,227120,2,0,P|240:118|283:170,1,92.8200005665283,4|0,3:0|0:0,0:0:0:0:
215,347,227453,53,4,0:0:0:0:
256,192,227536,12,0,233286,0:0:0:0:
