osu file format v14

[General]
AudioFilename: audio.mp3
AudioLeadIn: 0
PreviewTime: 56471
Countdown: 0
SampleSet: Soft
StackLeniency: 0.4
Mode: 0
LetterboxInBreaks: 0
WidescreenStoryboard: 0

[Editor]
Bookmarks: 70138
DistanceSpacing: 0.4
BeatDivisor: 4
GridSize: 32
TimelineZoom: 1.7

[Metadata]
Title:Hitokoto no Kyori
TitleUnicode:ヒトコトの距離
Artist:*namirin
ArtistUnicode:*なみりん
Creator:sahuang
Version:Slayed's Extra
Source:
Tags:5colors Beomsan Akitoshi Corinn joker- Linada Left Sotarks Slayed My Angel Azusa
BeatmapID:1423986
BeatmapSetID:667290

[Difficulty]
HPDrainRate:6
CircleSize:4
OverallDifficulty:8.5
ApproachRate:9.2
SliderMultiplier:1.62
SliderTickRate:1

[Events]
//Background and Video events
0,0,"lol.jpg",0,0
//Break Periods
2,171653,181536
//Storyboard Layer 0 (Background)
//Storyboard Layer 1 (Fail)
//Storyboard Layer 2 (Pass)
//Storyboard Layer 3 (Foreground)
//Storyboard Sound Samples

[TimingPoints]
787,333.333333333333,4,2,1,40,1,0
787,-133.333333333333,4,2,1,40,0,0
8120,-83.3333333333333,4,2,1,40,0,0
8786,-100,4,2,1,50,0,0
24786,-117.647058823529,4,2,2,45,0,0
34120,-100,4,2,1,45,0,0
46120,-133.333333333333,4,2,1,45,0,0
51453,-100,4,2,1,45,0,0
52786,-100,4,2,1,60,0,0
54120,-83.3333333333333,4,2,1,60,0,0
56786,-100,4,2,1,70,0,1
64786,-100,4,2,1,70,0,1
66120,-80,4,2,1,70,0,1
67453,-100,4,2,1,70,0,1
71453,-80,4,2,1,70,0,1
72453,-100,4,2,1,70,0,1
72786,-111.111111111111,4,2,1,70,0,1
78120,-100,4,2,1,70,0,1
79786,-80,4,2,1,70,0,1
80786,-100,4,2,1,60,0,0
91453,-111.111111111111,4,2,1,60,0,0
99453,-133.333333333333,4,2,1,45,0,0
100786,-100,4,2,1,60,0,0
112786,-133.333333333333,4,2,1,60,0,0
118120,-100,4,2,1,60,0,0
120786,-83.3333333333333,4,2,1,60,0,0
123453,-100,4,2,1,70,0,1
132786,-80,4,2,1,70,0,1
134120,-100,4,2,1,70,0,1
138120,-80,4,2,1,70,0,1
139120,-100,4,2,1,70,0,1
139453,-111.111111111111,4,2,1,70,0,1
144786,-100,4,2,1,70,0,1
146453,-80,4,2,1,70,0,1
147453,-133.333333333333,4,2,1,55,0,0
147786,-66.6666666666667,4,2,1,55,0,0
149786,-200,4,2,1,55,0,0
150120,-90.9090909090909,4,2,1,55,0,0
156620,-80,4,2,1,55,0,0
156786,-90.9090909090909,4,2,1,55,0,0
159286,-133.333333333333,4,2,1,60,0,0
159620,-83.3333333333333,4,2,1,60,0,0
160786,-90.9090909090909,4,2,1,60,0,0
182120,-133.333333333333,4,2,2,60,0,0
186286,-133.333333333333,4,2,1,60,0,0
187286,-100,4,2,1,60,0,0
192786,-200,4,2,1,60,0,0
195453,-90.9090909090909,4,2,1,70,0,1
198120,-100,4,2,1,70,0,1
202120,-80,4,2,1,70,0,1
203453,-100,4,2,1,70,0,1
207453,-80,4,2,1,70,0,1
208786,-133.333333333333,4,2,1,70,0,1
214120,-100,4,2,1,70,0,0
216286,-83.3333333333333,4,2,1,70,0,0
216786,-100,4,2,1,40,0,0
233120,-100,4,2,1,10,0,0

[Colours]
Combo1 : 248,174,1
Combo2 : 109,183,46
Combo3 : 226,0,81
Combo4 : 119,127,189
Combo5 : 0,126,199
SliderTrackOverride : 0,0,15
SliderBorder : 255,255,248

[HitObjects]
222,357,453,5,2,0:0:0:0:
222,357,787,6,0,P|284:342|348:333,1,121.500004634857,2|2,0:0|0:0,0:0:0:0:
429,287,1286,2,0,P|372:293|322:234,1,121.500004634857,2|2,0:0|0:0,0:0:0:0:
298,158,1786,2,0,P|307:126|319:92,1,60.7500023174287,2|2,0:0|0:0,0:0:0:0:
191,29,2120,6,0,P|198:70|212:148,1,121.500004634857,2|2,0:0|0:0,0:0:0:0:
154,227,2620,2,0,P|111:244|47:205,1,121.500004634857,2|2,0:0|0:0,0:0:0:0:
49,209,3120,1,2,0:0:0:0:
0,299,3286,1,2,0:0:0:0:
83,359,3453,6,0,P|116:350|167:351,1,60.7500023174287,2|0,0:0|0:0,0:0:0:0:
229,384,3786,1,0,0:0:0:0:
229,384,4120,2,0,P|221:321|214:263,1,121.500004634857,2|2,0:0|0:0,0:0:0:0:
214,263,4786,6,0,P|273:274|320:230,1,121.500004634857,2|2,0:0|0:0,0:0:0:0:
406,179,5286,2,0,P|347:164|288:149,1,121.500004634857,2|2,0:0|0:0,0:0:0:0:
334,250,5786,1,2,0:0:0:0:
334,250,6120,5,2,0:0:0:0:
346,147,6286,1,0,0:0:0:0:
359,44,6453,1,0,0:0:0:0:
133,161,6786,2,0,P|193:151|253:142,1,121.500004634857,2|2,0:0|0:0,0:0:0:0:
447,213,7453,2,0,P|461:144|425:107,1,121.500004634857,2|2,0:0|0:0,0:0:0:0:
287,212,7953,5,0,1:0:0:0:
390,319,8120,2,0,B|459:361|516:320|516:320|473:318|434:282,1,194.399994067383,14|0,0:0|0:0,0:0:0:0:
180,360,8786,6,0,L|165:260,1,81,6|0,1:0|0:0,0:0:0:0:
335,86,9120,1,8,0:0:0:0:
291,275,9286,1,10,0:0:0:0:
342,73,9453,1,8,0:0:0:0:
115,170,9620,1,8,0:0:0:0:
391,268,9786,1,8,0:0:0:0:
101,164,9953,1,8,0:0:0:0:
342,73,10120,5,4,1:0:0:0:
221,378,10620,1,4,1:0:0:0:
505,209,11120,2,0,P|463:207|418:190,1,81,6|0,1:0|0:0,0:0:0:0:
265,61,11453,6,0,L|276:141,1,81,4|0,1:0|0:0,0:0:0:0:
181,242,11786,1,8,0:0:0:0:
417,104,11953,1,10,0:0:0:0:
137,31,12120,1,10,0:0:0:0:
431,110,12286,1,8,0:0:0:0:
219,322,12453,1,8,0:0:0:0:
317,87,12620,5,8,0:0:0:0:
310,55,12703,1,8,0:0:0:0:
303,23,12786,1,4,1:0:0:0:
25,198,13953,1,8,0:0:0:0:
28,209,14036,1,8,0:0:0:0:
31,220,14120,6,0,P|72:211|138:199,1,81,4|0,1:0|0:0,0:0:0:0:
286,90,14453,2,0,P|218:82|192:69,1,81,8|2,0:0|0:0,0:0:0:0:
204,280,14786,2,0,L|214:199,1,81,2|0,1:0|0:0,0:0:0:0:
84,38,15120,2,0,P|69:75|76:117,1,81,10|0,0:0|0:0,0:0:0:0:
309,207,15453,6,0,P|351:200|394:193,1,81,2|0,1:0|0:0,0:0:0:0:
362,17,15786,2,0,P|353:52|345:109,1,81,8|2,0:0|0:0,0:0:0:0:
444,312,16120,1,2,1:0:0:0:
325,241,16286,1,0,0:0:0:0:
509,179,16453,1,10,0:0:0:0:
509,179,16786,6,0,P|463:181|413:156,1,81,2|0,1:0|0:0,0:0:0:0:
239,96,17120,1,10,0:0:0:0:
356,8,17286,2,0,L|343:87,1,81,0|2,1:0|0:0,0:0:0:0:
217,15,17620,1,0,1:0:0:0:
478,64,17786,1,10,0:0:0:0:
342,215,17953,6,0,P|262:198|182:186,1,162,2|2,1:0|1:0,0:0:0:0:
343,87,18453,1,10,0:0:0:0:
258,308,18620,1,0,0:0:0:0:
449,201,18786,1,2,1:0:0:0:
227,94,18953,1,2,0:0:0:0:
342,215,19120,1,10,0:0:0:0:
442,43,19286,1,2,0:0:0:0:
509,308,19453,6,0,P|470:301|409:290,1,81,6|0,1:0|0:0,0:0:0:0:
250,200,19786,1,10,0:0:0:0:
371,384,19953,1,0,0:0:0:0:
512,211,20120,2,0,P|446:153|358:188,1,162,2|10,1:0|0:0,0:0:0:0:
279,276,20620,6,0,P|266:195|253:115,1,162,2|0,0:0|0:0,0:0:0:0:
193,291,21120,1,10,0:0:0:0:
422,220,21286,2,0,P|387:202|315:199,1,81,2|0,1:0|0:0,0:0:0:0:
445,343,21620,1,2,1:0:0:0:
512,143,21786,1,8,0:0:0:0:
329,27,21953,6,0,B|293:128|293:128|332:196,1,162,6|2,1:0|1:0,0:0:0:0:
430,37,22453,1,10,0:0:0:0:
177,118,22620,1,2,0:0:0:0:
444,214,22786,1,2,1:0:0:0:
155,112,22953,1,2,0:0:0:0:
430,37,23120,1,10,0:0:0:0:
486,285,23286,6,0,P|413:271|321:256,1,162,6|10,1:0|0:0,0:0:0:0:
131,361,23786,1,0,0:0:0:0:
226,161,23953,1,8,3:0:0:0:
226,161,24036,1,8,3:0:0:0:
226,161,24120,2,0,P|239:186|242:256,1,81,4|4,3:0|3:0,0:0:0:0:
131,361,24453,1,2,3:0:0:0:
159,220,24620,1,2,0:0:0:0:
259,347,24786,6,0,P|293:339|327:335,1,68.8500013132096,14|0,1:2|0:0,0:0:0:0:
404,384,25120,1,10,0:0:0:0:
497,288,25286,2,0,P|442:296|380:240,1,137.700002626419,2|2,0:0|0:0,0:0:0:0:
261,152,25786,1,10,0:0:0:0:
289,245,25953,1,2,1:0:0:0:
366,157,26120,6,0,P|360:124|354:90,1,68.8500013132096,10|0,1:2|0:0,0:0:0:0:
440,118,26453,1,10,0:0:0:0:
282,158,26620,2,0,P|237:143|195:137,1,68.8500013132096,2|8,0:0|0:0,0:0:0:0:
359,231,26953,2,0,P|396:221|443:217,1,68.8500013132096,2|8,0:0|0:0,0:0:0:0:
277,284,27286,1,2,0:0:0:0:
190,214,27453,6,0,P|198:138|209:67,2,137.700002626419,10|8|8,1:2|0:0|0:0,0:0:0:0:
190,214,28286,1,2,0:0:0:0:
40,201,28453,2,0,P|76:182|112:183,1,68.8500013132096,10|0,0:0|1:0,0:0:0:0:
224,318,28786,6,0,P|145:325|101:281,1,137.700002626419,8|8,1:2|0:0,0:0:0:0:
298,271,29286,2,0,P|313:312|311:349,1,68.8500013132096,0|8,0:0|0:0,0:0:0:0:
178,246,29620,2,0,P|182:213|198:171,1,68.8500013132096,0|8,0:0|0:0,0:0:0:0:
271,119,29953,1,2,0:0:0:0:
272,312,30120,6,0,B|361:289|361:289|386:299|401:321,1,137.700002626419,10|10,1:2|0:0,0:0:0:0:
512,245,30620,2,0,P|474:197|382:226,1,137.700002626419,2|0,0:0|0:0,0:0:0:0:
282,91,31120,1,8,0:0:0:0:
384,120,31286,1,2,1:0:0:0:
284,219,31453,6,0,P|226:228|132:240,1,137.700002626419,10|10,1:2|0:0,0:0:0:0:
56,164,31953,2,0,P|91:158|130:149,1,68.8500013132096,2|8,0:0|0:0,0:0:0:0:
68,323,32286,2,0,P|65:287|51:241,1,68.8500013132096,2|8,0:0|0:0,0:0:0:0:
4,91,32786,6,0,P|75:86|141:75,1,137.700002626419,10|10,1:2|0:0,0:0:0:0:
244,175,33286,2,0,P|213:167|157:165,1,68.8500013132096,2|8,0:0|0:0,0:0:0:0:
304,102,33620,1,2,0:0:0:0:
337,217,33786,2,0,P|332:251|324:305,1,68.8500013132096,8|0,0:0|0:0,0:0:0:0:
244,175,34120,6,0,P|321:199|390:152,2,162,2|8|2,1:2|0:0|0:0,0:0:0:0:
72,262,34953,1,8,0:0:0:0:
148,106,35120,1,8,0:0:0:0:
154,141,35203,1,0,1:0:0:0:
160,176,35286,1,8,0:0:0:0:
167,211,35370,1,0,1:0:0:0:
176,246,35453,6,0,P|217:237|272:233,1,81,6|0,1:0|0:0,0:0:0:0:
395,292,35786,1,10,0:0:0:0:
352,123,35953,2,0,P|346:154|337:217,1,81,2|0,0:0|1:0,0:0:0:0:
450,129,36286,1,0,1:0:0:0:
287,48,36453,2,0,P|248:54|207:59,1,81,10|2,0:0|1:0,0:0:0:0:
72,217,36786,6,0,P|131:171|222:197,1,162,2|10,1:0|0:0,0:0:0:0:
183,10,37286,2,0,P|175:42|165:97,1,81,2|0,0:0|1:0,0:0:0:0:
308,217,37620,1,2,1:0:0:0:
259,62,37786,1,8,0:0:0:0:
134,171,37953,1,2,0:0:0:0:
353,115,38120,6,0,P|436:133|519:147,1,162,2|8,1:0|0:0,0:0:0:0:
364,263,38620,2,0,P|328:254|282:246,1,81,0|0,0:0|1:0,0:0:0:0:
506,179,38953,1,2,1:0:0:0:
458,360,39120,2,0,L|441:260,1,81,10|2,0:0|1:0,0:0:0:0:
251,103,39453,6,0,B|195:142|190:215|190:215|210:236,1,162,0|8,1:0|0:0,0:0:0:0:
211,237,40120,2,0,P|171:232|108:220,1,81,2|0,1:0|1:0,0:0:0:0:
19,352,40453,1,10,0:0:0:0:
150,316,40620,1,0,0:0:0:0:
42,237,40786,6,0,P|35:197|28:157,1,81,2|0,1:0|0:0,0:0:0:0:
203,116,41120,1,10,0:0:0:0:
107,12,41286,2,0,L|93:91,1,81,2|0,0:0|1:0,0:0:0:0:
250,35,41620,1,2,1:0:0:0:
177,248,41786,2,0,L|160:144,1,81,10|0,0:0|0:0,0:0:0:0:
330,196,42120,6,0,P|386:149|474:177,1,162,2|10,1:0|0:0,0:0:0:0:
290,287,42620,2,0,P|248:280|198:273,1,81,2|0,0:0|1:0,0:0:0:0:
411,236,42953,1,2,1:0:0:0:
336,384,43120,1,10,0:0:0:0:
250,168,43286,1,2,1:0:0:0:
129,308,43453,6,0,P|218:293|289:286,1,162,0|8,1:0|0:0,0:0:0:0:
133,154,43953,1,0,0:0:0:0:
37,376,44120,1,0,1:0:0:0:
210,268,44286,1,0,1:0:0:0:
23,98,44453,1,8,0:0:0:0:
59,246,44620,1,0,0:0:0:0:
145,49,44786,5,0,1:0:0:0:
308,146,44953,2,0,P|346:132|403:142,1,81,8|0,0:0|0:0,0:0:0:0:
499,225,45286,1,0,1:0:0:0:
499,225,45370,1,0,1:0:0:0:
499,225,45453,2,0,P|507:180|514:137,1,81,10|8,0:0|3:0,0:0:0:0:
380,248,45786,2,0,P|386:287|393:327,1,81,2|0,1:0|0:0,0:0:0:0:
209,373,46120,6,0,B|138:381|158:343|92:350,1,121.500004634857,6|2,1:0|0:0,0:0:0:0:
27,298,46620,1,2,1:0:0:0:
27,298,46786,2,0,P|80:243|136:267,1,121.500004634857,8|0,0:0|0:0,0:0:0:0:
201,193,47286,1,8,0:0:0:0:
131,111,47453,6,0,L|120:191,1,60.7500023174287,2|8,1:0|0:0,0:0:0:0:
226,52,47786,1,2,0:0:0:0:
226,52,47953,2,0,P|162:69|110:15,1,121.500004634857,2|0,1:0|0:0,0:0:0:0:
42,80,48453,1,0,0:0:0:0:
126,152,48620,1,8,0:0:0:0:
126,152,48703,1,8,0:0:0:0:
127,151,48786,6,0,B|196:131|176:173|244:157,1,121.500004634857,2|2,1:0|0:0,0:0:0:0:
215,4,49286,2,0,P|207:31|202:63,1,60.7500023174287,2|8,1:0|0:0,0:0:0:0:
298,47,49620,1,2,0:0:0:0:
117,25,49786,1,2,0:0:0:0:
246,140,49953,1,10,0:0:0:0:
246,140,50036,1,0,0:0:0:0:
246,140,50120,6,0,P|280:133|331:130,1,60.7500023174287,0|8,1:0|0:0,0:0:0:0:
434,55,50453,2,0,P|403:51|373:46,1,60.7500023174287,0|0,1:0|0:0,0:0:0:0:
387,219,50786,6,0,P|391:187|408:143,1,60.7500023174287,10|0,0:0|1:0,0:0:0:0:
475,317,51120,1,10,0:0:0:0:
442,309,51203,1,0,0:0:0:0:
409,314,51286,1,8,0:0:0:0:
383,336,51370,1,8,0:0:0:0:
361,363,51453,6,0,L|256:353,1,81,6|0,1:0|0:0,0:0:0:0:
310,159,51786,2,0,P|318:187|327:266,1,81,10|0,0:0|1:0,0:0:0:0:
173,381,52120,2,0,P|162:341|156:301,1,81,2|2,0:0|1:0,0:0:0:0:
361,363,52453,2,0,P|404:355|460:349,1,81,10|0,0:0|0:0,0:0:0:0:
387,237,52786,6,0,P|394:191|406:133,1,81,2|0,1:0|0:0,0:0:0:0:
252,36,53120,1,8,0:0:0:0:
281,207,53286,1,0,1:0:0:0:
89,173,53453,2,0,P|126:153|164:148,1,81,2|2,0:0|1:0,0:0:0:0:
292,308,53786,2,0,P|251:304|216:282,1,81,8|0,0:0|0:0,0:0:0:0:
390,121,54120,6,0,B|440:237|440:237|408:266|406:308,1,194.399994067383,6|8,1:0|0:0,0:0:0:0:
138,367,54620,2,0,P|212:292|313:329,1,194.399994067383,4|0,1:0|1:0,0:0:0:0:
171,63,55120,1,8,0:0:0:0:
58,225,55286,1,0,1:0:0:0:
58,225,55370,1,0,1:0:0:0:
58,225,55453,2,0,P|111:214|172:202,1,97.1999970336915,8|8,0:0|3:0,0:0:0:0:
306,35,55786,5,8,0:0:0:0:
309,64,55870,1,8,3:0:0:0:
312,97,55953,1,8,3:0:0:0:
315,135,56036,1,8,3:0:0:0:
319,183,56120,1,4,3:0:0:0:
319,183,56453,5,2,3:0:0:0:
325,286,56620,1,2,3:0:0:0:
407,121,56786,6,0,P|328:147|256:82,1,162,6|10,1:0|0:0,0:0:0:0:
96,279,57286,2,0,P|187:263|282:250,1,162,2|2,0:0|0:0,0:0:0:0:
343,51,57786,1,10,0:0:0:0:
150,149,57953,1,2,0:0:0:0:
339,322,58120,6,0,B|446:296|446:296|499:336,1,162,6|10,1:0|0:0,0:0:0:0:
279,93,58620,2,0,P|233:129|252:243,1,162,2|2,0:0|0:0,0:0:0:0:
385,66,59120,1,10,0:0:0:0:
126,138,59286,1,2,0:0:0:0:
351,245,59453,6,0,B|444:262|419:201|506:221,1,162,6|8,1:0|0:0,0:0:0:0:
304,353,59953,2,0,P|249:302|156:353,1,162,2|2,0:0|0:0,0:0:0:0:
65,105,60453,1,10,0:0:0:0:
263,222,60620,1,2,0:0:0:0:
89,374,60786,6,0,B|60:328|60:328|88:188,1,162,6|10,1:0|0:0,0:0:0:0:
333,304,61286,2,0,P|256:310|169:325,1,162,2|0,0:0|1:0,0:0:0:0:
304,174,61786,2,0,P|347:183|404:195,1,81,10|0,0:0|0:0,0:0:0:0:
208,83,62120,6,0,B|103:101|103:101|73:82|77:56,1,162,6|8,1:0|0:0,0:0:0:0:
236,173,62620,1,0,0:0:0:0:
134,268,62786,2,0,P|129:226|118:170,1,81,2|0,1:0|0:0,0:0:0:0:
311,302,63120,2,0,P|306:339|303:383,1,81,10|0,0:0|0:0,0:0:0:0:
486,250,63453,6,0,P|440:252|399:225,1,81,6|0,1:0|0:0,0:0:0:0:
259,126,63786,2,0,P|264:161|275:227,1,81,10|0,0:0|0:0,0:0:0:0:
371,73,64120,1,2,1:0:0:0:
141,193,64286,1,0,0:0:0:0:
367,328,64453,1,10,0:0:0:0:
367,328,64786,5,6,1:2:0:0:
259,126,64953,1,2,0:0:0:0:
424,208,65120,1,10,0:0:0:0:
258,349,65286,5,6,1:2:0:0:
371,73,65453,1,10,3:0:0:0:
267,238,65620,1,2,0:0:0:0:
470,102,65786,5,10,0:0:0:0:
162,199,65953,1,6,3:0:0:0:
424,350,66120,6,0,B|449:302|449:302|419:189,1,151.875,6|0,1:2|0:0,0:0:0:0:
360,146,66453,1,10,0:0:0:0:
154,303,66620,6,0,B|240:315|215:253|304:268,1,151.875,6|0,1:2|0:0,0:0:0:0:
361,329,66953,2,0,L|354:383,1,50.625,8|0,3:0|0:0,0:0:0:0:
499,170,67120,5,8,0:0:0:0:
451,188,67203,1,8,0:0:0:0:
401,177,67286,1,8,3:0:0:0:
360,146,67370,1,4,3:0:0:0:
347,98,67453,6,0,L|329:271,1,162,6|8,1:0|0:0,0:0:0:0:
146,376,67953,2,0,P|169:334|288:342,1,162,2|2,0:0|0:0,0:0:0:0:
413,384,68453,1,10,0:0:0:0:
277,169,68620,1,2,0:0:0:0:
448,93,68786,6,0,B|413:201|413:201|454:274,1,162,6|10,1:0|0:0,0:0:0:0:
189,130,69286,2,0,P|251:68|348:91,1,162,2|2,0:0|0:0,0:0:0:0:
214,236,69786,1,10,0:0:0:0:
89,57,69953,1,0,0:0:0:0:
30,324,70120,6,0,B|119:299|104:368|185:348,1,162,6|8,1:0|0:0,0:0:0:0:
283,204,70620,1,0,0:0:0:0:
393,328,70786,2,0,P|357:313|288:312,1,81,2|0,1:0|0:0,0:0:0:0:
127,180,71120,2,0,P|170:175|221:169,1,81,10|0,0:0|0:0,0:0:0:0:
425,98,71453,6,0,B|395:200|395:200|428:246,1,151.875,6|0,1:2|0:0,0:0:0:0:
421,237,71786,1,10,0:0:0:0:
269,340,71953,6,0,B|364:314|364:314|391:330|386:360,1,151.875,6|0,1:2|0:0,0:0:0:0:
387,359,72286,1,2,1:0:0:0:
261,108,72453,6,0,P|268:160|278:238,1,121.5,10|0,0:0|0:0,0:0:0:0:
255,257,72786,6,0,P|218:279|133:227,1,145.799995550537,4|0,1:0|0:0,0:0:0:0:
135,234,73286,1,0,1:0:0:0:
72,167,73453,2,0,P|106:149|158:146,1,72.8999977752686,10|0,0:0|0:0,0:0:0:0:
102,2,73786,2,0,P|94:37|88:74,1,72.8999977752686,2|0,0:0|0:0,0:0:0:0:
227,165,74120,5,2,1:0:0:0:
227,165,74286,2,0,B|319:143|319:143|338:150|364:179,1,145.799995550537,8|0,0:0|1:0,0:0:0:0:
331,24,74786,2,0,P|323:60|318:96,1,72.8999977752686,10|0,0:0|0:0,0:0:0:0:
448,185,75120,2,0,P|443:150|425:118,1,72.8999977752686,2|0,0:0|0:0,0:0:0:0:
335,267,75453,6,0,P|407:281|479:295,1,145.799995550537,2|0,1:0|0:0,0:0:0:0:
356,375,75953,1,2,1:0:0:0:
256,335,76120,2,0,P|221:339|169:349,1,72.8999977752686,10|0,0:0|0:0,0:0:0:0:
358,232,76453,2,0,P|393:236|445:246,1,72.8999977752686,12|0,0:0|0:0,0:0:0:0:
257,240,76786,5,8,0:0:0:0:
332,83,76953,1,0,1:0:0:0:
332,83,77120,1,0,1:0:0:0:
241,139,77286,5,8,3:0:0:0:
332,83,77453,1,0,0:0:0:0:
238,32,77620,1,0,1:0:0:0:
358,232,77786,1,10,0:0:0:0:
358,232,78120,6,0,P|401:221|451:210,1,81,6|0,1:0|0:0,0:0:0:0:
193,354,78453,1,8,0:0:0:0:
364,310,78620,1,10,0:0:0:0:
162,228,78786,1,8,0:0:0:0:
395,184,78953,1,8,0:0:0:0:
127,102,79120,2,0,L|59:121,1,40.5,8|0,0:0|0:0,0:0:0:0:
430,58,79286,1,4,3:0:0:0:
461,65,79370,1,4,3:0:0:0:
492,73,79453,1,0,1:0:0:0:
269,345,79786,6,0,P|260:269|251:194,1,151.875,14|0,0:0|0:0,0:0:0:0:
236,182,80120,1,6,3:0:0:0:
403,367,80286,1,2,1:0:0:0:
122,313,80453,1,10,0:0:0:0:
97,316,80536,1,8,0:0:0:0:
71,319,80620,1,8,0:0:0:0:
46,322,80703,1,8,0:0:0:0:
21,326,80786,6,0,P|26:281|36:226,1,81,4|0,1:0|0:0,0:0:0:0:
157,125,81120,1,8,0:0:0:0:
12,59,81286,1,2,0:0:0:0:
129,223,81453,2,0,P|171:214|223:206,1,81,2|0,1:0|0:0,0:0:0:0:
386,103,81786,2,0,P|346:101|306:88,1,81,10|0,0:0|0:0,0:0:0:0:
308,310,82120,6,0,L|418:291,1,81,2|0,1:0|0:0,0:0:0:0:
218,130,82453,2,0,P|204:170|217:228,1,81,8|2,0:0|0:0,0:0:0:0:
327,110,82786,1,2,1:0:0:0:
81,187,82953,1,0,0:0:0:0:
308,310,83120,1,10,0:0:0:0:
308,310,83453,5,2,1:0:0:0:
402,162,83620,1,0,0:0:0:0:
230,232,83786,1,10,0:0:0:0:
426,305,83953,1,0,1:0:0:0:
250,115,84120,1,2,0:0:0:0:
184,344,84286,1,0,1:0:0:0:
402,162,84453,1,10,0:0:0:0:
138,88,84620,6,0,B|33:109|33:109|-3:94|-1:59,1,162,2|2,1:0|1:0,0:0:0:0:
145,231,85120,2,0,P|185:220|234:212,1,81,10|0,0:0|0:0,0:0:0:0:
96,319,85453,1,2,1:0:0:0:
138,88,85620,1,2,0:0:0:0:
329,252,85786,1,10,0:0:0:0:
60,196,85953,1,2,0:0:0:0:
251,48,86120,6,0,P|245:86|238:137,1,81,6|0,1:0|0:0,0:0:0:0:
488,103,86453,2,0,P|446:95|395:77,1,81,10|0,0:0|0:0,0:0:0:0:
260,259,86786,1,2,1:0:0:0:
413,194,86953,1,0,0:0:0:0:
251,48,87120,1,10,0:0:0:0:
54,239,87286,6,0,P|110:192|215:221,1,162,2|0,0:0|0:0,0:0:0:0:
337,33,87786,1,10,0:0:0:0:
211,115,87953,1,2,1:0:0:0:
340,185,88120,1,0,0:0:0:0:
206,21,88286,2,0,P|167:28|114:40,1,81,2|8,1:0|0:0,0:0:0:0:
340,185,88620,6,0,P|418:166|498:151,1,162,6|2,1:0|1:0,0:0:0:0:
250,90,89120,1,10,0:0:0:0:
385,321,89286,1,2,0:0:0:0:
233,78,89453,1,2,1:0:0:0:
435,218,89620,1,2,0:0:0:0:
211,343,89786,1,10,0:0:0:0:
369,79,89953,6,0,B|468:44|468:44|514:79,1,162,6|10,1:0|0:0,0:0:0:0:
371,171,90453,2,0,P|335:167|281:161,1,81,0|8,0:0|3:0,0:0:0:0:
290,162,90703,1,8,3:0:0:0:
290,162,90786,1,4,3:0:0:0:
440,257,90953,1,4,3:0:0:0:
496,151,91120,1,2,3:0:0:0:
402,183,91286,1,2,0:0:0:0:
405,325,91453,6,0,P|462:330|500:378,1,109.349996662903,6|0,1:0|0:0,0:0:0:0:
495,366,91786,2,0,P|501:327|510:289,1,72.8999977752686,2|2,1:0|0:0,0:0:0:0:
405,153,92120,1,0,1:0:0:0:
437,250,92286,1,2,0:0:0:0:
505,176,92453,1,2,1:0:0:0:
342,221,92620,1,2,0:0:0:0:
424,349,92786,6,0,B|449:316|449:316|434:237,1,109.349996662903,2|0,1:0|0:0,0:0:0:0:
424,230,93120,1,0,1:0:0:0:
338,312,93286,2,0,L|352:409,1,72.8999977752686
196,289,93620,2,0,P|232:291|266:281,1,72.8999977752686
342,221,93953,1,2,0:0:0:0:
233,372,94120,6,0,P|161:359|89:346,2,145.799995550537,2|0|0,1:0|1:0|1:0,0:0:0:0:
264,214,94953,1,2,0:0:0:0:
164,272,95120,1,2,1:0:0:0:
263,364,95286,1,2,0:0:0:0:
349,270,95453,6,0,P|387:275|426:294,1,72.8999977752686,0|0,1:0|0:0,0:0:0:0:
503,155,95786,2,0,P|458:175|421:179,1,72.8999977752686,0|0,1:0|0:0,0:0:0:0:
355,102,96120,2,0,P|360:66|369:7,1,72.8999977752686,0|0,1:0|0:0,0:0:0:0:
242,139,96453,2,0,P|247:175|252:211,1,72.8999977752686,0|2,1:0|0:0,0:0:0:0:
361,289,96786,6,0,B|445:300|418:251|501:267,1,145.799995550537,2|2,1:0|1:0,0:0:0:0:
323,211,97286,2,0,P|277:249|296:347,1,145.799995550537,2|0,0:0|0:0,0:0:0:0:
409,197,97786,1,0,1:0:0:0:
355,97,97953,1,2,0:0:0:0:
249,158,98120,6,0,P|185:148|94:136,1,145.799995550537,2|2,1:0|1:0,0:0:0:0:
79,238,98620,2,0,P|131:230|160:215,1,72.8999977752686,2|0,0:0|0:0,0:0:0:0:
255,353,98953,2,0,P|206:303|119:333,1,145.799995550537,2|0,0:0|0:0,0:0:0:0:
31,361,99453,6,0,P|24:300|17:240,1,121.500004634857,6|0,1:0|0:0,0:0:0:0:
1,152,99953,1,0,0:0:0:0:
1,152,100286,2,0,P|65:163|105:112,1,121.500004634857,0|0,0:0|0:0,0:0:0:0:
225,190,100786,6,0,P|209:110|193:31,2,162,2|12|0,1:0|0:0|1:0,0:0:0:0:
309,69,101620,1,8,0:0:0:0:
114,136,101786,1,8,0:0:0:0:
85,130,101870,1,8,0:0:0:0:
57,125,101953,1,10,0:0:0:0:
29,120,102036,1,8,0:0:0:0:
1,112,102120,6,0,P|65:105|100:83,1,81,6|0,1:0|0:0,0:0:0:0:
265,76,102453,1,10,0:0:0:0:
178,0,102620,2,0,L|157:108,1,81,2|0,0:0|1:0,0:0:0:0:
336,144,102953,1,2,1:0:0:0:
242,261,103120,2,0,P|235:218|226:164,1,81,8|2,0:0|1:0,0:0:0:0:
181,330,103453,6,0,P|255:352|320:307,1,162,2|10,1:0|0:0,0:0:0:0:
139,222,103953,2,0,P|102:227|28:243,1,81,2|0,1:0|1:0,0:0:0:0:
242,261,104286,1,2,1:0:0:0:
221,73,104453,2,0,P|213:113|202:181,1,81,8|2,0:0|0:0,0:0:0:0:
337,231,104786,6,0,B|394:238|443:248|443:248|463:178,1,162,2|8,1:0|0:0,0:0:0:0:
313,21,105286,1,0,0:0:0:0:
390,146,105453,1,0,1:0:0:0:
487,40,105620,1,2,1:0:0:0:
278,100,105786,2,0,P|236:91|175:83,1,81,10|2,0:0|1:0,0:0:0:0:
85,185,106120,6,0,P|73:104|61:24,1,162,0|8,1:0|0:0,0:0:0:0:
157,272,106786,2,0,P|120:294|65:299,1,81,2|0,1:0|1:0,0:0:0:0:
237,151,107120,2,0,P|276:158|310:179,1,81,10|0,0:0|0:0,0:0:0:0:
112,94,107453,6,0,P|116:132|121:180,1,81,2|0,1:0|0:0,0:0:0:0:
194,340,107786,1,10,0:0:0:0:
0,297,107953,2,0,P|35:279|96:278,1,81,2|0,0:0|1:0,0:0:0:0:
194,340,108286,1,2,1:0:0:0:
175,133,108453,2,0,P|167:169|155:229,1,81,10|0,0:0|0:0,0:0:0:0:
291,334,108786,6,0,B|383:306|361:372|449:350,1,162,2|10,1:0|0:0,0:0:0:0:
363,151,109286,2,0,P|355:190|347:230,1,81,2|0,0:0|0:0,0:0:0:0:
473,156,109620,1,2,1:0:0:0:
246,216,109786,1,10,0:0:0:0:
447,351,109953,1,2,1:0:0:0:
378,104,110120,6,0,P|364:183|349:263,1,162,0|8,1:0|0:0,0:0:0:0:
447,351,110620,1,0,0:0:0:0:
238,264,110786,1,0,1:0:0:0:
463,212,110953,1,0,1:0:0:0:
214,265,111120,1,8,0:0:0:0:
447,351,111286,1,0,1:0:0:0:
288,100,111453,5,0,1:0:0:0:
114,261,111620,2,0,P|157:251|216:248,1,81,8|0,0:0|0:0,1:0:0:0:
35,126,111953,1,0,0:0:0:0:
35,126,112036,1,8,0:0:0:0:
35,126,112120,2,0,P|9:161|16:225,1,81,10|0,0:0|0:0,0:0:0:0:
188,84,112453,2,0,P|179:42|168:-12,1,81,6|4,1:3|0:3,0:0:0:0:
93,188,112786,6,0,P|146:165|211:181,1,121.500004634857,6|2,1:0|0:0,0:0:0:0:
319,89,113286,1,2,1:0:0:0:
318,89,113453,2,0,P|259:78|199:69,1,121.500004634857,8|0,0:0|0:0,0:0:0:0:
127,116,113953,1,8,0:0:0:0:
69,52,114120,6,0,P|94:35|123:27,1,60.7500023174287,2|8,1:0|0:0,0:0:0:0:
19,132,114453,1,2,0:0:0:0:
19,132,114620,2,0,L|7:2,1,121.500004634857,2|0,1:0|0:0,0:0:0:0:
103,90,115120,2,0,P|98:122|92:164,1,60.7500023174287,0|8,0:0|0:0,0:0:0:0:
121,187,115370,1,8,0:0:0:0:
121,187,115453,6,0,P|191:159|243:178,1,121.500004634857,2|2,1:0|0:0,0:0:0:0:
196,309,115953,2,0,L|182:227,1,60.7500023174287,2|8,1:0|0:0,0:0:0:0:
305,291,116286,1,2,0:0:0:0:
284,384,116453,1,2,0:0:0:0:
411,298,116620,6,0,P|442:302|475:318,1,60.7500023174287,10|0,0:0|1:0,0:0:0:0:
329,194,116953,2,0,P|301:206|271:209,1,60.7500023174287,8|0,0:0|1:0,0:0:0:0:
447,59,117453,6,0,P|442:89|434:136,1,60.7500023174287,10|0,0:0|1:0,0:0:0:0:
196,86,117786,1,10,0:0:0:0:
228,79,117870,1,0,0:0:0:0:
260,72,117953,1,8,0:0:0:0:
292,65,118036,1,8,0:0:0:0:
324,55,118120,6,0,P|248:47|230:43,1,81,6|0,1:0|0:0,0:0:0:0:
60,193,118453,2,0,P|98:172|147:172,1,81,10|0,0:0|1:0,0:0:0:0:
281,251,118786,2,0,L|292:170,1,81,2|2,0:0|1:0,0:0:0:0:
126,304,119120,2,0,L|137:384,1,81,10|0,0:0|0:0,0:0:0:0:
356,336,119453,6,0,P|426:347|456:358,1,81,2|0,1:0|0:0,0:0:0:0:
181,203,119786,2,0,L|76:224,1,81,8|0,0:0|1:0,0:0:0:0:
310,97,120120,1,2,0:0:0:0:
288,261,120286,1,2,1:0:0:0:
452,123,120453,2,0,P|443:81|430:35,1,81,8|0,0:0|0:0,0:0:0:0:
288,261,120786,6,0,B|347:273|365:319|365:319|406:286|454:299,1,194.399994067383,6|8,1:0|0:0,0:0:0:0:
284,162,121286,2,0,B|147:188|147:188|118:167|124:106,1,194.399994067383,4|0,1:0|1:0,0:0:0:0:
330,282,121786,1,8,0:0:0:0:
422,135,121953,1,0,1:0:0:0:
422,135,122036,1,0,1:0:0:0:
422,135,122120,2,0,L|400:13,1,97.1999970336915,8|8,0:0|3:0,0:0:0:0:
330,282,122453,5,8,0:0:0:0:
360,297,122536,1,8,3:0:0:0:
399,298,122620,1,8,3:0:0:0:
440,283,122703,1,8,3:0:0:0:
469,244,122786,1,4,3:0:0:0:
225,104,123120,5,2,3:0:0:0:
111,129,123286,1,2,3:0:0:0:
297,28,123453,6,0,P|285:108|274:188,1,162,6|10,1:0|0:0,0:0:0:0:
381,336,123953,2,0,P|452:360|516:286,1,162,2|2,0:0|0:0,0:0:0:0:
274,188,124453,1,10,0:0:0:0:
306,384,124620,1,2,0:0:0:0:
114,274,124786,6,0,B|207:257|182:318|269:298,1,162,6|10,1:0|0:0,0:0:0:0:
411,148,125286,2,0,P|329:139|240:127,1,162,2|2,0:0|0:0,0:0:0:0:
398,294,125786,1,10,0:0:0:0:
481,56,125953,1,2,0:0:0:0:
250,128,126120,6,0,B|145:146|145:146|115:127|119:101,1,162,6|8,1:0|0:0,0:0:0:0:
11,340,126620,2,0,P|54:292|147:325,1,162,2|2,0:0|0:0,0:0:0:0:
276,381,127120,1,10,0:0:0:0:
213,157,127286,1,2,0:0:0:0:
470,290,127453,6,0,P|392:278|309:265,1,162,6|10,1:0|0:0,0:0:0:0:
67,384,127953,2,0,P|128:328|227:359,1,162,2|0,0:0|1:0,0:0:0:0:
71,139,128453,2,0,P|55:178|57:218,1,81,10|0,0:0|0:0,0:0:0:0:
287,362,128786,6,0,B|391:331|391:331|443:365,1,162,6|8,1:0|0:0,0:0:0:0:
340,148,129286,1,0,0:0:0:0:
504,257,129453,2,0,P|466:240|389:245,1,81,2|0,1:0|0:0,0:0:0:0:
286,361,129786,2,0,P|280:319|274:281,1,81,10|0,0:0|0:0,0:0:0:0:
355,68,130120,6,0,P|347:105|338:158,1,81,6|0,1:0|0:0,0:0:0:0:
92,84,130453,2,0,P|135:85|192:63,1,81,10|0,0:0|0:0,0:0:0:0:
209,313,130786,1,2,1:0:0:0:
136,178,130953,1,0,0:0:0:0:
425,207,131120,1,10,0:0:0:0:
425,207,131453,5,6,1:2:0:0:
209,313,131620,1,2,0:0:0:0:
438,202,131786,1,10,0:0:0:0:
268,50,131953,5,6,1:2:0:0:
314,286,132120,1,10,3:0:0:0:
266,36,132286,1,2,0:0:0:0:
438,202,132453,5,10,0:0:0:0:
155,148,132620,1,6,3:0:0:0:
372,62,132786,6,0,P|441:46|502:115,1,151.875,6|0,1:2|0:0,0:0:0:0:
431,173,133120,2,0,P|426:146|424:119,1,50.625,10|0,0:0|0:0,0:0:0:0:
506,297,133286,6,0,B|460:266|460:266|417:305|350:288,1,151.875,6|0,1:2|0:0,0:0:0:0:
292,254,133620,2,0,P|296:276|301:319,1,50.625,8|0,3:0|0:0,0:0:0:0:
122,375,133786,5,8,0:0:0:0:
126,324,133870,1,8,0:0:0:0:
130,273,133953,1,8,3:0:0:0:
135,222,134036,1,4,3:0:0:0:
139,175,134120,6,0,P|71:211|-1:174,1,162,6|8,1:0|0:0,0:0:0:0:
256,58,134620,2,0,B|222:173|222:173|262:238,1,162,2|2,0:0|0:0,0:0:0:0:
126,47,135120,1,10,0:0:0:0:
339,154,135286,1,2,0:0:0:0:
176,289,135453,6,0,P|111:291|1:299,1,162,6|10,1:0|0:0,0:0:0:0:
244,208,135953,2,0,P|282:252|257:362,1,162,2|2,0:0|0:0,0:0:0:0:
143,165,136453,1,10,0:0:0:0:
389,254,136620,1,0,0:0:0:0:
157,362,136786,6,0,B|53:331|53:331|1:365,1,162,6|8,1:0|0:0,0:0:0:0:
186,156,137286,1,0,0:0:0:0:
79,226,137453,2,0,P|43:231|-6:241,1,81,2|0,1:0|0:0,0:0:0:0:
209,138,137786,2,0,P|245:143|294:153,1,81,10|0,0:0|0:0,0:0:0:0:
129,20,138120,6,0,B|77:58|78:123|78:123|103:152,1,151.875,6|0,1:0|0:0,0:0:0:0:
98,147,138453,1,10,0:0:0:0:
220,298,138620,6,0,P|152:311|61:331,1,151.875,6|0,1:0|0:0,0:0:0:0:
71,328,138953,1,2,1:0:0:0:
249,198,139120,6,0,P|312:229|378:194,1,121.5,10|0,0:0|0:0,0:0:0:0:
374,187,139453,6,0,P|360:116|346:44,1,145.799995550537,6|0,1:0|0:0,0:0:0:0:
346,44,139953,1,0,1:0:0:0:
512,109,140120,2,0,P|471:116|433:102,1,72.8999977752686,10|0,0:0|0:0,0:0:0:0:
357,214,140453,2,0,P|393:209|438:204,1,72.8999977752686,2|0,0:0|0:0,0:0:0:0:
334,338,140786,5,2,1:0:0:0:
334,338,140953,2,0,B|300:317|263:330|263:330|238:299|190:295,1,145.799995550537,8|0,0:0|1:0,0:0:0:0:
115,362,141453,2,0,P|109:326|102:290,1,72.8999977752686,10|0,0:0|0:0,0:0:0:0:
187,213,141786,2,0,P|225:221|263:230,1,72.8999977752686,2|0,0:0|0:0,0:0:0:0:
133,146,142120,6,0,P|88:181|-9:154,1,145.799995550537,2|0,1:0|0:0,0:0:0:0:
136,66,142620,1,2,1:0:0:0:
136,66,142786,2,0,P|174:71|216:79,1,72.8999977752686,10|0,0:0|0:0,0:0:0:0:
60,18,143120,2,0,P|46:59|50:93,1,72.8999977752686,12|0,0:0|0:0,0:0:0:0:
163,257,143453,5,8,0:0:0:0:
21,187,143620,1,0,1:0:0:0:
147,245,143786,1,0,1:0:0:0:
28,318,143953,5,8,3:0:0:0:
133,135,144120,1,0,0:0:0:0:
21,187,144286,1,0,1:0:0:0:
147,245,144453,1,10,0:0:0:0:
390,350,144786,6,0,P|431:340|491:329,1,81,6|0,1:0|0:0,0:0:0:0:
294,177,145120,1,8,0:0:0:0:
216,369,145286,1,8,0:0:0:0:
431,218,145453,1,8,0:0:0:0:
174,110,145620,1,8,0:0:0:0:
402,12,145786,5,8,0:0:0:0:
396,35,145870,1,0,0:0:0:0:
391,58,145953,1,4,3:0:0:0:
386,81,146036,1,4,3:0:0:0:
381,105,146120,1,0,1:0:0:0:
50,362,146453,6,0,P|100:307|188:332,1,151.875,14|0,0:0|0:0,0:0:0:0:
192,338,146786,2,0,P|242:330|292:323,1,101.25,6|2,3:0|1:0,0:0:0:0:
452,373,147120,1,10,0:0:0:0:
386,164,147286,1,8,0:0:0:0:
386,164,147370,1,8,0:0:0:0:
386,164,147453,6,0,P|365:203|364:265,1,91.125003476143,0|0,1:0|0:0,0:0:0:0:
480,122,147786,6,0,B|438:101|394:126|394:126|367:80|320:79,1,182.250006952286,12|0,0:0|0:0,0:0:0:0:
240,111,148120,1,8,3:0:0:0:
421,17,148286,1,8,3:0:0:0:
360,249,148453,1,8,0:0:0:0:
102,189,148620,6,0,B|216:152|216:152|251:173|244:219,1,182.250006952286,4|0,1:0|0:0,0:0:0:0:
188,269,148953,1,8,0:0:0:0:
239,23,149120,1,8,0:0:0:0:
492,173,149286,6,0,P|414:161|272:141,1,182.250006952286,12|0,0:0|0:0,0:0:0:0:
290,154,149620,2,0,P|295:182|299:232,1,60.7500023174287,0|0,1:0|0:0,0:0:0:0:
230,376,149786,6,0,P|233:341|239:304,1,60.75,12|0,0:0|0:0,0:0:0:0:
172,251,150120,6,0,B|134:197|70:212|70:212|49:248|3:258,2,178.200005438233,6|8|0,1:0|0:0|1:0,0:0:0:0:
324,69,150953,1,2,0:0:0:0:
169,139,151120,1,10,0:0:0:0:
321,275,151286,2,0,P|332:228|313:178,1,89.1000027191163,2|0,3:2|0:0,0:0:0:0:
223,354,151620,5,2,0:0:0:0:
427,285,151786,1,10,0:0:0:0:
232,231,151953,5,2,0:0:0:0:
342,361,152120,1,2,1:0:0:0:
373,152,152286,5,2,0:0:0:0:
292,297,152453,1,10,0:0:0:0:
125,252,152620,1,2,3:2:0:0:
229,68,152786,6,0,B|265:177|265:177|228:238,2,178.200005438233,2|8|0,1:0|0:0|1:0,0:0:0:0:
46,273,153620,2,0,P|82:248|130:254,1,89.1000027191163,2|8,0:0|0:0,0:0:0:0:
221,333,153953,1,2,3:2:0:0:
311,173,154120,5,2,1:0:0:0:
412,116,154286,1,2,0:0:0:0:
468,218,154453,1,10,0:0:0:0:
367,274,154620,1,2,0:0:0:0:
347,293,154786,6,0,L|259:275,1,89.1000027191163,0|0,0:0|0:0,0:0:0:0:
82,369,155120,1,8,0:0:0:0:
303,80,155453,5,0,1:0:0:0:
179,116,155620,1,2,0:0:0:0:
292,202,155786,5,10,0:0:0:0:
230,20,155953,1,2,0:0:0:0:
186,220,156120,5,2,1:0:0:0:
396,173,156286,1,2,0:0:0:0:
179,116,156453,1,10,0:0:0:0:
279,373,156620,6,0,P|338:328|411:339,1,151.875,6|0,1:0|0:0,0:0:0:0:
493,373,156953,2,0,P|489:343|486:318,1,44.5500013595581,2|0,1:0|0:0,0:0:0:0:
471,229,157120,5,10,0:0:0:0:
224,278,157286,1,2,1:0:0:0:
324,312,157453,1,2,0:0:0:0:
176,157,157620,5,10,3:2:0:0:
116,361,157787,1,4,3:0:0:0:
324,312,157953,1,10,3:2:0:0:
51,187,158120,5,10,0:0:0:0:
284,108,158286,1,10,0:0:0:0:
341,119,158370,1,10,0:0:0:0:
397,132,158453,1,10,0:0:0:0:
188,33,158620,6,0,L|163:37,1,22.2750006797791,14|0,0:0|0:0,0:0:0:0:
324,312,158953,6,0,L|360:305,1,22.2750006797791,10|0,0:0|0:0,0:0:0:0:
159,208,159286,6,0,L|68:221,1,91.125003476143,10|0,3:2|0:0,0:0:0:0:
5,146,159620,6,0,P|13:117|35:155,1,97.1999970336915,2|10,1:0|0:0,0:0:0:0:
73,7,159953,6,0,L|85:82,1,48.5999985168458,2|0,1:0|0:0,0:0:0:0:
148,120,160120,2,0,L|136:195,1,48.5999985168458,2|0,0:0|0:0,0:0:0:0:
197,238,160286,5,0,1:0:0:0:
227,206,160370,1,0,1:0:0:0:
270,203,160453,1,10,0:0:0:0:
304,230,160536,1,8,0:0:0:0:
313,272,160620,1,10,0:0:0:0:
295,311,160703,1,0,0:0:0:0:
253,322,160786,6,0,B|331:296|316:350|389:326,1,133.650004078674,6|0,1:0|0:0,0:0:0:0:
444,268,161120,2,0,P|437:223|429:180,1,89.1000027191163,8|0,0:0|0:0,0:0:0:0:
340,68,161453,1,0,1:0:0:0:
512,168,161620,1,0,0:0:0:0:
327,238,161786,2,0,P|282:231|225:228,1,89.1000027191163,8|0,0:0|3:0,0:0:0:0:
62,86,162120,5,0,1:0:0:0:
224,130,162286,1,0,0:0:0:0:
42,80,162453,1,8,0:0:0:0:
168,22,162620,1,0,3:0:0:0:
146,289,162786,6,0,B|112:244|112:244|144:110,1,178.200005438233,2|8,1:0|0:0,0:0:0:0:
243,314,163286,1,2,0:0:0:0:
243,314,163370,1,2,0:0:0:0:
243,314,163453,6,0,B|139:307|182:366|78:361,1,178.200005438233,2|8,1:0|0:0,0:0:0:0:
0,239,163953,2,0,L|108:255,1,89.1000027191163,0|0,3:0|1:0,0:0:0:0:
272,36,164286,5,2,0:0:0:0:
92,134,164453,1,10,0:0:0:0:
283,223,164620,6,0,P|370:209|459:196,1,178.200005438233,6|2,1:0|1:0,0:0:0:0:
512,270,165036,1,0,0:0:0:0:
497,297,165120,1,10,0:0:0:0:
345,155,165286,6,0,B|317:91|391:37|391:37|385:109,1,178.200005438233,2|0,0:0|1:0,0:0:0:0:
211,214,165786,2,0,P|160:172|94:172,1,133.650004078674,10|0,0:0|0:0,0:0:0:0:
27,220,166120,6,0,P|19:173|11:119,1,89.1000027191163,2|2,1:0|0:0,0:0:0:0:
130,262,166453,1,10,0:0:0:0:
2,383,166620,2,0,P|80:334|168:359,1,178.200005438233,2|0,0:0|1:0,0:0:0:0:
27,220,167120,1,10,0:0:0:0:
167,123,167286,5,6,1:0:0:0:
130,262,167453,1,2,0:0:0:0:
326,358,167620,1,2,1:0:0:0:
289,219,167787,1,10,0:0:0:0:
129,370,167953,1,2,0:0:0:0:
146,348,168120,6,0,P|142:304|130:262,1,89.1000027191163,0|0,1:0|1:0,0:0:0:0:
0,172,168453,2,0,P|53:182|113:115,1,133.650004078674,8|0,0:0|0:0,0:0:0:0:
84,36,168786,5,10,0:0:0:0:
235,306,168953,1,10,0:0:0:0:
509,148,169286,6,0,L|469:158,1,22.2750006797791,10|0,0:0|0:0,0:0:0:0:
3,148,169620,6,0,L|43:158,1,22.2750006797791,10|0,0:0|0:0,0:0:0:0:
245,31,169953,6,0,B|216:143|216:143|256:192,1,178.200005438233,6|8,1:0|0:0,0:0:0:0:
127,329,170453,1,8,0:0:0:0:
383,263,170620,1,8,0:0:0:0:
110,165,170786,1,10,0:0:0:0:
406,268,170953,1,8,0:0:0:0:
238,376,171120,6,0,L|229:300,1,44.5500013595581,8|8,0:0|0:0,0:0:0:0:
337,111,171286,2,0,L|346:187,1,44.5500013595581,8|4,3:0|3:0,0:0:0:0:
16,201,171453,5,6,1:0:0:0:
307,201,182120,6,0,P|328:222|349:243,1,60.7500023174287,4|0,1:0|0:0,0:0:0:0:
297,113,182453,2,0,P|305:83|312:54,1,60.7500023174287,8|0,0:0|0:0,0:0:0:0:
222,165,182786,2,0,P|189:172|144:187,1,60.7500023174287,8|0,0:0|0:0,0:0:0:0:
55,57,183120,5,8,0:0:0:0:
187,84,183286,1,2,1:0:0:0:
74,214,183453,6,0,P|69:184|62:142,1,60.7500023174287,10|0,1:2|0:0,0:0:0:0:
167,264,183786,2,0,L|157:323,1,60.7500023174287,10|0,0:0|0:0,0:0:0:0:
70,364,184120,2,0,P|37:356|-10:354,1,60.7500023174287,10|0,0:0|0:0,0:0:0:0:
225,378,184453,2,0,P|258:370|305:368,1,60.7500023174287,10|0,0:0|0:0,0:0:0:0:
385,284,184786,6,0,P|405:219|357:174,1,121.500004634857,10|8,1:2|0:0,0:0:0:0:
366,173,185453,2,0,P|425:158|441:155,1,60.7500023174287,10|0,0:0|0:0,0:0:0:0:
340,81,185786,5,8,0:0:0:0:
256,132,185953,2,0,P|188:134|151:82,1,121.500004634857,2|0,1:0|1:0,0:0:0:0:
49,188,186453,2,0,P|84:178|124:171,1,60.7500023174287,8|0,0:0|0:0,0:0:0:0:
267,342,186786,5,10,0:0:0:0:
111,279,186953,1,0,1:0:0:0:
269,224,187120,1,10,0:0:0:0:
78,347,187286,6,0,P|57:222|43:166,1,162,6|2,1:0|1:0,0:0:0:0:
172,47,187786,2,0,P|165:86|158:126,1,81,10|0,0:0|0:0,0:0:0:0:
269,224,188120,6,0,B|357:239|337:177|426:193,1,162,2|10,1:0|0:0,0:0:0:0:
312,42,188620,2,0,P|297:105|295:133,1,81,2|0,1:0|0:0,0:0:0:0:
404,57,188953,1,2,1:0:0:0:
213,19,189120,2,0,P|174:29|30:64,1,162,10|0,0:0|1:0,0:0:0:0:
48,264,189620,5,2,1:0:0:0:
191,195,189786,1,10,0:0:0:0:
0,166,189953,6,0,B|73:132|116:163|116:163|93:223,1,162,6|0,1:0|1:0,0:0:0:0:
303,349,190453,5,8,0:0:0:0:
365,126,190620,1,0,1:0:0:0:
182,317,190786,1,8,0:0:0:0:
418,302,190953,5,2,1:0:0:0:
254,61,191120,1,10,0:0:0:0:
303,349,191286,1,6,1:0:0:0:
49,117,191620,5,8,0:0:0:0:
260,183,191786,1,8,0:0:0:0:
34,110,191953,1,8,0:0:0:0:
254,61,192120,1,8,0:0:0:0:
80,266,192286,6,0,L|24:258,1,40.5,8|8,0:0|0:0,0:0:0:0:
163,353,192453,1,10,0:0:0:0:
184,323,192536,1,8,0:0:0:0:
219,312,192620,1,8,0:0:0:0:
255,315,192703,1,8,0:0:0:0:
287,330,192786,6,0,L|299:328,1,10.125,14|0,0:0|0:0,0:0:0:0:
481,91,194120,6,0,L|476:107,1,10.125,6|0,1:0|0:0,0:0:0:0:
147,133,194953,5,2,0:0:0:0:
147,133,195120,5,2,0:0:0:0:
147,133,195286,5,2,0:0:0:0:
309,177,195453,6,0,B|435:147|435:147|485:189,1,178.200005438233,4|8,1:0|0:0,0:0:0:0:
228,363,195953,2,0,P|220:286|211:220,1,133.650004078674,4|0,1:0|0:0,0:0:0:0:
221,200,196286,6,0,L|236:134,1,44.5500013595581,8|8,0:0|0:0,0:0:0:0:
156,146,196453,2,0,L|146:189,1,44.5500013595581,8|8,0:0|0:0,0:0:0:0:
71,177,196620,2,0,L|80:133,1,44.5500013595581,8|0,0:0|0:0,0:0:0:0:
9,269,196786,5,4,1:0:0:0:
119,347,196953,1,8,0:0:0:0:
158,342,197036,1,8,0:0:0:0:
198,336,197120,1,8,3:0:0:0:
237,330,197203,1,0,0:0:0:0:
276,325,197286,1,4,1:0:0:0:
392,362,197453,5,8,0:0:0:0:
395,344,197536,1,8,3:0:0:0:
398,326,197620,1,8,3:0:0:0:
401,308,197703,1,4,3:0:0:0:
405,290,197786,5,4,1:0:0:0:
434,261,197870,1,8,3:0:0:0:
434,221,197953,1,4,3:0:0:0:
407,190,198036,1,4,3:0:0:0:
366,185,198120,6,0,P|286:199|206:214,1,162,6|8,1:0|0:0,0:0:0:0:
387,100,198620,1,0,3:0:0:0:
286,13,198786,2,0,P|276:52|268:92,1,81,2|0,1:0|0:0,0:0:0:0:
494,152,199120,2,0,P|503:112|511:72,1,81,14|0,0:0|0:0,0:0:0:0:
366,185,199453,6,0,P|371:221|379:275,1,81,0|0,1:2|0:0,0:0:0:0:
161,149,199786,2,0,P|199:153|257:130,1,81,10|0,0:0|3:0,0:0:0:0:
368,48,200120,1,6,1:0:0:0:
136,140,200286,1,0,1:0:0:0:
304,297,200453,1,14,0:0:0:0:
304,297,200786,5,6,1:2:0:0:
256,67,200953,1,2,0:0:0:0:
239,361,201120,1,10,0:0:0:0:
375,149,201286,5,6,1:2:0:0:
141,211,201453,1,10,3:0:0:0:
304,297,201620,1,2,0:0:0:0:
137,60,201786,5,10,0:0:0:0:
210,271,201953,1,6,3:0:0:0:
0,175,202120,6,0,B|106:154|106:154|88:176|80:216,1,151.875,6|0,1:2|0:0,0:0:0:0:
170,207,202453,2,0,P|199:200|234:191,1,50.625,10|0,0:0|0:0,0:0:0:0:
381,366,202620,6,0,P|318:312|238:342,1,151.875,6|0,1:2|0:0,0:0:0:0:
184,372,202953,2,0,P|174:345|173:312,1,50.625,8|0,3:0|0:0,0:0:0:0:
331,140,203120,5,8,0:0:0:0:
328,185,203203,1,8,0:0:0:0:
325,230,203286,1,8,3:0:0:0:
322,275,203370,1,4,3:0:0:0:
320,320,203453,6,0,P|395:278|474:308,1,162,2|14,1:0|0:0,0:0:0:0:
237,176,203953,2,0,P|158:190|78:204,1,162,2|2,0:0|0:0,0:0:0:0:
249,66,204453,1,14,0:0:0:0:
421,180,204620,1,2,0:0:0:0:
234,359,204786,6,0,B|204:312|204:312|234:180,1,162,6|14,1:0|0:0,0:0:0:0:
456,346,205286,2,0,P|390:289|309:298,1,162,2|2,0:0|0:0,0:0:0:0:
145,357,205786,1,12,0:0:0:0:
243,128,205953,1,2,0:0:0:0:
41,236,206120,6,0,P|84:229|125:223,1,81,6|0,1:0|0:0,0:0:0:0:
224,309,206453,1,14,0:0:0:0:
385,145,206620,2,0,P|303:167|230:104,1,162,2|2,0:0|0:0,0:0:0:0:
448,55,207120,1,14,0:0:0:0:
376,296,207286,1,2,0:0:0:0:
156,176,207453,6,0,P|220:163|330:144,1,151.875,6|0,1:0|0:0,0:0:0:0:
305,148,207786,1,10,0:0:0:0:
67,328,207953,6,0,B|65:289|86:265|86:265|64:167,1,151.875,6|0,1:0|0:0,0:0:0:0:
67,182,208286,1,2,1:0:0:0:
376,296,208453,5,10,0:0:0:0:
151,318,208620,1,2,1:0:0:0:
285,162,208786,6,0,P|351:133|407:170,1,121.500004634857,4|0,1:0|0:0,0:0:0:0:
500,61,209286,1,0,1:0:0:0:
416,14,209453,2,0,P|421:46|427:83,1,60.7500023174287,10|0,0:0|0:0,0:0:0:0:
494,162,209786,2,0,P|498:131|505:101,1,60.7500023174287,2|0,0:0|0:0,0:0:0:0:
399,189,210120,5,2,1:0:0:0:
399,189,210286,2,0,B|330:169|350:211|282:195,1,121.500004634857,8|0,0:0|1:0,0:0:0:0:
293,59,210786,2,0,P|301:88|305:118,1,60.7500023174287,10|0,0:0|0:0,0:0:0:0:
191,194,211120,2,0,P|182:164|178:134,1,60.7500023174287,2|0,0:0|0:0,0:0:0:0:
299,218,211453,6,0,P|292:279|284:339,1,121.500004634857,6|0,1:2|0:2,0:0:0:0:
372,293,211953,1,2,1:0:0:0:
207,220,212120,2,0,P|211:252|215:289,1,60.7500023174287,10|0,0:0|0:0,0:0:0:0:
380,147,212453,2,0,P|376:177|372:207,1,60.7500023174287,12|0,0:0|0:0,0:0:0:0:
324,70,212786,5,8,0:0:0:0:
236,138,212953,1,0,1:0:0:0:
128,113,213120,1,0,1:0:0:0:
244,27,213286,5,8,3:0:0:0:
298,249,213453,1,0,0:0:0:0:
236,138,213620,1,0,1:0:0:0:
294,266,213786,1,10,0:0:0:0:
294,266,214120,5,4,1:0:0:0:
360,88,214286,1,0,1:0:0:0:
338,357,214453,1,0,1:0:0:0:
175,191,214620,5,14,0:0:0:0:
433,263,214786,1,2,1:0:0:0:
221,384,214953,1,0,1:0:0:0:
360,88,215120,6,0,L|372:155,1,40.5,12|0,0:0|0:0,0:0:0:0:
386,79,215286,2,0,L|398:146,1,40.5,0|0,1:0|0:0,0:0:0:0:
146,41,215453,5,12,0:0:0:0:
146,41,216120,5,0,0:0:0:0:
267,136,216286,2,0,B|336:178|393:137|393:137|350:135|311:99,1,194.399994067383,10|0,0:0|0:0,0:0:0:0:
173,277,216786,5,4,1:0:0:0:
256,192,216870,12,2,219453,1:0:0:0:
