osu file format v14

[General]
AudioFilename: audio.mp3
AudioLeadIn: 0
PreviewTime: 56471
Countdown: 0
SampleSet: Soft
StackLeniency: 0.7
Mode: 0
LetterboxInBreaks: 0
WidescreenStoryboard: 0

[Editor]
Bookmarks: 80802,160802,203469,233136
DistanceSpacing: 1.2
BeatDivisor: 4
GridSize: 32
TimelineZoom: 1.8

[Metadata]
Title:Hitokoto no Kyori
TitleUnicode:ヒトコトの距離
Artist:*namirin
ArtistUnicode:*なみりん
Creator:sahuang
Version:Linadeft's Insane
Source:
Tags:5colors Beomsan Akitoshi Corinn joker- Linada Left Sotarks Slayed My Angel Azusa
BeatmapID:1411984
BeatmapSetID:667290

[Difficulty]
HPDrainRate:6
CircleSize:3.7
OverallDifficulty:7
ApproachRate:9
SliderMultiplier:1.6
SliderTickRate:1

[Events]
//Background and Video events
0,0,"lol.jpg",0,0
//Break Periods
2,83653,90853
2,171653,180853
//Storyboard Layer 0 (Background)
//Storyboard Layer 1 (Fail)
//Storyboard Layer 2 (Pass)
//Storyboard Layer 3 (Foreground)
//Storyboard Sound Samples

[TimingPoints]
787,333.333333333333,4,2,1,60,1,0
787,-133.333333333333,4,2,1,60,0,0
5286,-200,4,2,1,60,0,0
6120,-133.333333333333,4,2,1,60,0,0
8120,-200,4,2,1,60,0,0
8786,-350.333333333333,4,2,1,60,0,0
13953,-95.2380952380952,4,2,1,60,0,0
17286,-83.3333333333333,4,2,1,60,0,0
17786,-74.0740740740741,4,2,1,60,0,0
18453,-95.2380952380952,4,2,1,60,0,0
24786,-117.647058823529,4,2,1,45,0,0
34120,-100,4,2,1,60,0,0
35453,-100,4,2,1,60,0,0
45036,-100,4,2,1,5,0,0
45286,-100,4,2,1,60,0,0
46120,-133.333333333333,4,2,1,60,0,0
51453,-100,4,2,1,60,0,0
54620,-76.9230769230769,4,2,1,60,0,0
55120,-62.5,4,2,1,60,0,0
56453,-200,4,2,1,60,0,0
56786,-90.9090909090909,4,2,1,60,0,1
72786,-125,4,2,1,60,0,0
76453,-90.9090909090909,4,2,1,60,0,0
78120,-90.9090909090909,4,2,1,60,0,1
79786,-62.5,4,2,1,60,0,1
80786,-66.6666666666667,4,2,1,60,0,0
91453,-100,4,2,1,60,0,0
100786,-133.333333333333,4,2,1,60,0,0
101036,-133.333333333333,4,2,1,5,0,0
101120,-83.3333333333333,4,2,1,60,0,0
101370,-83.3333333333333,4,2,1,5,0,0
101453,-83.3333333333333,4,2,1,60,0,0
102120,-100,4,2,1,60,0,0
112120,-133.333333333333,4,2,1,60,0,0
118120,-100,4,2,1,60,0,0
123453,-90.9090909090909,4,2,1,60,0,1
139453,-125,4,2,1,60,0,0
143120,-90.9090909090909,4,2,1,60,0,0
144786,-90.9090909090909,4,2,1,60,0,1
146453,-66.6666666666667,4,2,1,60,0,1
147453,-90.9090909090909,4,2,1,60,0,1
147786,-90.9090909090909,4,2,1,60,0,0
149786,-133.333333333333,4,2,1,60,0,0
150120,-90.9090909090909,4,2,1,60,0,0
168953,-58.8235294117647,4,2,1,60,0,0
181453,-200,4,2,1,60,0,0
182120,-117.647058823529,4,2,1,60,0,0
186453,-100,4,2,1,60,0,0
186786,-76.9230769230769,4,2,1,60,0,0
187286,-100,4,2,1,60,0,0
189953,-62.5,4,2,1,60,0,0
195453,-76.9230769230769,4,2,1,60,0,0
198120,-90.9090909090909,4,2,1,60,0,1
208786,-90.9090909090909,4,2,1,60,0,0
214120,-83.3333333333333,4,2,1,60,0,1
216453,-133.333333333333,4,2,1,60,0,1
216786,-100,4,2,1,60,0,0
233120,-100,4,2,1,5,0,0

[Colours]
Combo1 : 248,174,1
Combo2 : 109,183,46
Combo3 : 226,0,81
Combo4 : 119,127,189
Combo5 : 0,126,199
SliderTrackOverride : 0,0,15
SliderBorder : 255,255,248

[HitObjects]
131,275,787,5,2,0:0:0:0:
155,257,953,1,0,0:0:0:0:
184,251,1120,1,2,0:0:0:0:
213,258,1286,1,2,0:0:0:0:
213,258,2120,5,2,0:0:0:0:
165,245,2286,1,0,0:0:0:0:
134,207,2453,1,2,0:0:0:0:
131,158,2620,1,2,0:0:0:0:
131,158,3453,5,2,0:0:0:0:
158,228,3620,1,0,0:0:0:0:
136,300,3786,1,2,0:0:0:0:
74,343,3953,1,2,0:0:0:0:
74,343,4786,5,2,0:0:0:0:
109,261,4953,1,0,0:0:0:0:
184,214,5120,1,2,0:0:0:0:
273,218,5286,2,0,P|289:285|289:354,1,120,2|2,0:0|0:0,0:0:0:0:
290,335,6120,6,0,B|337:313|379:340|379:340|423:365|470:342,2,180.000006866455,2|2|2,0:0|0:0|0:0,0:0:0:0:
180,358,7453,2,0,P|212:296|183:235,1,120.000004577637,2|2,0:0|0:0,0:0:0:0:
146,181,7953,1,0,1:0:0:0:
26,190,8120,6,0,L|163:179,1,120,14|0,0:0|0:0,0:0:0:0:
290,91,8786,5,6,1:0:0:0:
290,91,9120,5,8,0:0:0:0:
285,114,9286,1,10,0:0:0:0:
373,115,9453,5,8,0:0:0:0:
354,33,9620,1,8,0:0:0:0:
329,186,9786,5,8,0:0:0:0:
476,214,9953,1,8,0:0:0:0:
354,33,10120,6,0,L|309:38,1,45.6707883979431,4|0,1:0|0:0,0:0:0:0:
320,121,10620,2,0,L|365:116,1,45.6707883979431,4|0,1:0|0:0,0:0:0:0:
434,67,11120,1,6,1:0:0:0:
93,208,11453,5,4,1:0:0:0:
93,208,11786,5,8,0:0:0:0:
175,226,11953,1,10,0:0:0:0:
214,105,12120,5,10,0:0:0:0:
61,132,12286,1,8,0:0:0:0:
119,287,12453,5,8,0:0:0:0:
131,74,12620,1,8,0:0:0:0:
107,52,12703,1,8,0:0:0:0:
73,44,12786,1,4,1:0:0:0:
73,44,13953,5,8,0:0:0:0:
107,52,14036,1,8,0:0:0:0:
131,74,14120,2,0,P|213:92|268:30,1,167.999994873047,4|8,1:0|0:0,0:0:0:0:
187,13,14620,1,2,0:0:0:0:
72,127,14786,2,0,P|52:162|69:231,1,83.9999974365235,2|0,1:0|0:0,0:0:0:0:
170,301,15120,2,0,P|140:280|86:284,1,83.9999974365235,10|0,0:0|0:0,0:0:0:0:
9,314,15453,6,0,B|54:332|93:308|93:308|140:277|191:312,1,167.999994873047,2|8,1:0|0:0,0:0:0:0:
238,358,15953,1,2,0:0:0:0:
329,207,16120,2,0,P|273:177|231:195,1,83.9999974365235,2|0,1:0|0:0,0:0:0:0:
331,295,16453,2,0,P|375:288|404:261,1,83.9999974365235,10|0,0:0|0:0,0:0:0:0:
341,114,16786,6,0,B|321:102|307:85|307:85|331:223,1,167.999994873047,2|10,1:0|0:0,0:0:0:0:
207,328,17286,6,0,P|112:343|65:240,1,191.999994140625,0|0,1:0|1:0,0:0:0:0:
266,65,17786,5,10,0:0:0:0:
341,114,17953,2,0,L|117:90,1,216.000000823975,2|2,1:0|1:0,0:0:0:0:
216,253,18453,5,10,0:0:0:0:
266,65,18620,1,0,0:0:0:0:
297,230,18786,5,2,1:0:0:0:
240,171,18953,1,2,0:0:0:0:
160,154,19120,1,10,0:0:0:0:
84,183,19286,1,2,0:0:0:0:
44,254,19453,6,0,B|83:274|127:251|127:251|174:221|231:259,1,167.999994873047,6|10,1:0|0:0,0:0:0:0:
175,322,19953,1,0,0:0:0:0:
331,366,20120,2,0,P|360:328|342:261,1,83.9999974365235,2|0,1:0|0:0,0:0:0:0:
234,172,20453,2,0,P|205:210|223:277,1,83.9999974365235,10|2,0:0|0:0,0:0:0:0:
333,144,20786,6,0,P|230:128|207:58,1,167.999994873047,0|10,1:0|0:0,0:0:0:0:
432,30,21286,2,0,L|414:197,1,167.999994873047,2|2,1:0|1:0,0:0:0:0:
414,197,21786,1,8,0:0:0:0:
285,268,21953,6,0,B|324:248|368:271|368:271|415:301|472:263,1,167.999994873047,6|2,1:0|1:0,0:0:0:0:
225,203,22453,2,0,P|199:265|217:311,1,83.9999974365235,10|2,0:0|0:0,0:0:0:0:
304,348,22786,1,2,1:0:0:0:
367,291,22953,1,2,0:0:0:0:
348,211,23120,1,10,0:0:0:0:
125,215,23286,5,6,1:0:0:0:
125,215,23620,5,10,0:0:0:0:
249,254,23787,1,0,0:0:0:0:
348,211,23953,1,8,3:0:0:0:
348,211,24037,1,8,3:0:0:0:
348,211,24120,1,4,3:0:0:0:
380,127,24286,1,4,3:0:0:0:
376,90,24453,1,2,3:0:0:0:
365,72,24620,1,2,0:0:0:0:
357,66,24786,6,0,P|340:133|403:194,1,136.000002593994,14|10,1:2|0:0,0:0:0:0:
389,173,25453,1,8,0:0:0:0:
402,163,25786,2,0,P|421:202|410:248,1,68.0000012969971,10|2,0:0|1:0,0:0:0:0:
346,299,26120,6,0,B|307:309|278:289|278:289|240:266|190:295,1,136.000002593994,10|10,1:2|0:0,0:0:0:0:
206,296,26786,1,8,0:0:0:0:
197,309,27120,2,0,P|214:280|211:235,1,68.0000012969971,8|2,0:0|0:0,0:0:0:0:
65,169,27453,6,0,P|29:105|47:49,1,136.000002593994,10|8,1:2|0:0,0:0:0:0:
37,38,28120,1,8,0:0:0:0:
27,28,28453,2,0,L|112:19,1,68.0000012969971,10|0,0:0|1:0,0:0:0:0:
252,123,28786,6,0,P|199:81|132:105,1,136.000002593994,8|8,1:2|0:0,0:0:0:0:
248,207,29286,2,0,P|291:201|318:175,1,68.0000012969971,0|8,0:0|0:0,0:0:0:0:
377,137,29620,2,0,P|420:143|447:169,1,68.0000012969971,0|8,0:0|0:0,0:0:0:0:
325,321,29953,1,2,0:0:0:0:
325,321,30120,6,0,L|306:161,1,136.000002593994,10|10,1:2|0:0,0:0:0:0:
295,193,30786,1,8,0:0:0:0:
285,200,31120,2,0,L|299:122,1,68.0000012969971,8|2,0:0|1:0,0:0:0:0:
406,67,31453,6,0,B|367:77|338:57|338:57|300:34|250:63,1,136.000002593994,10|10,1:2|0:0,0:0:0:0:
262,63,32120,1,8,0:0:0:0:
250,74,32453,2,0,P|199:66|172:33,1,68.0000012969971,8|0,0:0|0:0,0:0:0:0:
124,126,32786,6,0,P|161:184|130:264,1,136.000002593994,10|10,1:2|0:0,0:0:0:0:
70,288,33286,2,0,P|39:285|5:256,2,68.0000012969971,2|8|2,0:0|0:0|0:0,0:0:0:0:
146,246,33786,2,0,P|160:286|146:326,1,68.0000012969971,8|0,0:0|0:0,0:0:0:0:
73,203,34120,5,2,1:2:0:0:
439,203,34453,1,8,0:0:0:0:
73,203,34786,6,0,L|86:98,1,80,2|8,0:0|0:0,0:0:0:0:
18,271,35120,1,8,0:0:0:0:
48,288,35203,1,0,1:0:0:0:
82,291,35286,1,8,0:0:0:0:
114,281,35370,1,0,1:0:0:0:
140,260,35453,6,0,B|181:231|181:231|306:252,1,160,6|10,1:0|0:0,0:0:0:0:
425,134,35953,2,0,P|380:128|343:166,1,80,2|0,0:0|1:0,0:0:0:0:
403,216,36286,1,0,1:0:0:0:
471,62,36453,2,0,P|434:27|373:36,1,80,10|2,0:0|1:0,0:0:0:0:
245,114,36786,6,0,B|283:132|321:109|321:109|363:87|410:113,1,160,2|10,1:0|0:0,0:0:0:0:
463,231,37286,2,0,L|475:341,1,80,2|0,0:0|1:0,0:0:0:0:
512,165,37620,1,2,1:0:0:0:
412,367,37786,2,0,P|371:366|338:343,1,80,8|2,0:0|0:0,0:0:0:0:
171,218,38120,6,0,P|88:211|45:293,2,160,2|8|0,1:0|0:0|1:0,0:0:0:0:
127,287,38953,1,2,1:0:0:0:
52,137,39120,2,0,P|56:91|86:55,1,80,10|2,0:0|1:0,0:0:0:0:
156,58,39453,6,0,L|170:217,2,160,0|8|2,1:0|0:0|1:0,0:0:0:0:
156,58,40286,1,0,1:0:0:0:
251,193,40453,1,10,0:0:0:0:
330,164,40620,1,0,0:0:0:0:
404,199,40786,6,0,B|366:217|328:194|328:194|286:172|239:198,1,160,2|10,1:0|0:0,0:0:0:0:
186,249,41286,2,0,P|165:199|172:165,1,80,2|0,0:0|1:0,0:0:0:0:
225,109,41620,1,2,1:0:0:0:
88,227,41786,2,0,P|35:217|9:180,1,80,10|0,0:0|0:0,0:0:0:0:
149,94,42120,6,0,B|168:85|186:64|186:64|166:189,1,160,2|10,1:0|0:0,0:0:0:0:
229,319,42620,2,0,P|212:268|227:228,1,80,2|0,0:0|1:0,0:0:0:0:
282,189,42953,1,2,1:0:0:0:
341,256,43120,1,10,0:0:0:0:
312,339,43286,1,2,1:0:0:0:
135,294,43453,6,0,P|70:280|4:353,2,160,0|8|0,1:0|0:0|1:0,0:0:0:0:
202,344,44286,1,0,1:0:0:0:
263,203,44453,2,0,P|285:235|276:289,1,80,8|0,0:0|0:0,0:0:0:0:
283,274,44786,5,0,1:0:0:0:
347,159,44953,2,0,L|358:89,1,40,8|0,0:0|0:0,0:0:0:0:
343,106,45286,6,0,L|332:176,1,40,0|0,1:0|1:0,0:0:0:0:
385,236,45453,2,0,P|447:242|480:153,1,160,10|2,0:0|1:0,0:0:0:0:
483,163,46120,6,0,B|444:139|398:169|398:169|345:204|300:169,1,180.000006866455,6|2,1:0|1:0,0:0:0:0:
220,86,46786,2,0,L|235:210,1,120.000004577637,8|0,0:0|0:0,0:0:0:0:
285,322,47286,2,0,P|298:292|298:259,1,60.0000022888184,8|2,0:0|1:0,0:0:0:0:
220,86,47620,1,8,0:0:0:0:
164,146,47786,1,2,0:0:0:0:
88,123,47953,1,2,1:0:0:0:
220,86,48120,2,0,P|276:79|322:134,1,120.000004577637,8|0,0:0|0:0,0:0:0:0:
456,182,48620,1,8,0:0:0:0:
456,182,48703,1,8,0:0:0:0:
456,182,48786,6,0,B|417:158|371:188|371:188|318:223|273:188,1,180.000006866455,2|2,1:0|1:0,0:0:0:0:
363,283,49453,2,0,P|442:290|483:254,1,120.000004577637,8|2,0:0|0:0,0:0:0:0:
472,268,49953,2,0,L|461:200,1,60.0000022888184,10|0,0:0|1:0,0:0:0:0:
358,72,50286,1,8,0:0:0:0:
358,72,50620,5,0,0:0:0:0:
468,126,50786,2,0,P|435:130|403:150,1,60.0000022888184,10|0,0:0|1:0,0:0:0:0:
316,253,51120,2,0,P|283:249|251:229,1,60.0000022888184,10|8,0:0|0:0,0:0:0:0:
218,166,51370,1,8,0:0:0:0:
218,166,51453,6,0,B|179:148|139:173|139:173|85:202|39:166,1,160,6|10,1:0|0:0,0:0:0:0:
72,30,51953,2,0,P|95:97|81:125,1,80,0|2,1:0|0:0,0:0:0:0:
64,180,52286,1,2,1:0:0:0:
175,52,52453,2,0,P|212:50|251:75,1,80,10|0,0:0|0:0,0:0:0:0:
375,209,52786,6,0,P|283:207|245:258,1,160,2|8,1:0|0:0,0:0:0:0:
326,278,53286,1,0,1:0:0:0:
234,144,53453,2,0,P|229:104|253:66,1,80,2|2,0:0|1:0,0:0:0:0:
339,204,53786,2,0,P|344:244|320:282,1,80,8|0,0:0|0:0,0:0:0:0:
135,323,54120,6,0,P|156:266|269:279,1,160,6|8,1:0|0:0,0:0:0:0:
467,191,54620,6,0,P|428:115|315:128,1,207.999990478516,4|0,1:0|1:0,0:0:0:0:
107,83,55120,6,0,P|137:37|219:44,1,128,8|0,0:0|1:0,0:0:0:0:
240,111,55370,1,0,1:0:0:0:
235,128,55453,5,8,0:0:0:0:
116,113,55620,1,8,3:0:0:0:
0,100,55786,1,8,0:0:0:0:
0,100,55870,1,8,3:0:0:0:
0,100,55953,1,8,3:0:0:0:
0,100,56036,1,8,3:0:0:0:
0,100,56120,1,4,3:0:0:0:
26,323,56453,6,0,L|16:266,1,40,0|0,3:0|3:0,0:0:0:0:
20,284,56786,6,0,B|65:269|110:297|110:297|158:326|217:294,1,176.000005371094,6|10,1:0|0:0,0:0:0:0:
176,146,57286,2,0,P|151:214|181:254,1,88.000002685547,2|0,0:0|1:0,0:0:0:0:
238,239,57620,1,2,0:0:0:0:
95,113,57786,2,0,L|80:22,1,88.000002685547,10|2,0:0|0:0,0:0:0:0:
293,159,58120,6,0,B|273:279|273:279|262:250|229:234,1,176.000005371094,6|10,1:0|0:0,0:0:0:0:
120,345,58620,2,0,P|175:310|216:323,1,88.000002685547,2|0,0:0|1:0,0:0:0:0:
281,319,58953,1,2,0:0:0:0:
250,155,59120,2,0,P|232:197|257:268,1,88.000002685547,10|2,0:0|0:0,0:0:0:0:
342,123,59453,6,0,P|259:134|201:53,1,176.000005371094,6|8,1:0|0:0,0:0:0:0:
69,166,59953,2,0,P|139:155|162:117,1,88.000002685547,2|0,0:0|1:0,0:0:0:0:
203,69,60286,1,2,0:0:0:0:
242,246,60453,1,10,0:0:0:0:
148,145,60620,1,2,0:0:0:0:
283,109,60786,6,0,B|328:94|373:122|373:122|421:151|480:119,1,176.000005371094,6|10,1:0|0:0,0:0:0:0:
451,130,61286,2,0,L|460:30,2,88.000002685547,2|0|0,0:0|1:0|1:0,0:0:0:0:
332,325,61786,2,0,P|292:285|200:319,1,132.00000402832,10|0,0:0|0:0,0:0:0:0:
206,281,62120,6,0,P|301:264|356:330,1,176.000005371094,6|8,1:0|0:0,0:0:0:0:
351,315,62786,2,0,P|324:289|336:215,1,88.000002685547,2|0,1:0|0:0,0:0:0:0:
378,103,63120,2,0,P|405:129|393:203,1,88.000002685547,10|0,0:0|0:0,0:0:0:0:
351,315,63453,6,0,P|300:292|257:308,1,88.000002685547,6|0,1:0|0:0,0:0:0:0:
142,308,63786,2,0,P|187:275|195:230,1,88.000002685547,10|0,0:0|0:0,0:0:0:0:
152,172,64120,1,2,1:0:0:0:
276,216,64286,1,0,0:0:0:0:
152,172,64453,2,0,P|103:168|62:219,1,88.000002685547,10|0,0:0|0:0,0:0:0:0:
375,286,64786,5,6,0:0:0:0:
427,220,64953,1,0,0:0:0:0:
396,139,65120,1,8,0:0:0:0:
256,183,65286,5,6,1:0:0:0:
260,202,65453,1,10,3:0:0:0:
342,210,65620,5,0,1:0:0:0:
190,125,65786,2,0,P|172:164|195:242,1,88.000002685547,8|6,0:0|3:0,0:0:0:0:
223,282,66120,5,6,1:0:0:0:
272,95,66286,1,0,0:0:0:0:
88,157,66453,1,10,0:0:0:0:
294,205,66620,6,0,B|339:220|384:192|384:192|432:163|491:195,1,176.000005371094,6|8,1:0|3:0,0:0:0:0:
216,300,67120,1,8,0:0:0:0:
216,300,67203,1,8,0:0:0:0:
216,300,67286,1,8,3:0:0:0:
216,300,67370,1,4,3:0:0:0:
216,300,67453,6,0,L|195:100,1,176.000005371094,6|8,1:0|0:0,0:0:0:0:
261,71,67953,1,2,0:0:0:0:
129,233,68120,2,0,P|82:232|43:191,1,88.000002685547,0|2,1:0|0:0,0:0:0:0:
8,289,68453,1,10,0:0:0:0:
129,233,68620,1,2,0:0:0:0:
225,336,68786,6,0,B|270:351|315:323|315:323|363:294|422:326,1,176.000005371094,6|10,1:0|0:0,0:0:0:0:
258,258,69286,2,0,L|242:159,1,88.000002685547,2|0,0:0|1:0,0:0:0:0:
378,60,69620,5,2,0:0:0:0:
331,197,69786,1,10,0:0:0:0:
473,170,69953,1,0,0:0:0:0:
395,143,70120,6,0,B|350:128|305:156|305:156|257:185|198:153,1,176.000005371094,6|8,1:0|0:0,0:0:0:0:
226,164,70786,2,0,P|250:117|229:61,1,88.000002685547,2|0,1:0|0:0,0:0:0:0:
156,218,71120,2,0,L|173:321,1,88.000002685547,10|0,0:0|0:0,0:0:0:0:
447,207,71453,6,0,P|405:136|325:156,1,176.000005371094,6|10,1:0|0:0,0:0:0:0:
65,207,71953,2,0,P|106:136|186:156,1,176.000005371094,6|2,1:0|1:0,0:0:0:0:
258,301,72453,2,0,L|256:179,1,88.000002685547,10|0,0:0|0:0,0:0:0:0:
307,55,72786,6,0,P|357:45|416:89,1,128,4|0,1:0|0:0,0:0:0:0:
415,88,73286,1,0,1:0:0:0:
344,127,73453,2,0,L|333:256,1,128,10|2,0:0|0:0,0:0:0:0:
81,304,74120,5,2,1:0:0:0:
81,304,74286,2,0,L|69:226,1,64,8|0,0:0|0:0,0:0:0:0:
138,184,74620,1,0,1:0:0:0:
149,358,74786,2,0,P|106:342|32:385,1,128,10|2,0:0|0:0,0:0:0:0:
265,59,75453,6,0,P|309:100|377:86,1,128,2|0,1:0|0:0,0:0:0:0:
445,45,75953,1,2,1:0:0:0:
445,45,76120,2,0,L|460:135,1,64,10|0,0:0|0:0,0:0:0:0:
407,310,76453,6,0,B|380:285|380:285|390:177,1,132.00000402832,12|0,0:0|0:0,0:0:0:0:
400,174,76786,5,8,0:0:0:0:
301,190,76953,1,0,1:0:0:0:
199,207,77120,1,0,1:0:0:0:
319,229,77286,5,8,3:0:0:0:
301,190,77453,1,0,0:0:0:0:
283,153,77620,1,0,1:0:0:0:
147,277,77786,6,0,P|88:287|37:215,1,132.00000402832,10|0,0:0|0:0,0:0:0:0:
47,220,78120,5,6,1:0:0:0:
47,220,78453,5,8,0:0:0:0:
192,198,78620,1,10,0:0:0:0:
110,284,78786,5,8,0:0:0:0:
78,102,78953,1,8,0:0:0:0:
260,140,79120,5,8,0:0:0:0:
272,158,79203,1,8,0:0:0:0:
279,178,79286,1,4,3:0:0:0:
282,200,79369,1,4,3:0:0:0:
279,222,79453,1,0,1:0:0:0:
279,222,79786,6,0,P|212:132|211:222,1,256,14|6,0:0|3:0,0:0:0:0:
195,204,80203,1,0,0:0:0:0:
195,204,80286,1,2,1:0:0:0:
274,46,80453,5,10,0:0:0:0:
237,295,80620,1,8,0:0:0:0:
237,295,80703,1,8,0:0:0:0:
237,295,80786,1,6,1:0:0:0:
256,192,80870,12,0,83453,0:0:0:0:
87,244,91453,6,0,P|87:166|147:118,1,160,6|2,1:0|1:0,0:0:0:0:
165,208,91953,1,2,0:0:0:0:
70,252,92120,2,0,P|57:214|64:175,1,80,0|2,1:0|0:0,0:0:0:0:
150,90,92453,1,2,1:0:0:0:
150,90,92620,1,2,0:0:0:0:
165,208,92786,6,0,B|236:243|240:181|319:217,1,160,2|2,1:0|1:0,0:0:0:0:
250,355,93286,2,0,P|252:315|273:282,1,80,2|0,0:0|1:0,0:0:0:0:
425,225,93620,1,2,0:0:0:0:
325,343,93786,1,0,1:0:0:0:
319,217,93953,1,2,0:0:0:0:
309,206,94036,1,0,0:0:0:0:
298,195,94120,6,0,B|303:162|294:129|294:129|303:101|303:101|288:70|295:38,2,160,2|0|0,1:0|1:0|1:0,0:0:0:0:
370,57,94953,1,2,0:0:0:0:
215,93,95120,2,0,P|176:87|140:69,1,80,2|2,1:0|0:0,0:0:0:0:
16,146,95453,6,0,P|90:133|138:192,1,160,0|0,1:0|1:0,0:0:0:0:
50,286,95953,1,0,0:0:0:0:
50,286,96120,2,0,P|52:247|63:208,1,80,0|0,1:0|0:0,0:0:0:0:
198,349,96453,2,0,P|159:360|119:361,1,80,0|2,1:0|0:0,0:0:0:0:
211,228,96786,6,0,P|290:223|369:237,1,160,2|2,1:0|1:0,0:0:0:0:
283,329,97286,1,2,0:0:0:0:
200,209,97453,2,0,P|239:205|279:205,1,80,0|0,1:0|0:0,0:0:0:0:
376,318,97786,2,0,P|336:318|296:313,1,80,0|2,1:0|0:0,0:0:0:0:
185,195,98120,6,0,B|202:83|202:83|225:126,1,160,2|2,1:0|1:0,0:0:0:0:
212,268,98620,2,0,P|173:272|137:257,1,80,2|0,0:0|1:0,0:0:0:0:
6,170,98953,2,0,P|45:174|81:159,1,80,2|0,0:0|1:0,0:0:0:0:
202,84,99286,1,0,0:0:0:0:
137,257,99453,5,6,1:0:0:0:
137,257,100786,6,0,L|146:346,1,90.0000034332277,2|0,1:0|0:0,0:0:0:0:
175,372,101120,6,0,L|160:228,1,143.999995605469,12|0,0:0|0:0,0:0:0:0:
172,194,101453,5,0,1:0:0:0:
245,111,101620,1,8,0:0:0:0:
278,108,101703,1,0,1:0:0:0:
312,106,101786,1,8,0:0:0:0:
345,103,101869,1,8,0:0:0:0:
379,101,101953,2,0,L|390:42,1,47.9999985351563,10|8,0:0|0:0,0:0:0:0:
478,12,102120,6,0,L|452:169,1,160,6|10,1:0|0:0,0:0:0:0:
432,273,102620,1,2,0:0:0:0:
481,164,102786,2,0,L|492:84,1,80,0|2,1:0|1:0,0:0:0:0:
417,257,103120,2,0,L|428:336,1,80,8|2,0:0|1:0,0:0:0:0:
338,174,103453,6,0,B|273:163|273:163|240:143|240:143|184:136,1,160,2|10,1:0|0:0,0:0:0:0:
255,238,103953,2,0,L|333:250,1,80,2|0,1:0|1:0,0:0:0:0:
265,70,104286,2,0,L|185:59,1,80,2|8,1:0|0:0,0:0:0:0:
82,113,104620,1,2,0:0:0:0:
71,124,104703,1,0,0:0:0:0:
60,135,104786,6,0,B|65:254,1,120,2|0,1:0|0:0,0:0:0:0:
83,281,105120,2,0,P|122:287|160:278,1,80,8|0,0:0|0:0,0:0:0:0:
332,240,105453,2,0,P|293:230|254:237,1,80,0|2,1:0|1:0,0:0:0:0:
119,209,105786,1,10,0:0:0:0:
228,308,105953,1,2,1:0:0:0:
333,207,106120,6,0,B|379:130|314:130|350:53,1,160,0|8,1:0|0:0,0:0:0:0:
423,0,106620,1,0,0:0:0:0:
496,108,106786,2,0,L|416:97,1,80,2|0,1:0|1:0,0:0:0:0:
239,166,107120,2,0,L|318:155,1,80,10|0,0:0|0:0,0:0:0:0:
183,91,107453,6,0,P|143:157|168:230,1,160,2|10,1:0|0:0,0:0:0:0:
252,369,107953,2,0,P|245:329|223:297,1,80,2|0,0:0|1:0,0:0:0:0:
76,238,108286,1,2,1:0:0:0:
95,348,108453,2,0,L|174:360,1,80,10|0,0:0|0:0,0:0:0:0:
247,276,108786,6,0,P|325:261|402:277,1,160,2|10,1:0|0:0,0:0:0:0:
235,376,109286,2,0,L|223:296,1,80,2|0,0:0|1:0,0:0:0:0:
203,188,109620,1,2,1:0:0:0:
37,218,109787,1,10,0:0:0:0:
189,207,109953,1,2,1:0:0:0:
56,118,110120,6,0,B|171:109|171:109|138:139,1,160,0|8,1:0|0:0,0:0:0:0:
42,200,110620,1,0,0:0:0:0:
161,80,110786,2,0,L|81:85,1,80,0|0,1:0|1:0,0:0:0:0:
37,218,111120,2,0,L|116:212,1,80,8|0,0:0|1:0,0:0:0:0:
175,295,111453,5,0,1:0:0:0:
285,199,111620,2,0,L|205:204,1,80,8|2,0:0|0:0,0:0:0:0:
156,360,111953,5,0,1:0:0:0:
163,357,112036,1,8,0:0:0:0:
170,353,112120,2,0,P|176:323|174:294,1,60.0000022888184,10|8,0:0|3:0,0:0:0:0:
205,204,112453,2,0,P|198:174|200:145,1,60.0000022888184,4|0,0:3|0:0,0:0:0:0:
297,40,112786,6,0,B|417:33|417:33|361:73,1,180.000006866455,6|2,1:0|1:0,0:0:0:0:
310,162,113453,2,0,P|366:144|421:167,1,120.000004577637,8|0,0:0|0:0,0:0:0:0:
362,292,113953,2,0,L|363:233,1,60.0000022888184,8|2,0:0|1:0,0:0:0:0:
420,359,114286,2,0,P|365:381|309:363,1,120.000004577637,8|2,0:0|1:0,0:0:0:0:
220,315,114786,2,0,B|177:319|177:319|145:311|145:311|85:316,1,120.000004577637,8|0,0:0|0:0,0:0:0:0:
48,233,115287,1,8,0:0:0:0:
48,233,115370,1,8,0:0:0:0:
48,233,115453,6,0,P|47:152|100:191,1,180.000006866455,2|2,1:0|1:0,0:0:0:0:
144,266,116120,2,0,P|185:224|187:165,1,120.000004577637,8|2,0:0|0:0,0:0:0:0:
213,91,116620,2,0,P|183:85|154:92,1,60.0000022888184,10|0,0:0|1:0,0:0:0:0:
275,168,116953,2,0,P|304:173|333:166,1,60.0000022888184,8|0,0:0|1:0,0:0:0:0:
418,104,117286,1,0,0:0:0:0:
475,189,117453,6,0,P|491:245|473:302,1,120.000004577637,10|10,0:0|0:0,0:0:0:0:
263,288,117953,1,8,0:0:0:0:
257,271,118036,1,8,0:0:0:0:
251,254,118120,6,0,B|314:256|314:256|352:244|352:244|409:246,1,160,6|10,1:0|0:0,0:0:0:0:
296,176,118620,1,0,1:0:0:0:
296,176,118786,2,0,L|216:174,1,80,2|2,0:0|1:0,0:0:0:0:
213,330,119120,2,0,L|292:331,1,80,10|0,0:0|0:0,0:0:0:0:
337,147,119453,6,0,L|177:145,1,160,2|8,1:0|0:0,0:0:0:0:
46,256,119953,1,0,1:0:0:0:
46,256,120120,2,0,P|53:295|78:325,1,80,2|2,0:0|1:0,0:0:0:0:
95,143,120453,2,0,P|88:103|63:73,1,80,8|0,0:0|0:0,0:0:0:0:
123,264,120786,6,0,B|198:295|197:240|279:278,1,160,6|8,1:0|0:0,0:0:0:0:
447,194,121286,2,0,P|376:161|305:192,1,160,4|0,1:0|1:0,0:0:0:0:
367,337,121786,2,0,L|376:258,1,80,8|0,0:0|1:0,0:0:0:0:
376,258,122036,1,0,1:0:0:0:
376,258,122120,5,8,0:0:0:0:
462,347,122286,1,8,3:0:0:0:
448,179,122453,1,8,0:0:0:0:
416,155,122536,1,8,3:0:0:0:
377,146,122619,1,8,3:0:0:0:
338,154,122702,1,8,3:0:0:0:
306,177,122786,1,4,3:0:0:0:
161,330,123120,2,0,L|154:250,1,80,0|0,3:0|3:0,0:0:0:0:
55,115,123453,6,0,B|58:186|58:186|75:217|75:217|79:286,1,176.000005371094,6|10,1:0|0:0,0:0:0:0:
182,346,123953,2,0,L|173:258,1,88.000002685547,2|0,0:0|1:0,0:0:0:0:
164,131,124286,1,2,0:0:0:0:
306,178,124453,2,0,P|267:196|223:195,1,88.000002685547,10|2,0:0|0:0,0:0:0:0:
337,97,124786,6,0,P|392:161|366:242,1,176.000005371094,6|10,1:0|0:0,0:0:0:0:
223,195,125286,2,0,P|262:176|306:177,1,88.000002685547,2|0,0:0|1:0,0:0:0:0:
280,263,125620,1,2,0:0:0:0:
164,131,125786,2,0,L|173:43,1,88.000002685547,10|2,0:0|0:0,0:0:0:0:
222,195,126120,6,0,P|141:214|82:153,1,176.000005371094,6|8,1:0|0:0,0:0:0:0:
182,302,126620,1,2,0:0:0:0:
255,179,126786,2,0,P|297:169|340:176,1,88.000002685547,0|2,1:0|0:0,0:0:0:0:
443,264,127120,1,10,0:0:0:0:
304,252,127286,1,2,0:0:0:0:
457,79,127453,6,0,B|440:149|440:149|451:188|451:188|434:249,1,176.000005371094,6|10,1:0|0:0,0:0:0:0:
330,101,127953,2,0,L|309:15,2,88.000002685547,2|0|0,0:0|1:0|1:0,0:0:0:0:
255,178,128453,2,0,P|192:195|131:173,1,132.00000402832,10|0,0:0|0:0,0:0:0:0:
117,150,128786,6,0,B|137:25|137:25|98:59,1,176.000005371094,6|8,1:0|0:0,0:0:0:0:
264,266,129453,2,0,L|254:178,1,88.000002685547,2|0,1:0|0:0,0:0:0:0:
211,27,129786,2,0,L|197:113,1,88.000002685547,10|0,0:0|0:0,0:0:0:0:
180,259,130120,6,0,P|221:274|264:266,1,88.000002685547,6|0,1:0|0:0,0:0:0:0:
392,100,130453,2,0,P|349:91|308:106,1,88.000002685547,10|0,0:0|0:0,0:0:0:0:
368,257,130786,2,0,L|356:170,1,88.000002685547,2|0,1:0|0:0,0:0:0:0:
214,110,131120,2,0,L|226:197,1,88.000002685547,10|0,0:0|0:0,0:0:0:0:
378,339,131453,6,0,B|337:261|401:259|355:168,1,176.000005371094,6|8,0:0|0:0,0:0:0:0:
205,219,131953,2,0,P|246:232|289:226,1,88.000002685547,6|10,1:0|3:0,0:0:0:0:
420,123,132286,1,0,1:0:0:0:
240,63,132453,2,0,L|252:150,1,88.000002685547,8|6,0:0|3:0,0:0:0:0:
167,315,132786,5,6,1:0:0:0:
48,207,132953,1,0,0:0:0:0:
205,219,133120,1,10,0:0:0:0:
68,306,133286,2,0,B|62:273|68:245|68:245|47:206|47:206|58:172|48:135,1,176.000005371094,6|8,1:0|3:0,0:0:0:0:
101,37,133786,1,8,0:0:0:0:
132,25,133869,1,8,0:0:0:0:
165,24,133952,1,8,3:0:0:0:
197,32,134035,1,4,3:0:0:0:
224,51,134120,6,0,P|295:95|370:57,1,176.000005371094,6|8,1:0|0:0,0:0:0:0:
299,13,134620,1,2,0:0:0:0:
210,91,134786,2,0,P|197:132|205:175,1,88.000002685547,0|2,1:0|0:0,0:0:0:0:
369,245,135120,2,0,L|283:259,1,88.000002685547,10|2,0:0|0:0,0:0:0:0:
402,174,135453,6,0,P|448:243|404:316,1,176.000005371094,6|10,1:0|0:0,0:0:0:0:
281,231,135953,2,0,L|369:245,1,88.000002685547,2|0,0:0|1:0,0:0:0:0:
283,343,136286,1,2,0:0:0:0:
204,251,136453,2,0,P|203:208|226:171,1,88.000002685547,10|0,0:0|0:0,0:0:0:0:
176,78,136786,6,0,P|185:165|204:251,1,176.000005371094,6|8,1:0|0:0,0:0:0:0:
360,88,137453,2,0,P|316:79|273:88,1,88.000002685547,2|0,1:0|0:0,0:0:0:0:
389,226,137786,2,0,P|432:234|475:225,1,88.000002685547,10|0,0:0|0:0,0:0:0:0:
315,180,138120,6,0,B|277:264|351:264|313:349,1,176.000005371094,6|10,1:0|0:0,0:0:0:0:
160,306,138620,2,0,P|202:295|245:305,1,88.000002685547,6|0,1:0|0:0,0:0:0:0:
206,374,138953,1,2,1:0:0:0:
112,232,139120,2,0,L|133:57,1,176.000005371094,10|6,0:0|1:0,0:0:0:0:
133,57,139786,5,0,0:0:0:0:
212,75,139953,1,0,1:0:0:0:
287,88,140120,2,0,L|433:92,1,128,10|2,0:0|0:0,0:0:0:0:
384,235,140786,5,2,1:0:0:0:
384,235,140953,2,0,L|308:232,1,64,8|0,0:0|0:0,0:0:0:0:
242,229,141286,1,0,1:0:0:0:
435,174,141453,2,0,P|465:228|447:288,1,128,10|2,0:0|0:0,0:0:0:0:
256,229,142120,6,0,L|384:235,1,128,2|0,1:0|0:0,0:0:0:0:
306,323,142620,1,2,1:0:0:0:
172,197,142786,2,0,L|235:200,1,64,10|0,0:0|0:0,0:0:0:0:
115,252,143120,6,0,P|92:193|125:132,1,132.00000402832,12|0,0:0|0:0,0:0:0:0:
132,122,143453,5,8,0:0:0:0:
237,108,143620,1,0,1:0:0:0:
341,93,143786,1,0,1:0:0:0:
275,10,143953,5,8,3:0:0:0:
236,108,144120,2,0,P|229:150|245:191,1,88.000002685547,0|0,0:0|1:0,0:0:0:0:
179,329,144453,2,0,P|186:286|170:245,1,88.000002685547,10|0,0:0|0:0,0:0:0:0:
106,294,144786,6,0,B|172:286|172:286|204:300|204:300|278:292,1,176.000005371094,6|8,1:0|0:0,0:0:0:0:
379,286,145287,1,8,0:0:0:0:
245,191,145453,5,8,0:0:0:0:
423,133,145620,1,8,0:0:0:0:
252,69,145787,5,8,0:0:0:0:
211,50,145869,1,8,0:0:0:0:
182,84,145953,1,4,3:0:0:0:
205,122,146036,1,4,3:0:0:0:
248,111,146120,1,0,1:0:0:0:
248,111,146453,6,0,B|191:94|143:112|143:112|110:94|110:94|63:109|5:88,1,240.000009155274,14|6,0:0|3:0,0:0:0:0:
16,91,146870,1,0,0:0:0:0:
16,91,146953,1,2,1:0:0:0:
157,30,147120,5,10,0:0:0:0:
197,143,147286,1,8,0:0:0:0:
189,172,147370,1,8,0:0:0:0:
180,200,147453,2,0,L|204:284,1,88.000002685547,0|0,1:0|1:0,0:0:0:0:
354,206,147786,6,0,B|286:198|286:198|246:208|246:208|181:201,1,176.000005371094,12|8,0:0|3:0,0:0:0:0:
294,276,148286,1,8,3:0:0:0:
237,130,148453,1,8,0:0:0:0:
402,273,148620,6,0,P|436:197|386:131,1,176.000005371094,4|8,1:0|0:0,0:0:0:0:
237,130,149120,1,8,0:0:0:0:
354,206,149286,6,0,L|529:223,1,176.000005371094,12|0,0:0|1:0,0:0:0:0:
275,241,149786,6,0,P|266:197|281:154,1,90.0000034332277,12|0,0:0|0:0,0:0:0:0:
309,125,150120,6,0,B|333:71|316:-4|316:-4|288:34,1,176.000005371094,6|8,1:0|0:0,0:0:0:0:
198,114,150620,2,0,P|154:119|113:104,1,88.000002685547,0|0,0:0|1:0,0:0:0:0:
161,41,150953,1,2,0:0:0:0:
234,182,151120,1,10,0:0:0:0:
67,167,151286,6,0,P|148:196|234:182,1,176.000005371094,2|2,3:2|0:0,0:0:0:0:
159,316,151786,2,0,L|144:229,1,88.000002685547,10|2,0:0|0:0,0:0:0:0:
198,114,152120,1,2,1:0:0:0:
236,266,152286,1,2,0:0:0:0:
314,157,152453,1,10,0:0:0:0:
141,195,152620,1,2,3:2:0:0:
270,92,152786,6,0,P|353:85|392:159,2,176.000005371094,2|8|0,1:0|0:0|1:0,0:0:0:0:
291,237,153620,2,0,P|314:200|314:157,1,88.000002685547,2|8,0:0|0:0,0:0:0:0:
198,114,153953,1,2,3:2:0:0:
348,293,154120,6,0,B|390:302|390:302|431:285,1,88.000002685547,2|2,1:0|0:0,0:0:0:0:
256,315,154453,1,10,0:0:0:0:
243,177,154620,1,2,0:0:0:0:
110,245,154786,2,0,P|151:259|193:250,1,88.000002685547,0|0,1:0|0:0,0:0:0:0:
281,109,155120,2,0,P|238:100|197:114,1,88.000002685547,8|0,0:0|3:0,0:0:0:0:
96,258,155453,5,0,1:0:0:0:
243,177,155620,1,2,0:0:0:0:
81,273,155786,2,0,P|72:315|84:357,1,88.000002685547,10|2,0:0|0:0,0:0:0:0:
236,322,156120,2,0,L|149:311,1,88.000002685547,2|2,1:0|0:0,0:0:0:0:
33,206,156453,1,10,0:0:0:0:
212,108,156620,6,0,L|193:283,1,176.000005371094,6|2,1:0|1:0,0:0:0:0:
275,234,157120,1,10,0:0:0:0:
127,127,157286,1,2,1:0:0:0:
288,240,157453,2,0,P|331:244|382:217,1,88.000002685547,2|10,0:0|3:2,0:0:0:0:
319,67,157786,2,0,P|307:109|312:152,1,88.000002685547,4|10,3:0|3:2,0:0:0:0:
431,273,158120,5,10,0:0:0:0:
478,131,158286,1,10,0:0:0:0:
478,98,158369,1,10,0:0:0:0:
469,66,158453,1,10,0:0:0:0:
385,116,158620,6,0,B|307:129|307:129|256:112,1,132.00000402832,14|0,0:0|0:0,0:0:0:0:
233,101,158953,2,0,L|250:187,1,88.000002685547,10|4,0:0|3:0,0:0:0:0:
192,295,159286,6,0,L|157:122,1,176.000005371094,10|2,3:2|1:0,0:0:0:0:
0,76,159786,1,10,0:0:0:0:
51,190,159953,1,2,1:0:0:0:
157,122,160120,2,0,L|200:113,2,44.0000013427735,2|0|0,3:2|0:0|1:0,0:0:0:0:
274,47,160453,1,10,0:0:0:0:
306,52,160536,1,8,0:0:0:0:
339,57,160619,1,10,0:0:0:0:
371,62,160703,1,8,0:0:0:0:
404,67,160786,6,0,P|349:121|388:218,2,176.000005371094,6|8|0,1:0|0:0|1:0,0:0:0:0:
429,146,161620,1,0,0:0:0:0:
274,83,161786,2,0,P|229:83|192:118,1,88.000002685547,8|0,0:0|3:0,0:0:0:0:
52,193,162120,6,0,B|82:157|133:166|133:166|163:203|220:191,1,176.000005371094,0|8,1:0|0:0,0:0:0:0:
315,333,162620,1,0,3:0:0:0:
315,333,162703,1,0,0:0:0:0:
315,333,162786,2,0,B|285:339|270:361|270:361|288:223,1,176.000005371094,2|8,1:0|0:0,0:0:0:0:
340,104,163286,2,0,L|352:176,1,44.0000013427735,2|2,0:0|0:0,0:0:0:0:
366,255,163453,6,0,P|304:234|275:246,1,88.000002685547,2|0,1:0|0:0,0:0:0:0:
194,110,163786,1,8,0:0:0:0:
77,208,163953,2,0,P|119:211|161:169,1,88.000002685547,0|0,3:0|1:0,0:0:0:0:
194,110,164286,5,2,0:0:0:0:
77,208,164453,1,10,0:0:0:0:
283,242,164620,1,6,1:0:0:0:
283,242,164953,5,2,1:0:0:0:
183,197,165120,1,10,0:0:0:0:
77,208,165286,2,0,P|57:251|84:316,1,88.000002685547,2|0,0:0|1:0,0:0:0:0:
149,311,165620,1,0,1:0:0:0:
120,132,165786,2,0,L|108:41,1,88.000002685547,10|0,0:0|0:0,0:0:0:0:
326,207,166120,6,0,P|380:205|418:154,1,88.000002685547,2|2,1:0|0:0,0:0:0:0:
432,100,166453,1,8,0:0:0:0:
278,59,166620,2,0,P|252:106|277:165,1,88.000002685547,2|0,0:0|1:0,0:0:0:0:
326,207,166953,1,0,1:0:0:0:
151,160,167120,1,10,0:0:0:0:
326,207,167286,6,0,B|373:222|413:193|413:193|457:161|518:196,1,176.000005371094,6|2,1:0|1:0,0:0:0:0:
264,265,167786,2,0,P|241:215|260:163,1,88.000002685547,10|2,0:0|0:0,0:0:0:0:
307,125,168120,1,0,1:0:0:0:
307,125,168286,1,0,1:0:0:0:
195,320,168453,2,0,L|99:307,1,88.000002685547,8|0,0:0|0:0,0:0:0:0:
228,81,168786,5,10,0:0:0:0:
318,303,168953,2,0,P|311:197|382:125,1,204.000003890991,10|0,0:0|0:0,0:0:0:0:
373,128,169286,6,0,P|284:187|186:161,1,204.000003890991,10|0,0:0|0:0,0:0:0:0:
194,167,169620,6,0,P|289:213|316:311,1,204.000003890991,10|0,0:0|0:0,0:0:0:0:
237,327,169953,5,6,1:0:0:0:
237,327,170286,5,8,0:0:0:0:
403,351,170453,1,8,0:0:0:0:
483,200,170620,1,8,0:0:0:0:
365,69,170786,1,10,0:0:0:0:
203,149,170953,1,8,0:0:0:0:
361,256,171120,5,8,0:0:0:0:
385,216,171203,1,8,0:0:0:0:
350,182,171286,1,8,3:0:0:0:
308,202,171369,1,4,3:0:0:0:
315,249,171453,1,6,1:0:0:0:
137,152,181453,5,0,0:0:0:0:
146,136,181620,1,0,0:0:0:0:
151,122,181786,2,0,P|164:151|162:188,1,60
34,196,182120,6,0,B|73:204|102:185|102:185|135:161|189:190,1,136.000002593994,4|2,1:0|0:0,0:0:0:0:
164,179,182786,1,2,0:0:0:0:
169,163,182953,1,0,0:0:0:0:
170,148,183120,1,2,0:0:0:0:
166,135,183286,1,0,0:0:0:0:
249,248,183453,6,0,P|317:258|370:197,1,136.000002593994,2|2,1:2|0:0,0:0:0:0:
364,216,184120,1,2,0:0:0:0:
359,232,184287,1,0,0:0:0:0:
358,247,184454,1,2,0:0:0:0:
362,260,184620,1,0,0:0:0:0:
201,312,184786,6,0,L|215:166,1,136.000002593994,2|2,1:2|0:0,0:0:0:0:
213,176,185453,2,0,L|208:250,1,68.0000012969971,2|0,0:0|0:0,0:0:0:0:
221,94,185786,5,8,0:0:0:0:
143,289,185953,2,0,P|197:276|269:317,1,136.000002593994,2|0,1:0|1:0,0:0:0:0:
62,331,186453,6,0,L|40:184,1,120,8|0,0:0|0:0,0:0:0:0:
25,199,186786,6,0,L|56:400,1,155.999992858887,10|0,0:0|0:0,0:0:0:0:
52,374,187120,1,10,0:0:0:0:
128,307,187286,6,0,B|149:288|184:297|184:297|223:319|223:319|267:323|289:301,1,160,6|2,1:0|1:0,0:0:0:0:
427,235,187786,2,0,P|470:262|517:252,1,80,10|0,0:0|0:0,0:0:0:0:
345,359,188120,2,0,P|362:326|337:259,1,80,2|0,1:0|0:0,0:0:0:0:
290,226,188453,1,10,0:0:0:0:
122,290,188620,6,0,B|152:101,1,160,2|2,1:0|1:0,0:0:0:0:
79,73,189120,2,0,P|41:74|5:129,1,80,10|0,0:0|0:0,0:0:0:0:
147,131,189453,1,0,1:0:0:0:
229,91,189620,1,2,1:0:0:0:
152,281,189786,1,10,0:0:0:0:
67,173,189953,6,0,B|126:139|184:183|184:183|256:239|320:182,1,256,6|0,1:0|1:0,0:0:0:0:
374,134,190453,5,8,0:0:0:0:
392,221,190620,1,0,1:0:0:0:
384,121,190786,5,8,0:0:0:0:
410,229,190953,1,2,1:0:0:0:
395,106,191120,5,10,0:0:0:0:
428,237,191286,2,0,P|361:338|243:317,1,256,6|8,1:0|0:0,0:0:0:0:
282,160,191786,5,8,0:0:0:0:
428,237,191953,1,8,0:0:0:0:
209,213,192120,5,8,0:0:0:0:
373,164,192286,1,8,0:0:0:0:
145,151,192453,5,10,0:0:0:0:
145,151,192536,1,8,0:0:0:0:
145,151,192620,2,0,P|128:177|121:226,1,64,8|8,0:0|0:0,0:0:0:0:
153,286,192786,1,14,0:0:0:0:
458,68,194120,5,6,1:0:0:0:
37,292,194953,5,2,0:0:0:0:
53,276,195120,1,2,0:0:0:0:
77,271,195286,1,2,0:0:0:0:
97,276,195453,6,0,P|67:205|164:136,1,207.999990478516,4|8,1:0|0:0,0:0:0:0:
149,216,195953,2,0,P|72:206|61:87,1,207.999990478516,4|8,1:0|0:0,0:0:0:0:
122,142,196453,6,0,P|144:135|177:138,2,51.999997619629,8|8|8,0:0|0:0|0:0,0:0:0:0:
59,205,196786,1,4,1:0:0:0:
243,86,196953,5,8,0:0:0:0:
269,114,197036,1,8,0:0:0:0:
302,129,197120,1,8,3:0:0:0:
340,131,197203,1,0,0:0:0:0:
375,118,197286,1,4,1:0:0:0:
327,48,197453,5,8,0:0:0:0:
364,35,197536,1,8,3:0:0:0:
402,38,197619,1,8,3:0:0:0:
436,59,197703,1,4,3:0:0:0:
456,91,197786,1,4,1:0:0:0:
460,129,197869,1,8,3:0:0:0:
448,166,197953,1,4,3:0:0:0:
421,194,198036,1,4,3:0:0:0:
386,206,198120,6,0,B|365:243|365:243|455:269|455:269|462:206,1,176.000005371094,6|8,1:0|0:0,0:0:0:0:
321,152,198620,1,0,3:0:0:0:
231,290,198786,2,0,P|157:274|139:232,1,88.000002685547,2|0,1:0|0:0,0:0:0:0:
85,206,199120,2,0,P|32:212|2:270,1,88.000002685547,14|0,0:0|0:0,0:0:0:0:
141,355,199453,6,0,L|154:252,1,88.000002685547,0|0,1:0|0:0,0:0:0:0:
220,105,199786,2,0,P|256:136|309:128,1,88.000002685547,10|0,0:0|3:0,0:0:0:0:
360,82,200120,1,6,1:0:0:0:
360,82,200286,1,0,1:0:0:0:
181,185,200453,2,0,L|87:199,1,88.000002685547,14|0,0:0|0:0,0:0:0:0:
291,252,200786,5,4,1:0:0:0:
341,182,200953,1,0,0:0:0:0:
306,105,201120,1,8,0:0:0:0:
181,185,201286,5,6,1:0:0:0:
186,207,201453,1,0,0:0:0:0:
260,174,201620,5,0,1:0:0:0:
120,125,201786,1,8,0:0:0:0:
23,213,201953,1,2,1:0:0:0:
159,344,202120,6,0,B|200:359|239:337|239:337|289:303|356:341,1,176.000005371094,6|10,1:0|0:0,0:0:0:0:
342,128,202620,2,0,P|272:98|292:189,1,176.000005371094,6|4,1:0|3:0,0:0:0:0:
159,344,203120,1,8,0:0:0:0:
126,349,203203,1,8,0:0:0:0:
94,342,203286,1,8,3:0:0:0:
67,324,203370,1,4,3:0:0:0:
48,297,203453,6,0,B|45:234|45:234|24:195|24:195|24:126,1,176.000005371094,6|14,1:0|0:0,0:0:0:0:
144,223,203953,2,0,L|148:310,1,88.000002685547,2|0,0:0|1:0,0:0:0:0:
265,382,204286,1,2,0:0:0:0:
344,267,204453,2,0,L|256:271,1,88.000002685547,14|2,0:0|0:0,0:0:0:0:
370,190,204786,6,0,P|424:253|392:330,1,176.000005371094,2|14,1:0|0:0,0:0:0:0:
287,178,205286,2,0,P|300:137|335:112,1,88.000002685547,2|0,0:0|1:0,0:0:0:0:
370,190,205620,1,2,0:0:0:0:
256,271,205786,2,0,L|169:255,1,88.000002685547,12|2,0:0|0:0,0:0:0:0:
32,140,206120,6,0,P|117:122|204:132,1,176.000005371094,6|14,1:0|0:0,0:0:0:0:
64,231,206620,1,2,0:0:0:0:
124,90,206786,2,0,P|167:90|210:100,1,88.000002685547,0|2,1:0|0:0,0:0:0:0:
375,169,207120,2,0,P|331:168|288:178,1,88.000002685547,14|2,0:0|0:0,0:0:0:0:
460,38,207453,6,0,B|415:126|494:126|451:213,1,176.000005371094,6|10,1:0|0:0,0:0:0:0:
383,323,207953,2,0,P|309:312|348:249,1,176.000005371094,6|2,1:0|1:0,0:0:0:0:
467,314,208453,1,8,0:0:0:0:
322,368,208620,1,0,1:0:0:0:
207,287,208786,6,0,B|99:260|99:260|36:274,1,176.000005371094,4|0,1:0|0:0,0:0:0:0:
36,273,209286,1,0,1:0:0:0:
145,157,209453,5,10,0:0:0:0:
36,153,209620,1,0,0:0:0:0:
178,71,209786,5,2,0:0:0:0:
4,69,209953,1,0,0:0:0:0:
158,165,210120,6,0,B|200:177|200:177|243:168,1,88.000002685547,2|8,1:0|0:0,0:0:0:0:
366,92,210453,1,0,0:0:0:0:
341,198,210620,1,0,1:0:0:0:
325,24,210786,2,0,P|367:13|409:24,1,88.000002685547,10|0,0:0|0:0,0:0:0:0:
463,200,211120,2,0,L|481:113,1,88.000002685547,2|0,0:0|0:0,0:0:0:0:
422,278,211453,6,0,B|365:296|295:274|295:274|337:254,1,176.000005371094,6|0,1:2|0:2,0:0:0:0:
463,200,211953,1,2,1:0:0:0:
382,360,212120,1,10,0:0:0:0:
376,371,212453,5,12,0:0:0:0:
295,274,212620,1,0,0:0:0:0:
215,327,212786,5,8,0:0:0:0:
225,177,212953,1,0,1:0:0:0:
118,330,213120,1,0,1:0:0:0:
50,157,213286,2,0,L|137:160,1,88.000002685547,8|0,0:3|1:0,0:0:0:0:
215,327,213620,5,0,1:0:0:0:
294,136,213786,2,0,L|162:142,1,132.00000402832,10|0,0:0|0:0,0:0:0:0:
137,160,214120,6,0,B|102:89|132:23|132:23|158:65,1,191.999994140625,4|0,1:0|1:0,0:0:0:0:
294,136,214620,1,14,0:0:0:0:
203,241,214786,5,2,1:0:0:0:
378,190,214953,1,0,1:0:0:0:
137,160,215120,5,12,0:0:0:0:
320,258,215286,1,0,1:0:0:0:
57,226,215453,5,12,0:0:0:0:
57,226,215786,6,0,B|41:187|57:147|57:147|38:118|38:118|51:85|42:24,1,191.999994140625,2|2,0:0|0:0,0:0:0:0:
133,192,216286,1,2,0:0:0:0:
132,191,216453,6,0,P|174:204|217:194,1,90.0000034332277,2|0,0:0|0:0,0:0:0:0:
239,184,216786,6,0,P|277:176|316:186,1,80,4|2,1:0|0:0,0:0:0:0:
284,334,217120,2,0,L|274:255,1,80,8|2,0:0|0:0,0:0:0:0:
319,100,217453,1,2,1:0:0:0:
319,100,217620,1,0,0:0:0:0:
420,202,217786,2,0,P|381:209|342:199,1,80,10|0,0:0|0:0,0:0:0:0:
227,127,218120,6,0,P|157:91|84:117,1,160,2|8,1:0|0:0,0:0:0:0:
98,325,218620,1,2,0:0:0:0:
156,253,218786,2,0,B|166:217|166:217|153:176,1,80,2|0,1:0|0:0,0:0:0:0:
10,87,219120,2,0,B|0:122|0:122|12:163,1,80,10|0,0:0|0:0,0:0:0:0:
169,264,219453,6,0,B|251:293|252:240|335:270,1,160,2|10,1:0|0:0,0:0:0:0:
289,342,219953,1,0,1:0:0:0:
214,188,220120,2,0,P|217:148|238:114,1,80,2|0,0:0|1:0,0:0:0:0:
293,181,220453,1,10,0:0:0:0:
131,199,220620,6,0,P|142:121|183:53,1,160,2|2,1:0|1:0,0:0:0:0:
293,181,221120,2,0,P|254:191|214:188,1,80,10|0,0:0|0:0,0:0:0:0:
245,108,221453,1,2,1:0:0:0:
354,251,221620,1,2,0:0:0:0:
371,125,221786,1,10,0:0:0:0:
228,234,221953,1,2,0:0:0:0:
387,111,222120,6,0,L|466:108,1,80,6|2,1:0|0:0,0:0:0:0:
312,35,222453,2,0,L|232:32,1,80,10|0,0:0|0:0,0:0:0:0:
334,195,222786,2,0,P|372:203|411:194,1,80,2|0,1:0|0:0,0:0:0:0:
248,121,223120,2,0,P|209:112|170:121,1,80,10|2,0:0|0:0,0:0:0:0:
231,276,223453,6,0,B|244:218|244:218|234:181|234:181|247:120,1,160,0|10,1:0|0:0,0:0:0:0:
312,34,223953,2,0,P|349:22|388:29,1,80,2|0,1:0|0:0,0:0:0:0:
467,172,224286,1,2,1:0:0:0:
352,101,224453,1,8,0:0:0:0:
490,17,224620,6,0,P|464:92|466:171,1,160,6|2,1:0|1:0,0:0:0:0:
412,317,225120,1,10,0:0:0:0:
401,220,225286,1,2,0:0:0:0:
496,355,225453,5,2,1:0:0:0:
324,364,225620,1,2,0:0:0:0:
481,263,225786,1,10,0:0:0:0:
315,264,225953,6,0,B|282:247|249:253|249:253|224:243|224:243|191:252|154:233,1,160,4|10,1:0|0:0,0:0:0:0:
202,167,226453,2,0,L|211:128,1,40,2|0,0:0|0:0,0:0:0:0:
268,64,226620,2,0,L|258:25,1,40,8|8,0:0|0:0,0:0:0:0:
358,120,226786,5,4,3:0:0:0:
194,172,226952,1,4,3:0:0:0:
393,280,227120,2,0,P|391:236|358:196,1,80,4|0,3:0|0:0,0:0:0:0:
186,177,227453,5,4,0:0:0:0:
256,192,227536,12,0,233120,0:0:0:0:
