osu file format v14

[General]
AudioFilename: audio.mp3
AudioLeadIn: 0
PreviewTime: 56471
Countdown: 0
SampleSet: Soft
StackLeniency: 0.5
Mode: 0
LetterboxInBreaks: 0
WidescreenStoryboard: 0

[Editor]
DistanceSpacing: 1.1
BeatDivisor: 2
GridSize: 16
TimelineZoom: 1.5

[Metadata]
Title:Hitokoto no Kyori
TitleUnicode:ヒトコトの距離
Artist:*namirin
ArtistUnicode:*なみりん
Creator:sahuang
Version:Collab Easy
Source:
Tags:5colors Beomsan Akitoshi Corinn joker- Linada Left Sotarks Slayed My Angel Azusa
BeatmapID:1412627
BeatmapSetID:667290

[Difficulty]
HPDrainRate:2
CircleSize:2.5
OverallDifficulty:2
ApproachRate:2.5
SliderMultiplier:0.8
SliderTickRate:1

[Events]
//Background and Video events
0,0,"lol.jpg",0,0
//Break Periods
2,83653,89953
2,171653,180620
//Storyboard Layer 0 (Background)
//Storyboard Layer 1 (Fail)
//Storyboard Layer 2 (Pass)
//Storyboard Layer 3 (Foreground)
//Storyboard Sound Samples

[TimingPoints]
787,333.333333333333,4,2,1,50,1,0
8786,-100,4,2,1,70,0,0
24786,-100,4,2,2,50,0,0
35453,-100,4,2,1,60,0,0
52786,-100,4,2,1,70,0,0
56786,-100,4,2,1,80,0,1
67120,-100,4,2,1,80,0,0
67453,-100,4,2,1,80,0,1
80786,-100,4,2,1,70,0,0
91453,-100,4,2,1,60,0,0
101120,-100,4,2,1,70,0,0
101620,-100,4,2,1,70,0,0
112786,-100,4,2,1,60,0,0
119453,-100,4,2,1,70,0,0
121286,-100,4,2,1,70,0,0
123453,-100,4,2,1,80,0,1
133786,-100,4,2,1,80,0,0
134120,-100,4,2,1,80,0,1
140120,-100,4,2,1,80,0,1
144786,-100,4,2,1,80,0,1
147453,-100,4,2,1,70,0,0
149786,-100,4,2,1,70,0,0
150120,-100,4,2,1,70,0,0
156620,-100,4,2,1,70,0,0
159286,-100,4,2,1,60,0,0
160286,-100,4,2,1,70,0,0
182120,-100,4,2,2,60,0,0
186453,-100,4,2,1,60,0,0
187286,-100,4,2,1,70,0,0
195453,-100,4,2,1,80,0,1
215453,-100,4,2,1,80,0,0
216786,-100,4,2,1,70,0,0
233120,-100,4,2,1,10,0,0

[Colours]
Combo1 : 253,255,164
Combo2 : 95,95,254
Combo3 : 189,217,216
Combo4 : 255,70,70
SliderTrackOverride : 0,0,15
SliderBorder : 255,255,248

[HitObjects]
196,199,787,6,0,L|69:191,2,120,2|2|2,0:0|0:0|0:0,0:0:0:0:
263,142,2120,2,0,L|390:134,2,120,2|2|2,0:0|0:0|0:0,0:0:0:0:
203,77,3453,2,0,P|151:61|53:103,1,160,2|2,0:0|0:0,0:0:0:0:
35,184,4453,1,2,0:0:0:0:
89,256,4786,2,0,P|140:281|218:244,2,120,2|2|2,0:0|0:0|0:0,0:0:0:0:
150,192,6120,6,0,B|153:87|153:87|193:43,1,160,2|2,0:0|0:0,0:0:0:0:
277,33,7120,1,2,0:0:0:0:
353,76,7453,2,0,L|444:80,1,80,2|2,0:0|0:0,0:0:0:0:
441,167,8120,2,0,L|361:163,1,80,14|0,0:0|0:0,0:0:0:0:
278,193,8786,6,0,P|226:233|329:315,1,240,6|8,1:0|0:0,0:0:0:0:
395,267,10120,2,0,L|400:110,2,120,4|4|6,1:0|1:0|1:0,0:0:0:0:
323,318,11453,6,0,B|217:384|215:276|75:348,1,240,4|8,1:0|0:0,0:0:0:0:
8,366,12786,1,4,1:0:0:0:
177,57,14120,6,0,L|184:144,1,80,4|8,1:0|0:0,0:0:0:0:
242,202,14786,2,0,L|235:289,1,80,2|10,1:0|0:0,0:0:0:0:
165,335,15453,2,0,P|116:324|77:330,2,80,2|8|2,1:0|0:0|1:0,0:0:0:0:
245,370,16453,1,10,0:0:0:0:
318,322,16786,6,0,P|367:311|406:317,2,80,2|10|2,1:0|0:0|0:0,0:0:0:0:
211,244,17953,2,0,P|201:164|210:96,1,120,2|10,1:0|0:0,0:0:0:0:
263,60,18786,2,0,P|316:53|350:60,1,80,2|10,1:0|0:0,0:0:0:0:
419,99,19453,6,0,P|428:158|415:201,1,80,6|10,1:0|0:0,0:0:0:0:
359,237,20120,2,0,P|350:296|363:339,1,80,2|10,1:0|0:0,0:0:0:0:
285,371,20786,2,0,L|196:377,2,80,0|10|0,1:0|0:0|0:0,0:0:0:0:
221,254,21953,6,0,L|85:260,1,120,6|10,1:0|0:0,0:0:0:0:
24,215,22786,2,0,P|22:173|32:123,1,80,2|10,1:0|0:0,0:0:0:0:
256,192,23286,12,14,24786,1:2:0:0:
369,303,26120,6,0,P|382:239|369:157,2,120,10|2|8,1:2|0:0|0:0,0:0:0:0:
287,335,27453,2,0,P|239:341|188:331,1,80,10|8,1:2|0:0,0:0:0:0:
135,287,28120,2,0,P|129:239|139:188,1,80,8|10,0:0|0:0,0:0:0:0:
191,142,28786,2,0,P|195:102|189:62,2,80,8|8|8,1:2|0:0|0:0,0:0:0:0:
301,261,30120,6,0,B|436:254,2,120,10|2|8,1:2|0:0|0:0,0:0:0:0:
309,173,31453,2,0,B|444:166,2,120,10|2|8,1:2|0:0|0:0,0:0:0:0:
226,140,32786,6,0,P|174:114|91:119,1,120,10|2,1:2|0:0,0:0:0:0:
39,160,33620,1,2,0:0:0:0:
93,280,34120,2,0,P|131:304|176:306,1,80,2|8,1:2|0:0,0:0:0:0:
242,265,34786,1,2,0:0:0:0:
318,308,35120,1,8,0:0:0:0:
392,261,35453,6,0,L|382:123,2,120,6|2|10,1:0|0:0|0:0,0:0:0:0:
479,263,36786,2,0,L|469:125,2,120,2|2|8,1:0|0:0|0:0,0:0:0:0:
450,346,38120,6,0,L|362:353,1,80,2|8,1:0|0:0,0:0:0:0:
300,299,38786,2,0,L|212:292,1,80,0|10,1:0|0:0,0:0:0:0:
139,327,39453,2,0,L|51:334,2,80,0|8|2,1:0|0:0|1:0,0:0:0:0:
226,174,40786,6,0,P|231:132|185:63,2,120,2|2|10,1:0|0:0|0:0,0:0:0:0:
143,143,42120,2,0,P|101:138|36:178,2,120,2|2|10,1:0|0:0|0:0,0:0:0:0:
159,229,43453,5,0,1:0:0:0:
226,174,43786,1,8,0:0:0:0:
290,233,44120,2,0,L|292:277,2,40,0|0|8,1:0|1:0|0:0,0:0:0:0:
342,160,44786,2,0,P|402:153|441:156,1,80,0|2,1:0|0:0,0:0:0:0:
491,206,45453,2,0,P|498:266|495:305,1,80,10|2,0:0|1:0,0:0:0:0:
441,353,46120,6,0,B|391:368|345:327|345:327|318:352|272:360,1,160,6|8,1:0|0:0,0:0:0:0:
178,223,47453,2,0,B|228:208|274:249|274:249|301:224|347:216,1,160,2|8,1:0|0:0,0:0:0:0:
303,46,48786,6,0,P|230:48|184:130,1,160,2|8,1:0|0:0,0:0:0:0:
262,272,50120,2,0,P|335:270|381:188,1,160,0|10,1:0|0:0,0:0:0:0:
379,114,51120,1,10,0:0:0:0:
306,63,51453,6,0,L|223:66,1,80,6|10,1:0|0:0,0:0:0:0:
139,51,52120,2,0,L|100:124,1,80,2|10,0:0|0:0,0:0:0:0:
39,183,52786,2,0,L|83:253,1,80,2|8,1:0|0:0,0:0:0:0:
112,334,53453,2,0,L|195:331,1,80,2|8,0:0|0:0,0:0:0:0:
267,286,54120,6,0,B|280:243|280:243|262:150,2,120,6|4|8,1:0|1:0|0:0,0:0:0:0:
271,373,55453,2,0,L|364:379,2,80,8|8|4,0:0|0:0|3:0,0:0:0:0:
402,255,56786,6,0,L|389:99,2,120,6|2|10,1:0|0:0|0:0,0:0:0:0:
314,245,58120,2,0,L|307:159,1,80,6|10,1:0|0:0,0:0:0:0:
250,98,58786,2,0,L|164:105,1,80,0|10,1:0|0:0,0:0:0:0:
86,131,59453,6,0,P|71:175|76:213,1,80,6|8,1:0|0:0,0:0:0:0:
142,264,60120,2,0,P|144:303|130:340,1,80,0|10,1:0|0:0,0:0:0:0:
49,375,60786,2,0,L|222:361,1,160,6|0,1:0|1:0,0:0:0:0:
272,301,61786,1,10,0:0:0:0:
351,339,62120,6,0,P|401:340|463:230,1,160,6|2,1:0|1:0,0:0:0:0:
472,172,63120,1,10,0:0:0:0:
404,115,63453,2,0,L|318:127,1,80,6|10,1:0|0:0,0:0:0:0:
251,175,64120,2,0,L|165:163,1,80,2|10,1:0|0:0,0:0:0:0:
94,205,64786,6,0,L|104:343,2,120,6|6|8,0:0|1:0|0:0,0:0:0:0:
38,136,66120,2,0,P|35:70|61:13,1,120,6|6,1:0|1:0,0:0:0:0:
164,95,67120,1,8,0:0:0:0:
251,89,67453,6,0,L|385:82,2,120,6|2|10,1:0|0:0|0:0,0:0:0:0:
213,168,68786,2,0,P|202:217|209:252,1,80,6|10,1:0|0:0,0:0:0:0:
277,299,69453,2,0,P|291:337|285:376,1,80,0|10,1:0|0:0,0:0:0:0:
201,347,70120,6,0,P|146:356|32:349,1,160,6|2,1:0|1:0,0:0:0:0:
15,267,71120,1,10,0:0:0:0:
95,225,71453,2,0,B|113:168|113:168|98:103,2,120,6|6|10,1:0|1:0|0:0,0:0:0:0:
120,309,72786,5,4,1:0:0:0:
275,228,73453,2,0,P|322:225|361:236,1,80,10|2,0:0|0:0,0:0:0:0:
408,164,74120,2,0,P|381:124|371:85,1,80,2|0,1:0|0:0,0:0:0:0:
286,76,74786,2,0,P|265:118|236:146,1,80,10|2,0:0|0:0,0:0:0:0:
159,172,75453,6,0,B|128:243|189:257|162:337,1,160,2|10,1:0|0:0,0:0:0:0:
247,358,76453,1,12,0:0:0:0:
320,310,76786,2,0,L|424:304,1,80,8|0,0:0|1:0,0:0:0:0:
421,220,77453,2,0,L|341:224,1,80,0|10,0:0|0:0,0:0:0:0:
254,207,78120,6,0,P|262:161|231:33,1,160,6|8,1:0|0:0,0:0:0:0:
154,33,79120,1,8,0:0:0:0:
91,95,79453,1,0,1:0:0:0:
113,179,79786,2,0,P|114:219|109:266,2,80,14|6|10,0:0|3:0|0:0,0:0:0:0:
256,192,80786,12,0,83453,0:0:0:0:
142,136,91453,6,0,L|131:-1,2,120,6|2|2,1:0|0:0|1:0,0:0:0:0:
227,110,92786,2,0,P|279:128|348:116,2,120,2|2|0,1:0|0:0|1:0,0:0:0:0:
207,196,94120,6,0,L|220:363,1,160,2|0,1:0|1:0,0:0:0:0:
304,378,95120,1,2,1:0:0:0:
384,343,95453,2,0,B|423:343|423:343|474:366,1,80,0|0,1:0|1:0,0:0:0:0:
486,275,96120,2,0,L|477:180,1,80,0|0,1:0|1:0,0:0:0:0:
400,154,96786,6,0,P|443:114|501:111,2,120,2|2|0,1:0|0:0|1:0,0:0:0:0:
318,119,98120,2,0,L|188:114,1,120,2|2,1:0|0:0,0:0:0:0:
75,65,99120,1,0,1:0:0:0:
33,142,99453,6,0,B|22:202|22:202|40:261,1,120,6|0,1:0|0:0,0:0:0:0:
250,327,100786,2,0,L|352:322,1,80,2|12,1:0|0:0,0:0:0:0:
337,235,101453,2,0,L|235:240,1,80,0|8,1:0|0:0,0:0:0:0:
174,268,102120,6,0,P|172:210|218:158,1,120,6|2,1:0|0:0,0:0:0:0:
317,87,103120,1,8,0:0:0:0:
398,117,103453,2,0,P|400:59|364:13,2,120,2|2|8,1:0|1:0|0:0,0:0:0:0:
330,173,104786,6,0,L|322:345,1,160,2|0,1:0|1:0,0:0:0:0:
241,366,105786,1,10,0:0:0:0:
155,344,106120,2,0,B|116:344|116:344|65:367,1,80,0|8,1:0|0:0,0:0:0:0:
57,275,106786,2,0,L|49:185,1,80,2|10,1:0|0:0,0:0:0:0:
107,128,107453,6,0,P|73:86|70:14,2,120,2|2|10,1:0|0:0|0:0,0:0:0:0:
190,157,108786,2,0,L|315:145,2,120,2|2|10,1:0|0:0|0:0,0:0:0:0:
137,227,110120,5,0,1:0:0:0:
154,313,110453,1,8,0:0:0:0:
234,349,110786,2,0,L|292:350,2,40,0|0|8,1:0|1:0|0:0,0:0:0:0:
253,262,111453,2,0,L|340:264,1,80,0|2,1:0|0:0,0:0:0:0:
364,346,112120,2,0,L|443:344,1,80,10|4,0:0|0:3,0:0:0:0:
483,265,112786,6,0,B|469:229|448:207|448:207|430:162|454:101,1,160,6|8,1:0|0:0,0:0:0:0:
291,36,114120,2,0,B|305:72|326:94|326:94|344:139|320:200,1,160,2|8,1:0|0:0,0:0:0:0:
195,303,115453,6,0,P|122:313|63:240,1,160,2|8,1:0|0:0,0:0:0:0:
115,87,116787,2,0,P|187:76|246:149,1,160,0|10,1:0|0:0,0:0:0:0:
246,222,117786,1,10,0:0:0:0:
209,302,118120,6,0,L|297:314,1,80,6|10,1:0|0:0,0:0:0:0:
366,352,118786,2,0,L|420:281,1,80,2|10,0:0|0:0,0:0:0:0:
488,241,119453,2,0,L|454:158,1,80,2|8,1:0|0:0,0:0:0:0:
452,79,120120,2,0,L|363:66,1,80,2|8,0:0|0:0,0:0:0:0:
318,137,120786,6,0,B|257:150|257:150|216:193,2,120,6|4|8,1:0|1:0|0:0,0:0:0:0:
372,68,122120,2,0,P|398:39|416:-8,2,80,8|8|4,0:0|0:0|3:0,0:0:0:0:
195,71,123453,6,0,P|132:66|87:97,2,120,6|2|10,1:0|0:0|0:0,0:0:0:0:
159,151,124786,2,0,L|148:238,1,80,6|10,1:0|0:0,0:0:0:0:
72,274,125453,2,0,P|85:312|95:357,1,80,0|10,1:0|0:0,0:0:0:0:
177,323,126120,6,0,P|210:296|254:287,1,80,6|8,1:0|0:0,0:0:0:0:
294,213,126786,2,0,P|324:238|362:249,1,80,0|10,1:0|0:0,0:0:0:0:
432,302,127453,2,0,L|408:134,1,160,6|0,1:0|1:0,0:0:0:0:
348,80,128453,1,10,0:0:0:0:
267,43,128786,6,0,B|210:50|210:50|174:80|174:80|114:91,1,160,6|2,1:0|1:0,0:0:0:0:
58,153,129786,1,10,0:0:0:0:
95,232,130120,2,0,L|87:330,1,80,6|10,1:0|0:0,0:0:0:0:
173,334,130786,2,0,L|181:236,1,80,2|10,1:0|0:0,0:0:0:0:
266,239,131453,6,0,L|257:367,2,120,6|6|8,0:0|1:0|0:0,0:0:0:0:
323,172,132786,2,0,P|271:135|247:83,1,120,6|6,1:0|1:0,0:0:0:0:
373,47,133786,1,8,0:0:0:0:
428,115,134120,6,0,L|437:243,2,120,6|2|10,1:0|0:0|0:0,0:0:0:0:
448,30,135453,2,0,P|399:32|359:60,1,80,6|10,1:0|0:0,0:0:0:0:
342,129,136120,2,0,L|249:113,1,80,0|10,1:0|0:0,0:0:0:0:
203,50,136786,6,0,P|123:60|61:110,1,160,6|2,1:0|1:0,0:0:0:0:
15,182,137786,1,10,0:0:0:0:
53,261,138120,2,0,P|34:323|23:381,2,120,6|6|10,1:0|1:0|0:0,0:0:0:0:
136,233,139453,5,6,1:0:0:0:
280,353,140120,2,0,P|321:330|361:323,1,80,10|2,0:0|0:0,0:0:0:0:
374,239,140787,2,0,P|332:214|307:183,1,80,2|0,1:0|0:0,0:0:0:0:
225,210,141453,2,0,P|223:256|209:294,1,80,10|2,0:0|0:0,0:0:0:0:
139,238,142120,6,0,B|117:166|177:158|156:74,1,160,2|10,1:0|0:0,0:0:0:0:
219,19,143120,1,12,0:0:0:0:
301,48,143453,2,0,P|340:40|392:35,1,80,8|0,0:0|1:0,0:0:0:0:
467,49,144120,2,0,P|457:91|451:145,1,80,0|10,0:0|0:0,0:0:0:0:
379,177,144786,6,0,P|394:220|386:352,1,160,6|8,1:0|0:0,0:0:0:0:
311,366,145786,1,8,0:0:0:0:
238,315,146119,1,0,1:0:0:0:
245,229,146453,2,0,P|239:189|225:144,2,80,14|6|10,0:0|3:0|0:0,0:0:0:0:
165,266,147453,6,0,L|81:282,1,80,0|12,1:0|0:0,0:0:0:0:
7,242,148120,2,0,P|0:185|37:96,1,120,8|4,3:0|1:0,0:0:0:0:
76,61,148953,2,0,L|68:20,2,40,8|8|12,0:0|0:0|0:0,0:0:0:0:
196,115,149786,1,12,0:0:0:0:
277,81,150120,6,0,P|316:93|347:211,1,160,6|0,1:0|1:0,0:0:0:0:
286,253,151120,1,10,0:0:0:0:
198,265,151453,2,0,B|155:247|155:247|102:276|32:277,1,160,0|2,1:0|1:0,0:0:0:0:
7,197,152453,1,10,0:0:0:0:
50,120,152786,6,0,B|127:79|138:149|211:105,1,160,2|0,1:0|1:0,0:0:0:0:
270,51,153786,1,8,0:0:0:0:
353,80,154120,2,0,B|380:114|380:114|368:239,1,160,2|0,1:0|1:0,0:0:0:0:
339,313,155120,1,8,0:0:0:0:
252,326,155453,6,0,L|153:322,2,80,0|10|2,1:0|0:0|1:0,0:0:0:0:
160,230,156620,2,0,L|304:236,1,120,6|10,1:0|0:0,0:0:0:0:
362,204,157453,2,0,P|370:156|361:120,1,80,2|4,0:0|3:0,0:0:0:0:
290,77,158120,6,0,P|240:90|149:79,1,120,10|14,0:0|0:0,0:0:0:0:
90,54,158953,1,10,0:0:0:0:
29,117,159286,2,0,L|36:263,1,120,10|10,3:2|0:0,0:0:0:0:
85,309,160120,1,2,0:0:0:0:
171,325,160453,1,10,0:0:0:0:
247,282,160786,6,0,L|346:273,1,80,6|8,1:0|0:0,0:0:0:0:
412,293,161453,2,0,L|421:392,2,80,0|8|0,1:0|0:0|1:0,0:0:0:0:
466,223,162453,1,8,0:0:0:0:
445,137,162786,6,0,P|398:99|293:123,1,160,2|2,1:0|1:0,0:0:0:0:
241,174,163786,1,8,0:0:0:0:
173,231,164120,2,0,P|121:243|46:226,1,120,0|6,1:0|1:0,0:0:0:0:
10,107,165120,1,10,0:0:0:0:
83,58,165453,2,0,L|178:59,1,80,0|10,1:0|0:0,0:0:0:0:
244,93,166120,6,0,L|367:70,2,120,2|2|10,1:0|0:0|0:0,0:0:0:0:
171,143,167453,2,0,P|147:184|69:192,2,120,2|2|8,0:0|0:0|0:0,0:0:0:0:
249,182,168786,2,0,L|298:179,1,40,10|10,0:0|0:0,0:0:0:0:
371,210,169286,1,10,0:0:0:0:
303,267,169620,1,10,0:0:0:0:
256,192,169953,12,6,171453,1:0:0:0:
93,328,182120,6,0,L|102:224,1,80,4|8,1:0|0:0,0:0:0:0:
187,244,182786,2,0,L|178:348,1,80,8|8,0:0|0:0,0:0:0:0:
267,312,183453,2,0,L|276:208,1,80,10|10,1:2|0:0,0:0:0:0:
361,228,184119,2,0,L|352:332,1,80,10|10,0:0|0:0,0:0:0:0:
441,319,184786,6,0,B|451:212|451:212|433:171|413:157,1,160,10|10,1:2|0:0,0:0:0:0:
300,115,185953,2,0,P|199:130|159:116,1,120,2|8,1:0|0:0,0:0:0:0:
105,84,186786,1,10,0:0:0:0:
39,198,187286,6,0,L|46:322,1,120,6|10,1:0|0:0,0:0:0:0:
124,358,188120,1,2,1:0:0:0:
233,283,188620,2,0,P|276:263|369:270,1,120,2|10,1:0|0:0,0:0:0:0:
430,292,189453,2,0,L|447:158,1,120,0|6,1:0|1:0,0:0:0:0:
382,56,190453,5,8,0:0:0:0:
302,94,190786,2,0,B|242:107|242:107|184:93,1,120,8|6,0:0|1:0,0:0:0:0:
256,192,191453,12,14,192786,0:0:0:0:
211,173,194120,5,6,1:0:0:0:
211,173,195453,2,0,L|350:178,2,120,4|4|8,1:0|1:0|0:0,0:0:0:0:
129,206,196786,2,0,P|116:245|126:298,1,80,4|8,1:0|3:0,0:0:0:0:
178,349,197453,2,0,P|217:362|270:352,1,80,8|4,0:0|1:0,0:0:0:0:
326,306,198120,6,0,L|496:298,1,160,6|2,1:0|1:0,0:0:0:0:
487,210,199120,1,14,0:0:0:0:
410,166,199453,2,0,L|405:72,1,80,0|10,1:0|0:0,0:0:0:0:
317,87,200120,2,0,L|312:166,1,80,2|14,1:0|0:0,0:0:0:0:
248,226,200786,6,0,L|262:351,2,120,4|6|8,1:0|1:0|0:0,0:0:0:0:
190,158,202120,2,0,P|142:149|73:173,1,120,6|6,1:0|1:0,0:0:0:0:
25,293,203120,1,8,0:0:0:0:
99,339,203453,6,0,L|243:323,2,120,6|2|14,1:0|0:0|0:0,0:0:0:0:
107,251,204786,2,0,P|118:202|111:167,1,80,2|14,1:0|0:0,0:0:0:0:
42,120,205453,2,0,P|28:82|34:43,1,80,0|12,1:0|0:0,0:0:0:0:
117,72,206120,6,0,P|172:63|286:70,1,160,6|0,1:0|1:0,0:0:0:0:
360,93,207120,1,14,0:0:0:0:
416,160,207453,2,0,L|416:317,2,120,6|6|8,1:0|1:0|0:0,0:0:0:0:
360,93,208786,5,4,1:0:0:0:
267,242,209453,2,0,P|220:245|181:234,1,80,10|2,0:0|0:0,0:0:0:0:
170,150,210120,2,0,L|164:44,1,80,2|0,1:0|0:0,0:0:0:0:
77,71,210786,2,0,L|81:150,1,80,10|2,0:0|0:0,0:0:0:0:
37,227,211453,6,0,P|-10:252|51:319,2,160,6|10|8,1:2|0:0|0:0,0:0:0:0:
115,266,213120,1,0,1:0:0:0:
183,209,213453,2,0,L|263:205,1,80,0|10,0:0|0:0,0:0:0:0:
312,131,214120,6,0,P|304:177|335:305,1,160,4|2,1:0|1:0,0:0:0:0:
391,345,215120,1,12,0:0:0:0:
478,333,215453,1,12,0:0:0:0:
506,249,215786,2,0,P|505:209|488:165,2,80,2|2|2,0:0|0:0|0:0,0:0:0:0:
478,333,216786,5,4,0:0:0:0:
256,192,217120,12,2,219453,1:0:0:0:
373,75,220786,6,0,L|369:174,1,80,0|10,0:0|0:0,0:0:0:0:
299,207,221453,2,0,L|303:306,1,80,2|10,1:0|0:0,0:0:0:0:
239,348,222120,6,0,P|199:352|134:348,2,80,6|10|2,1:0|0:0|1:0,0:0:0:0:
302,286,223120,1,10,0:0:0:0:
258,209,223453,2,0,L|263:112,1,80,0|10,1:0|0:0,0:0:0:0:
211,57,224120,2,0,P|146:45|80:54,1,120,0|6,0:0|1:0,0:0:0:0:
8,152,225120,6,0,L|15:246,1,80,10|2,0:0|1:0,0:0:0:0:
113,318,225953,2,0,P|157:303|255:315,1,120,4|2,1:0|0:0,0:0:0:0:
305,350,226786,1,4,3:0:0:0:
392,336,227120,1,4,3:0:0:0:
434,259,227453,5,4,0:0:0:0:
256,192,227620,12,0,233120,0:0:0:0:
