osu file format v14

[General]
AudioFilename: audio.mp3
AudioLeadIn: 0
PreviewTime: 56471
Countdown: 0
SampleSet: Soft
StackLeniency: 0.4
Mode: 0
LetterboxInBreaks: 0
WidescreenStoryboard: 0

[Editor]
DistanceSpacing: 1.3
BeatDivisor: 4
GridSize: 16
TimelineZoom: 1.5

[Metadata]
Title:Hitokoto no Kyori
TitleUnicode:ヒトコトの距離
Artist:*namirin
ArtistUnicode:*なみりん
Creator:sahuang
Version:Expert
Source:
Tags:5colors Beomsan Akitoshi Corinn joker- Linada Left Sotarks Slayed My Angel Azusa
BeatmapID:1411983
BeatmapSetID:667290

[Difficulty]
HPDrainRate:6
CircleSize:4.3
OverallDifficulty:8
ApproachRate:9
SliderMultiplier:1.6
SliderTickRate:1

[Events]
//Background and Video events
0,0,"lol.jpg",0,0
//Break Periods
2,83653,88020
2,171653,181520
//Storyboard Layer 0 (Background)
//Storyboard Layer 1 (Fail)
//Storyboard Layer 2 (Pass)
//Storyboard Layer 3 (Foreground)
//Storyboard Sound Samples

[TimingPoints]
787,333.333333333333,4,2,1,40,1,0
787,-125,4,2,1,40,0,0
8786,-100,4,2,1,50,0,0
24786,-125,4,2,2,45,0,0
34120,-111.111111111111,4,2,1,45,0,0
35453,-100,4,2,1,45,0,0
46120,-111.111111111111,4,2,1,45,0,0
52786,-100,4,2,1,60,0,0
54620,-90.9090909090909,4,2,1,60,0,0
56786,-83.3333333333333,4,2,1,70,0,1
60203,-83.3333333333333,4,2,1,10,0,1
60286,-83.3333333333333,4,2,1,70,0,1
67120,-83.3333333333333,4,2,1,70,0,0
67453,-83.3333333333333,4,2,1,70,0,1
73453,-100,4,2,1,70,0,1
78120,-83.3333333333333,4,2,1,70,0,1
80786,-100,4,2,1,60,0,0
91453,-125,4,2,1,60,0,0
101120,-83.3333333333333,4,2,1,60,0,0
101620,-100,4,2,1,60,0,0
109036,-100,4,2,1,10,0,0
109120,-100,4,2,1,60,0,0
109536,-100,4,2,1,10,0,0
109620,-100,4,2,1,60,0,0
112786,-111.111111111111,4,2,1,60,0,0
119453,-100,4,2,1,60,0,0
121286,-90.9090909090908,4,2,1,60,0,0
123453,-83.3333333333333,4,2,1,70,0,1
133786,-83.3333333333333,4,2,1,70,0,0
134120,-83.3333333333333,4,2,1,70,0,1
140120,-100,4,2,1,70,0,1
144786,-83.3333333333333,4,2,1,70,0,1
147453,-83.3333333333333,4,2,1,55,0,0
149786,-100,4,2,1,55,0,0
150120,-90.9090909090909,4,2,1,55,0,0
156620,-83.3333333333333,4,2,1,55,0,0
158120,-90.9090909090909,4,2,1,55,0,0
159286,-111.111111111111,4,2,1,60,0,0
160286,-100,4,2,1,60,0,0
160786,-90.9090909090909,4,2,1,60,0,0
169286,-76.9230769230769,4,2,1,60,0,0
182120,-125,4,2,2,60,0,0
186286,-125,4,2,1,60,0,0
186453,-111.111111111111,4,2,1,60,0,0
187286,-100,4,2,1,60,0,0
191286,-76.9230769230769,4,2,1,60,0,0
194120,-83.3333333333333,4,2,1,60,0,0
195453,-83.3333333333333,4,2,1,70,0,1
209453,-100,4,2,1,70,0,1
214120,-83.3333333333333,4,2,1,70,0,1
215453,-83.3333333333333,4,2,1,70,0,0
216786,-100,4,2,1,40,0,0
233120,-100,4,2,1,10,0,0

[Colours]
Combo1 : 248,174,1
Combo2 : 109,183,46
Combo3 : 226,0,81
Combo4 : 119,127,189
Combo5 : 0,126,199
SliderTrackOverride : 0,0,15
SliderBorder : 255,255,248

[HitObjects]
132,297,787,6,0,P|118:258|153:166,1,128,2|2,0:0|0:0,0:0:0:0:
227,135,1286,2,0,P|273:163|349:145,1,128,2|2,0:0|0:0,0:0:0:0:
428,108,1786,1,2,0:0:0:0:
505,163,1953,1,2,0:0:0:0:
495,257,2120,6,0,P|438:279|357:264,1,128,2|2,0:0|0:0,0:0:0:0:
286,227,2620,2,0,L|298:91,1,128,2|2,0:0|0:0,0:0:0:0:
225,33,3120,1,2,0:0:0:0:
131,60,3286,1,2,0:0:0:0:
107,154,3453,5,2,0:0:0:0:
176,329,4120,1,2,0:0:0:0:
263,290,4453,1,2,0:0:0:0:
344,339,4786,6,0,P|381:352|420:274,1,128,2|2,0:0|0:0,0:0:0:0:
369,216,5286,2,0,B|339:160|383:146|357:91,1,128,2|2,0:0|0:0,0:0:0:0:
268,128,5786,1,2,0:0:0:0:
451,176,6120,6,0,P|406:201|312:191,1,128,2|0,0:0|0:0,0:0:0:0:
268,128,6620,1,0,0:0:0:0:
177,159,6786,2,0,L|91:146,1,64,2|0,0:0|0:0,0:0:0:0:
163,255,7120,2,0,L|77:242,1,64,2|0,0:0|0:0,0:0:0:0:
331,207,7453,6,0,P|336:268|339:353,1,128,2|2,0:0|0:0,0:0:0:0:
338,334,7953,1,0,1:0:0:0:
412,180,8120,2,0,P|326:205|270:134,1,192,14|0,0:0|0:0,0:0:0:0:
308,47,8786,6,0,P|376:66|348:131,1,160,6|8,1:0|0:0,0:0:0:0:
215,90,9286,1,10,0:0:0:0:
272,227,9453,1,8,0:0:0:0:
348,131,9620,1,8,0:0:0:0:
164,179,9786,1,8,0:0:0:0:
301,241,9953,1,8,0:0:0:0:
283,42,10120,6,0,L|116:49,1,160,4|0,2:0|0:0,0:0:0:0:
442,35,10620,2,0,L|275:42,1,160,4|0,2:0|0:0,0:0:0:0:
188,214,11120,2,0,L|109:217,1,80,6|0,1:0|0:0,0:0:0:0:
292,275,11453,6,0,P|305:193|267:127,1,160,4|8,1:0|0:0,0:0:0:0:
188,214,11953,1,10,0:0:0:0:
347,215,12120,1,10,0:0:0:0:
175,188,12286,1,8,0:0:0:0:
269,357,12453,1,8,0:0:0:0:
278,355,12536,1,8,0:0:0:0:
288,354,12619,1,8,0:0:0:0:
298,353,12703,1,8,0:0:0:0:
308,351,12786,5,4,1:0:0:0:
335,90,13953,1,8,0:0:0:0:
335,90,14036,1,8,0:0:0:0:
335,90,14120,6,0,P|260:70|181:130,1,160,4|8,1:0|0:0,0:0:0:0:
153,207,14620,1,2,0:0:0:0:
272,246,14786,2,0,P|278:207|272:168,1,80,2|0,1:0|0:0,0:0:0:0:
153,207,15120,2,0,P|146:246|153:285,1,80,10|0,0:0|0:0,0:0:0:0:
245,362,15453,6,0,L|418:351,1,160,2|8,1:0|0:0,0:0:0:0:
478,278,15953,1,2,0:0:0:0:
426,187,16120,2,0,L|421:72,1,80,2|0,1:0|0:0,0:0:0:0:
289,161,16453,2,0,L|284:276,1,80,10|0,0:0|0:0,0:0:0:0:
214,336,16786,6,0,B|160:349|160:349|57:327,1,160,2|10,1:0|0:0,0:0:0:0:
26,227,17286,1,0,1:0:0:0:
160,237,17453,1,2,0:0:0:0:
24,192,17620,1,0,1:0:0:0:
161,272,17786,1,10,0:0:0:0:
179,106,17953,6,0,P|249:121|235:192,1,160,0|2,0:0|1:0,0:0:0:0:
109,146,18453,1,10,0:0:0:0:
109,146,18620,1,0,0:0:0:0:
235,192,18786,2,0,P|254:236|244:282,1,80,2|2,1:0|0:0,0:0:0:0:
384,154,19120,2,0,P|360:185|354:224,1,80,10|2,0:0|0:0,0:0:0:0:
474,149,19453,6,0,P|457:96|353:70,1,160,6|10,1:0|0:0,0:0:0:0:
277,122,19953,1,0,0:0:0:0:
354,224,20120,2,0,L|450:215,1,80,2|0,1:0|0:0,0:0:0:0:
297,314,20453,2,0,L|217:321,1,80,10|2,0:0|0:0,0:0:0:0:
124,217,20786,6,0,L|220:208,1,80,0|0,1:0|0:0,0:0:0:0:
354,224,21120,1,10,0:0:0:0:
279,5,21286,2,0,P|271:67|275:173,1,160,2|2,1:0|1:0,0:0:0:0:
354,224,21786,1,8,0:0:0:0:
341,81,21953,6,0,P|260:59|192:101,1,160,6|2,1:0|1:0,0:0:0:0:
141,227,22453,1,10,0:0:0:0:
273,164,22620,1,2,0:0:0:0:
118,206,22786,1,2,1:0:0:0:
290,246,22953,1,2,0:0:0:0:
188,126,23120,1,10,0:0:0:0:
189,322,23286,6,0,B|234:343|234:343|355:323,1,160,6|0,1:0|0:0,0:0:0:0:
453,187,23786,1,10,0:0:0:0:
473,343,23953,1,8,3:0:0:0:
476,322,24036,1,8,3:0:0:0:
473,302,24119,1,4,3:0:0:0:
435,165,24286,1,4,3:0:0:0:
435,165,24453,2,0,P|431:123|431:76,1,80,2|2,3:0|0:0,0:0:0:0:
290,177,24786,6,0,P|350:195|414:189,1,128,14|10,1:2|0:0,0:0:0:0:
430,85,25286,2,0,P|369:66|305:72,1,128,2|2,0:0|0:0,0:0:0:0:
216,120,25786,1,10,0:0:0:0:
245,12,25953,1,2,1:0:0:0:
113,65,26120,6,0,L|121:203,1,128,10|10,1:2|0:0,0:0:0:0:
230,343,26620,2,0,L|238:205,1,128,2|2,0:0|0:0,0:0:0:0:
120,192,27120,2,0,P|72:194|34:185,1,64,8|2,0:0|0:0,0:0:0:0:
196,74,27453,6,0,L|198:154,1,64,10|0,1:2|0:0,0:0:0:0:
348,132,27786,2,0,L|346:212,1,64,8|0,0:0|0:0,0:0:0:0:
216,43,28120,2,0,L|218:123,1,64,8|2,0:0|0:0,0:0:0:0:
368,101,28453,2,0,L|366:181,1,64,10|0,0:0|1:0,0:0:0:0:
250,270,28786,6,0,P|219:266|179:274,1,64,8|0,1:2|0:0,0:0:0:0:
311,363,29120,2,0,P|342:367|382:359,1,64,8|0,0:0|0:0,0:0:0:0:
448,291,29453,1,8,0:0:0:0:
387,208,29620,1,0,0:0:0:0:
301,263,29786,2,0,P|269:269|218:263,1,64,8|2,0:0|0:0,0:0:0:0:
263,55,30120,6,0,B|283:98|283:98|269:199,1,128,10|2,1:2|0:0,0:0:0:0:
170,194,30620,1,2,0:0:0:0:
170,194,30786,2,0,L|96:196,1,64,8|0,0:0|0:0,0:0:0:0:
237,267,31120,2,0,L|311:269,1,64,8|2,0:0|1:0,0:0:0:0:
147,311,31453,6,0,P|138:248|169:193,1,128,10|2,1:2|0:0,0:0:0:0:
349,228,31953,2,0,P|298:266|236:266,1,128,2|2,0:0|0:0,0:0:0:0:
258,141,32453,1,8,0:0:0:0:
298,376,32786,5,10,1:2:0:0:
298,376,33120,1,10,0:0:0:0:
393,307,33286,2,0,L|383:225,1,64,2|8,0:0|0:0,0:0:0:0:
365,115,33620,1,2,0:0:0:0:
297,219,33786,1,8,0:0:0:0:
459,214,33953,1,0,0:0:0:0:
344,85,34120,6,0,L|260:91,1,71.9999978027344,2|0,1:2|0:0,0:0:0:0:
91,196,34453,2,0,L|175:202,1,71.9999978027344,8|0,0:0|0:0,0:0:0:0:
272,90,34786,1,2,0:0:0:0:
402,167,34953,1,8,0:0:0:0:
411,201,35036,1,8,0:0:0:0:
409,237,35120,1,8,0:0:0:0:
394,269,35203,1,0,1:0:0:0:
369,295,35286,1,8,0:0:0:0:
337,312,35369,1,0,1:0:0:0:
302,316,35453,6,0,L|106:307,1,160,6|10,1:0|0:0,0:0:0:0:
38,220,35953,1,2,0:0:0:0:
38,220,36120,2,0,L|51:129,1,80,0|0,1:0|1:0,0:0:0:0:
152,51,36453,1,10,0:0:0:0:
24,1,36620,1,2,1:0:0:0:
152,51,36786,6,0,B|227:81|232:19|307:54,1,160,2|10,1:0|0:0,0:0:0:0:
406,146,37286,1,2,0:0:0:0:
260,154,37453,1,0,1:0:0:0:
428,169,37620,1,2,1:0:0:0:
305,256,37786,2,0,P|278:226|264:189,1,80,8|2,0:0|0:0,0:0:0:0:
428,169,38120,6,0,L|516:178,1,80,2|0,1:0|0:0,0:0:0:0:
326,335,38453,2,0,L|414:326,1,80,8|0,0:0|0:0,0:0:0:0:
350,228,38786,1,0,1:0:0:0:
488,319,38953,1,2,1:0:0:0:
350,228,39120,2,0,L|270:236,1,80,10|2,0:0|1:0,0:0:0:0:
151,346,39453,6,0,L|230:354,1,80,0|0,1:0|0:0,0:0:0:0:
350,228,39786,2,0,P|357:192|330:134,1,80,8|0,0:0|0:0,0:0:0:0:
242,77,40120,1,2,1:0:0:0:
354,39,40286,1,0,1:0:0:0:
260,196,40453,2,0,P|211:204|157:192,1,80,10|0,0:0|0:0,0:0:0:0:
129,113,40786,6,0,B|154:150|154:150|145:279,1,160,2|10,1:0|0:0,0:0:0:0:
260,196,41286,1,2,0:0:0:0:
260,196,41453,2,0,L|254:280,1,80,0|2,1:0|1:0,0:0:0:0:
53,296,41786,2,0,L|58:216,1,80,10|0,0:0|0:0,0:0:0:0:
148,76,42120,6,0,P|235:58|296:88,1,160,2|10,1:0|0:0,0:0:0:0:
352,212,42620,2,0,P|366:278|351:321,1,80,2|0,0:0|1:0,0:0:0:0:
262,262,42953,1,2,1:0:0:0:
318,361,43120,1,10,0:0:0:0:
451,260,43286,1,2,1:0:0:0:
316,121,43453,6,0,L|207:130,1,80,0|0,1:0|0:0,0:0:0:0:
147,258,43786,2,0,L|226:264,1,80,8|0,0:0|0:0,0:0:0:0:
388,200,44120,1,0,1:0:0:0:
316,121,44286,1,0,1:0:0:0:
214,88,44453,1,8,0:0:0:0:
109,110,44620,1,0,0:0:0:0:
29,181,44786,5,0,1:0:0:0:
214,88,44953,2,0,L|211:195,1,80,8|2,0:0|0:0,0:0:0:0:
132,342,45286,1,0,1:0:0:0:
118,304,45369,1,0,1:0:0:0:
126,266,45452,1,10,0:0:0:0:
212,168,45620,1,8,3:0:0:0:
287,299,45786,2,0,P|229:309|202:295,1,80,2|0,1:0|0:0,0:0:0:0:
326,208,46120,6,0,L|331:363,1,143.999995605469,6|2,1:0|0:0,0:0:0:0:
326,208,46620,1,2,1:0:0:0:
439,307,46786,2,0,L|434:163,1,143.999995605469,8|0,0:0|0:0,0:0:0:0:
439,307,47286,1,8,0:0:0:0:
432,161,47453,6,0,P|403:143|355:143,1,71.9999978027344,2|8,1:0|0:0,0:0:0:0:
176,205,47786,2,0,P|205:223|253:223,1,71.9999978027344,2|2,0:0|1:0,0:0:0:0:
227,62,48120,2,0,L|232:133,2,71.9999978027344,8|0|0,0:0|0:0|0:0,0:0:0:0:
105,117,48620,1,8,0:0:0:0:
105,117,48703,1,8,0:0:0:0:
105,117,48786,5,2,1:0:0:0:
401,231,49120,2,0,P|364:239|329:230,1,71.9999978027344,2|2,0:0|1:0,0:0:0:0:
369,143,49453,1,8,0:0:0:0:
479,194,49620,1,2,0:0:0:0:
362,108,49786,1,2,0:0:0:0:
307,259,49953,1,10,0:0:0:0:
307,259,50036,1,0,0:0:0:0:
307,259,50120,6,0,L|316:355,1,71.9999978027344,0|8,1:0|0:0,0:0:0:0:
170,209,50453,2,0,L|179:113,1,71.9999978027344,0|0,1:0|0:0,0:0:0:0:
262,63,50786,1,10,0:0:0:0:
334,152,50953,1,0,1:0:0:0:
176,137,51120,1,10,0:0:0:0:
142,127,51203,1,0,0:0:0:0:
114,104,51286,1,8,0:0:0:0:
96,73,51370,1,8,0:0:0:0:
92,38,51453,5,6,1:0:0:0:
193,41,51620,1,0,0:0:0:0:
334,152,51786,2,0,L|242:166,1,71.9999978027344,10|0,0:0|1:0,0:0:0:0:
142,127,52120,1,2,0:0:0:0:
145,228,52287,1,2,1:0:0:0:
256,369,52453,2,0,L|270:277,1,71.9999978027344,10|0,0:0|0:0,0:0:0:0:
405,133,52786,6,0,P|418:177|362:271,1,160,2|8,1:0|0:0,0:0:0:0:
322,179,53286,1,0,1:0:0:0:
159,247,53453,2,0,L|164:355,1,80,2|2,0:0|1:0,0:0:0:0:
322,179,53786,2,0,L|327:71,1,80,8|0,0:0|0:0,0:0:0:0:
127,146,54120,6,0,L|225:142,1,80,6|0,1:0|0:0,0:0:0:0:
322,179,54453,1,8,0:0:0:0:
147,314,54620,2,0,P|122:258|136:124,1,176.000005371094,4|0,1:0|1:0,0:0:0:0:
298,75,55120,1,8,0:0:0:0:
253,221,55286,1,0,1:0:0:0:
253,221,55370,1,0,1:0:0:0:
253,221,55453,5,8,0:0:0:0:
379,154,55620,1,8,3:0:0:0:
169,160,55786,1,8,0:0:0:0:
150,199,55869,1,8,3:0:0:0:
150,243,55952,1,8,3:0:0:0:
167,283,56036,1,8,3:0:0:0:
200,312,56119,1,4,3:0:0:0:
203,315,56453,5,0,3:0:0:0:
203,315,56620,1,0,3:0:0:0:
381,267,56786,6,0,P|299:265|308:358,1,191.999994140625,6|10,1:0|0:0,0:0:0:0:
438,342,57286,2,0,L|414:115,1,191.999994140625,2|2,0:0|0:0,0:0:0:0:
285,54,57786,1,10,0:0:0:0:
438,60,57953,1,2,0:0:0:0:
306,157,58120,6,0,P|235:150|203:115,1,95.9999970703126,6|0,1:0|0:0,0:0:0:0:
285,54,58453,1,10,0:0:0:0:
329,245,58620,2,0,P|254:247|135:175,1,191.999994140625,2|2,0:0|0:0,0:0:0:0:
100,70,59120,1,10,0:0:0:0:
232,88,59286,1,2,0:0:0:0:
152,194,59453,6,0,L|47:185,1,95.9999970703126,6|0,1:0|0:0,0:0:0:0:
90,291,59786,1,8,0:0:0:0:
258,334,59953,2,0,B|268:282|242:237|242:237|243:212|257:173,1,143.999995605469,2|0,0:0|0:0,0:0:0:0:
259,167,60286,1,2,0:0:0:0:
357,41,60453,1,10,0:0:0:0:
192,76,60620,1,2,0:0:0:0:
349,178,60786,6,0,L|455:162,1,95.9999970703126,6|0,1:0|0:0,0:0:0:0:
509,70,61120,1,10,0:0:0:0:
349,178,61286,2,0,P|344:247|367:371,1,191.999994140625,2|0,0:0|1:0,0:0:0:0:
481,308,61786,2,0,P|484:260|475:214,1,95.9999970703126,10|0,0:0|0:0,0:0:0:0:
270,283,62120,6,0,L|175:283,1,95.9999970703126,6|0,1:0|0:0,0:0:0:0:
34,314,62453,1,8,0:0:0:0:
103,223,62620,1,0,0:0:0:0:
3,295,62786,1,2,1:0:0:0:
133,350,62953,1,0,0:0:0:0:
190,206,63120,2,0,P|197:155|178:106,1,95.9999970703126,10|0,0:0|0:0,0:0:0:0:
18,127,63453,6,0,P|11:178|30:227,1,95.9999970703126,6|0,1:0|0:0,0:0:0:0:
183,114,63786,2,0,L|192:11,1,95.9999970703126,10|0,0:0|0:0,0:0:0:0:
330,113,64120,2,0,L|321:10,1,95.9999970703126,2|0,1:0|0:0,0:0:0:0:
494,127,64453,2,0,P|501:178|482:227,1,95.9999970703126,10|0,0:0|0:0,0:0:0:0:
299,275,64786,6,0,P|354:260|338:353,1,191.999994140625,6|8,0:0|0:0,0:0:0:0:
223,351,65286,1,6,1:0:0:0:
246,208,65453,2,0,B|231:146|231:146|253:80|253:80|234:12,1,191.999994140625,10|8,3:0|0:0,0:0:0:0:
324,148,65953,1,6,3:0:0:0:
157,77,66120,6,0,P|113:77|61:81,1,95.9999970703126,6|0,1:0|0:0,0:0:0:0:
117,176,66453,1,10,0:0:0:0:
324,148,66620,2,0,P|393:142|476:172,1,143.999995605469,6|0,1:0|0:0,0:0:0:0:
481,186,66953,1,8,3:0:0:0:
319,352,67120,1,8,0:0:0:0:
286,317,67203,1,8,0:0:0:0:
269,272,67286,1,8,3:0:0:0:
270,224,67369,1,4,3:0:0:0:
289,181,67453,6,0,P|282:233|159:260,1,191.999994140625,6|8,1:0|0:0,0:0:0:0:
50,119,67953,2,0,B|102:73|184:93|184:93|148:141,1,191.999994140625,2|2,0:0|0:0,0:0:0:0:
47,211,68453,1,10,0:0:0:0:
154,132,68620,1,2,0:0:0:0:
175,283,68786,6,0,P|226:265|268:273,1,95.9999970703126,6|0,1:0|0:0,0:0:0:0:
360,340,69120,1,10,0:0:0:0:
229,368,69286,2,0,P|221:255|225:137,1,191.999994140625,2|2,0:0|0:0,0:0:0:0:
311,75,69786,1,10,0:0:0:0:
363,209,69953,1,0,0:0:0:0:
201,151,70120,6,0,L|95:159,1,95.9999970703126,6|0,1:0|0:0,0:0:0:0:
149,45,70453,1,8,0:0:0:0:
149,45,70620,1,0,0:0:0:0:
9,166,70786,2,0,L|141:155,1,95.9999970703126,2|0,1:0|0:0,0:0:0:0:
293,240,71120,2,0,L|161:229,1,95.9999970703126,10|0,0:0|0:0,0:0:0:0:
310,66,71453,6,0,P|325:144|322:214,1,143.999995605469,6|0,1:0|0:0,0:0:0:0:
293,240,71786,1,10,0:0:0:0:
187,345,71953,2,0,L|336:335,1,143.999995605469,6|0,1:0|0:0,0:0:0:0:
372,344,72286,1,2,1:0:0:0:
293,240,72453,1,10,0:0:0:0:
447,243,72620,1,0,0:0:0:0:
277,109,72786,6,0,P|268:156|277:202,1,95.9999970703126,4|0,1:0|0:0,0:0:0:0:
383,155,73120,1,0,0:0:0:0:
372,40,73286,1,0,1:0:0:0:
277,109,73453,2,0,P|236:121|187:117,1,80,10|0,0:0|0:0,0:0:0:0:
114,73,73786,1,2,0:0:0:0:
26,113,73953,1,0,0:0:0:0:
6,207,74120,6,0,L|13:287,1,80,2|8,1:0|0:0,0:0:0:0:
184,338,74453,2,0,L|177:258,1,80,0|0,0:0|1:0,0:0:0:0:
90,167,74786,2,0,L|97:247,1,80,10|0,0:0|0:0,0:0:0:0:
268,298,75119,2,0,L|261:218,1,80,2|0,0:0|0:0,0:0:0:0:
324,112,75453,6,0,P|292:162|187:137,1,160,2|0,1:0|0:0,0:0:0:0:
135,63,75953,1,2,1:0:0:0:
305,31,76120,1,10,0:0:0:0:
203,325,76453,1,12,0:0:0:0:
305,31,76786,5,8,0:0:0:0:
363,136,76953,1,0,1:0:0:0:
242,140,77120,1,0,1:0:0:0:
327,20,77286,5,8,3:0:0:0:
361,159,77453,1,0,0:0:0:0:
221,126,77620,1,0,1:0:0:0:
427,97,77786,2,0,P|448:132|447:197,1,80,10|0,0:0|0:0,0:0:0:0:
319,317,78120,6,0,P|298:282|295:205,1,95.9999970703126,6|0,1:0|0:0,0:0:0:0:
330,77,78453,1,8,0:0:0:0:
387,244,78620,1,10,0:0:0:0:
211,176,78786,1,8,0:0:0:0:
418,161,78953,1,8,0:0:0:0:
191,207,79120,1,8,0:0:0:0:
354,51,79286,1,4,3:0:0:0:
392,55,79369,1,4,3:0:0:0:
430,59,79452,5,0,1:0:0:0:
211,176,79786,2,0,L|90:189,1,95.9999970703126,14|0,0:0|0:0,0:0:0:0:
168,283,80120,1,6,3:0:0:0:
293,242,80286,2,0,P|307:220|313:193,1,47.9999985351563,2|0,1:0|0:0,0:0:0:0:
291,99,80453,1,10,0:0:0:0:
417,225,80620,1,8,0:0:0:0:
409,261,80703,1,8,0:0:0:0:
389,293,80786,5,6,1:0:0:0:
256,192,80870,12,0,83453,0:0:0:0:
126,242,88620,6,0,P|104:161|142:89,1,160,6|2,1:0|1:0,0:0:0:0:
242,20,89120,1,10,0:0:0:0:
237,173,89287,1,0,0:0:0:0:
242,20,89453,1,2,1:0:0:0:
237,173,89620,1,2,0:0:0:0:
135,95,89787,1,10,0:0:0:0:
339,111,89953,6,0,P|393:112|461:114,1,120,6|0,1:0|0:0,0:0:0:0:
489,134,90286,1,10,0:0:0:0:
356,259,90453,1,0,0:0:0:0:
512,239,90620,1,8,3:0:0:0:
491,236,90703,1,8,3:0:0:0:
471,239,90786,1,12,0:0:0:0:
339,291,90953,1,4,3:0:0:0:
339,291,91120,2,0,P|297:301|250:295,1,80,2|2,3:0|0:0,0:0:0:0:
135,230,91453,6,0,L|142:145,1,64,6|0,1:0|0:0,0:0:0:0:
198,89,91786,1,2,1:0:0:0:
198,89,91953,1,2,0:0:0:0:
280,138,92120,2,0,P|320:148|360:143,1,64,0|2,1:0|0:0,0:0:0:0:
479,84,92453,2,0,P|439:74|399:79,1,64,2|2,1:0|0:0,0:0:0:0:
280,138,92786,6,0,L|289:289,1,128,2|2,1:0|1:0,0:0:0:0:
336,348,93286,1,2,0:0:0:0:
336,348,93453,2,0,P|373:337|402:338,1,64,0|2,1:0|0:0,0:0:0:0:
287,265,93786,2,0,P|295:227|311:202,1,64,0|2,1:0|0:0,0:0:0:0:
204,306,94120,6,0,P|175:279|162:253,1,64,2|0,1:0|0:0,0:0:0:0:
186,164,94453,1,0,1:0:0:0:
270,117,94620,1,0,0:0:0:0:
186,164,94786,2,0,L|100:170,1,64,0|2,1:0|0:0,0:0:0:0:
237,28,95120,2,0,L|300:23,1,64,2|2,1:0|0:0,0:0:0:0:
405,118,95453,6,0,P|418:159|413:194,1,64,0|0,1:0|0:0,0:0:0:0:
266,203,95786,2,0,P|295:171|327:158,1,64,0|0,1:0|0:0,0:0:0:0:
416,273,96120,2,0,P|373:263|346:241,1,64,0|0,1:0|0:0,0:0:0:0:
313,162,96453,1,0,1:0:0:0:
416,179,96620,1,2,0:0:0:0:
356,252,96786,6,0,L|367:335,1,64,2|0,1:0|0:0,0:0:0:0:
289,376,97120,1,2,1:0:0:0:
181,320,97286,2,0,P|171:229|175:179,1,128,2|0,0:0|0:0,0:0:0:0:
225,68,97786,1,0,1:0:0:0:
283,152,97953,1,2,0:0:0:0:
143,172,98120,6,0,P|91:174|59:174,1,64,2|0,1:0|0:0,0:0:0:0:
4,106,98453,1,2,1:0:0:0:
146,9,98620,2,0,B|164:52|164:52|155:139,1,128,2|2,0:0|0:0,0:0:0:0:
73,253,99120,2,0,L|83:332,1,64,0|0,1:0|0:0,0:0:0:0:
207,268,99453,5,6,1:0:0:0:
207,268,100786,5,2,1:0:0:0:
364,98,101120,2,0,P|422:109|411:205,1,143.999995605469,12|0,0:0|0:0,0:0:0:0:
410,217,101453,1,0,1:0:0:0:
490,70,101620,2,0,L|442:76,1,40,8|0,0:0|1:0,0:0:0:0:
267,116,101786,1,8,0:0:0:0:
227,114,101869,1,8,0:0:0:0:
187,112,101953,1,10,0:0:0:0:
147,110,102036,1,8,0:0:0:0:
107,108,102120,6,0,L|122:281,1,160,6|10,1:0|0:0,0:0:0:0:
224,368,102620,1,2,0:0:0:0:
224,368,102787,2,0,P|261:356|316:359,1,80,0|2,1:0|1:0,0:0:0:0:
439,378,103120,1,8,0:0:0:0:
369,270,103286,1,2,1:0:0:0:
487,295,103453,6,0,B|516:228|449:217|490:142,1,160,2|10,1:0|0:0,0:0:0:0:
390,30,103953,2,0,P|350:31|310:49,1,80,2|0,1:0|1:0,0:0:0:0:
371,132,104286,1,2,1:0:0:0:
474,50,104453,1,8,0:0:0:0:
339,128,104620,1,2,0:0:0:0:
484,225,104786,6,0,P|433:236|385:216,1,80,2|0,1:0|0:0,0:0:0:0:
339,128,105120,1,8,0:0:0:0:
292,251,105286,1,0,0:0:0:0:
309,105,105453,1,0,1:0:0:0:
406,229,105620,1,2,1:0:0:0:
323,339,105786,2,0,P|284:345|246:335,1,80,10|2,0:0|1:0,0:0:0:0:
200,253,106120,5,0,1:0:0:0:
292,251,106286,1,0,0:0:0:0:
118,298,106453,2,0,P|108:260|115:221,1,80,8|0,0:0|0:0,0:0:0:0:
247,169,106786,1,2,1:0:0:0:
200,253,106953,1,0,1:0:0:0:
136,87,107120,2,0,L|238:81,1,80,10|0,0:0|0:0,0:0:0:0:
451,53,107453,6,0,P|393:33|279:38,1,160,2|10,1:0|0:0,0:0:0:0:
161,185,107953,1,2,0:0:0:0:
161,185,108120,1,0,1:0:0:0:
320,180,108286,1,2,1:0:0:0:
215,82,108453,1,10,0:0:0:0:
246,256,108620,1,0,0:0:0:0:
466,174,108786,6,0,P|408:156|349:161,1,120,2|0,1:0|0:0,0:0:0:0:
320,180,109120,1,10,0:0:0:0:
198,334,109286,2,0,L|193:196,1,120,2|0,0:0|0:0,0:0:0:0:
184,178,109620,1,2,1:0:0:0:
91,273,109786,1,10,0:0:0:0:
43,118,109953,1,2,1:0:0:0:
193,214,110120,6,0,P|235:210|275:205,1,80,0|0,1:0|0:0,0:0:0:0:
336,368,110453,2,0,P|378:371|418:377,1,80,8|0,0:0|0:0,0:0:0:0:
434,182,110786,1,0,1:0:0:0:
362,261,110952,1,0,1:0:0:0:
260,294,111119,1,8,0:0:0:0:
155,272,111286,1,0,1:0:0:0:
75,201,111452,5,0,1:0:0:0:
260,294,111619,2,0,L|257:187,1,80,8|2,0:0|0:0,0:0:0:0:
178,40,111953,1,0,1:0:0:0:
164,78,112036,1,8,0:0:0:0:
172,116,112120,1,10,0:0:0:0:
258,214,112286,1,8,3:0:0:0:
333,83,112453,2,0,P|275:73|248:87,1,80,4|0,0:3|0:0,0:0:0:0:
377,241,112786,6,0,P|425:248|496:163,1,143.999995605469,6|2,1:0|0:0,0:0:0:0:
377,241,113286,1,2,1:0:0:0:
289,318,113453,2,0,P|241:325|170:240,1,143.999995605469,8|0,0:0|0:0,0:0:0:0:
289,318,113953,1,8,0:0:0:0:
311,167,114120,5,2,1:0:0:0:
248,238,114286,1,8,0:0:0:0:
259,94,114453,2,0,P|312:75|342:87,1,71.9999978027344,2|2,0:0|1:0,0:0:0:0:
248,238,114786,2,0,P|193:239|120:233,1,107.999996704102,8|0,0:0|0:0,0:0:0:0:
109,223,115120,1,0,0:0:0:0:
72,69,115286,1,8,0:0:0:0:
72,69,115370,1,8,0:0:0:0:
72,69,115453,6,0,P|109:61|144:70,1,71.9999978027344,2|0,1:0|0:0,0:0:0:0:
291,153,115786,2,0,P|299:190|290:225,1,71.9999978027344,2|2,0:0|1:0,0:0:0:0:
203,185,116119,1,8,0:0:0:0:
254,75,116286,1,2,0:0:0:0:
168,192,116452,1,2,0:0:0:0:
319,247,116619,1,10,0:0:0:0:
319,247,116702,1,0,0:0:0:0:
319,247,116786,6,0,L|415:238,1,71.9999978027344,0|8,1:0|0:0,0:0:0:0:
269,376,117119,2,0,L|173:367,1,71.9999978027344,0|0,1:0|0:0,0:0:0:0:
240,288,117453,1,10,0:0:0:0:
360,330,117620,1,0,1:0:0:0:
227,182,117786,1,10,0:0:0:0:
191,186,117870,1,0,0:0:0:0:
161,205,117953,1,8,0:0:0:0:
140,234,118036,1,8,0:0:0:0:
133,269,118120,5,6,1:0:0:0:
240,288,118286,1,0,0:0:0:0:
315,182,118453,2,0,L|319:87,1,71.9999978027344,10|0,0:0|1:0,0:0:0:0:
179,32,118786,1,2,0:0:0:0:
117,120,118953,1,2,1:0:0:0:
217,202,119120,2,0,P|251:209|286:200,1,71.9999978027344,10|0,0:0|0:0,0:0:0:0:
417,44,119453,6,0,L|423:211,1,160,2|8,1:0|0:0,0:0:0:0:
376,310,119953,1,0,1:0:0:0:
215,229,120120,2,0,P|256:202|310:208,1,80,2|2,0:0|1:0,0:0:0:0:
113,363,120453,2,0,L|108:273,1,80,10|0,0:0|0:0,0:0:0:0:
290,78,120786,6,0,L|284:159,1,80,6|0,1:0|0:0,0:0:0:0:
272,342,121120,1,8,0:0:0:0:
457,239,121286,2,0,P|469:197|373:216,1,176.000005371094,4|0,1:0|1:0,0:0:0:0:
429,346,121786,1,8,0:0:0:0:
291,165,121953,1,0,1:0:0:0:
291,165,122036,1,0,1:0:0:0:
291,165,122120,5,8,0:0:0:0:
457,239,122286,1,8,3:0:0:0:
224,240,122453,1,8,0:0:0:0:
195,206,122536,1,8,3:0:0:0:
184,164,122619,1,8,3:0:0:0:
192,121,122702,1,8,3:0:0:0:
217,85,122786,1,4,3:0:0:0:
220,88,123120,5,0,3:0:0:0:
220,88,123286,1,0,3:0:0:0:
130,285,123453,6,0,L|327:278,1,191.999994140625,6|10,1:0|0:0,0:0:0:0:
463,147,123953,2,0,P|372:164|340:250,1,191.999994140625,2|2,0:0|0:0,0:0:0:0:
436,241,124453,1,10,0:0:0:0:
380,69,124620,1,2,0:0:0:0:
210,134,124786,6,0,P|199:177|212:231,1,95.9999970703126,6|0,1:0|0:0,0:0:0:0:
311,175,125120,1,10,0:0:0:0:
116,79,125286,2,0,P|98:140|120:286,1,191.999994140625,2|2,0:0|0:0,0:0:0:0:
233,342,125786,1,10,0:0:0:0:
250,198,125953,1,2,0:0:0:0:
111,266,126120,6,0,P|112:318|114:370,1,95.9999970703126,6|0,1:0|0:0,0:0:0:0:
2,315,126453,1,8,0:0:0:0:
197,146,126620,2,0,P|198:242|200:328,1,143.999995605469,2|0,0:0|0:0,0:0:0:0:
199,318,126953,1,2,0:0:0:0:
289,230,127120,1,10,0:0:0:0:
114,173,127286,1,2,0:0:0:0:
318,241,127453,6,0,B|366:251|366:251|409:230,1,95.9999970703126,6|0,1:0|0:0,0:0:0:0:
356,127,127786,1,10,0:0:0:0:
279,314,127953,2,0,B|373:339|373:339|465:298,1,191.999994140625,2|0,0:0|1:0,0:0:0:0:
356,127,128453,2,0,P|367:82|356:32,1,95.9999970703126,10|0,0:0|0:0,0:0:0:0:
169,97,128786,6,0,P|158:142|169:192,1,95.9999970703126,6|0,1:0|0:0,0:0:0:0:
233,329,129119,1,8,0:0:0:0:
99,267,129286,1,0,0:0:0:0:
214,360,129452,1,2,1:0:0:0:
253,216,129619,1,0,0:0:0:0:
96,170,129786,2,0,P|45:163|-4:182,1,95.9999970703126,10|0,0:0|0:0,0:0:0:0:
16,363,130120,6,0,P|67:370|116:351,1,95.9999970703126,6|0,1:0|0:0,0:0:0:0:
180,163,130453,2,0,L|188:268,1,95.9999970703126,10|0,0:0|0:0,0:0:0:0:
332,163,130786,2,0,L|324:268,1,95.9999970703126,2|0,1:0|0:0,0:0:0:0:
496,363,131120,2,0,P|445:370|396:351,1,95.9999970703126,10|0,0:0|0:0,0:0:0:0:
257,268,131453,6,0,B|249:219|262:183|262:183|243:132|243:132|252:105|256:81,1,191.999994140625,6|8,0:0|0:0,0:0:0:0:
365,125,131953,1,6,1:0:0:0:
163,179,132120,2,0,P|107:165|123:45,1,191.999994140625,10|8,3:0|0:0,0:0:0:0:
255,82,132620,1,6,3:0:0:0:
163,271,132786,6,0,L|327:260,1,143.999995605469,6|0,1:0|0:0,0:0:0:0:
346,277,133120,1,10,0:0:0:0:
438,76,133286,2,0,L|274:65,1,143.999995605469,6|0,1:0|0:0,0:0:0:0:
255,82,133620,1,8,3:0:0:0:
163,271,133786,1,8,0:0:0:0:
158,223,133869,1,8,0:0:0:0:
154,175,133952,1,8,3:0:0:0:
150,127,134036,1,4,3:0:0:0:
146,79,134120,6,0,P|119:125|85:34,1,191.999994140625,6|8,1:0|0:0,0:0:0:0:
243,179,134620,2,0,P|183:250|90:264,1,191.999994140625,2|2,0:0|0:0,0:0:0:0:
18,161,135120,1,10,0:0:0:0:
12,313,135286,1,2,0:0:0:0:
165,260,135453,6,0,B|187:242|187:242|225:250|225:250|239:275,1,95.9999970703126,6|0,1:0|0:0,0:0:0:0:
188,360,135786,1,10,0:0:0:0:
92,177,135953,2,0,B|114:125|114:125|188:100|188:100|242:132,1,191.999994140625,2|2,0:0|0:0,0:0:0:0:
177,201,136453,1,10,0:0:0:0:
127,33,136620,1,0,0:0:0:0:
320,136,136786,6,0,P|302:185|260:209,1,95.9999970703126,6|0,1:0|0:0,0:0:0:0:
450,251,137120,2,0,P|416:210|416:162,1,95.9999970703126,8|0,0:0|0:0,0:0:0:0:
280,303,137453,2,0,P|331:294|373:318,1,95.9999970703126,2|0,1:0|0:0,0:0:0:0:
317,118,137786,2,0,P|299:167|257:191,1,95.9999970703126,10|0,0:0|0:0,0:0:0:0:
99,319,138120,6,0,P|165:325|262:323,1,143.999995605469,6|0,1:0|0:0,0:0:0:0:
280,303,138453,1,10,0:0:0:0:
164,68,138620,2,0,B|152:115|152:115|168:210,1,143.999995605469,6|0,1:0|0:0,0:0:0:0:
180,250,138953,1,2,1:0:0:0:
249,132,139120,1,10,0:0:0:0:
77,62,139286,1,0,0:0:0:0:
278,150,139453,6,0,P|332:157|362:114,1,95.9999970703126,6|0,1:0|0:0,0:0:0:0:
417,30,139786,1,0,0:0:0:0:
472,131,139953,1,0,1:0:0:0:
415,255,140120,2,0,L|424:339,1,80,10|0,0:0|0:0,0:0:0:0:
271,224,140453,2,0,L|262:308,1,80,2|0,0:0|0:0,0:0:0:0:
167,362,140786,5,2,1:0:0:0:
63,318,140953,1,8,0:0:0:0:
30,210,141120,2,0,P|22:161|32:124,1,80,0|0,0:0|1:0,0:0:0:0:
231,122,141453,2,0,P|192:153|155:163,1,80,10|0,0:0|0:0,0:0:0:0:
55,10,141786,2,0,P|101:27|128:54,1,80,2|0,0:0|0:0,0:0:0:0:
164,195,142120,6,0,L|334:184,1,160,2|0,1:0|0:0,0:0:0:0:
435,178,142620,1,2,1:0:0:0:
287,99,142786,1,10,0:0:0:0:
26,248,143120,1,12,0:0:0:0:
321,354,143453,5,8,0:0:0:0:
361,249,143620,1,0,1:0:0:0:
295,158,143786,1,0,1:0:0:0:
351,371,143953,5,8,3:0:0:0:
365,237,144120,1,0,0:0:0:0:
260,152,144286,1,0,1:0:0:0:
384,361,144453,2,0,L|469:347,1,80,10|0,0:0|0:0,0:0:0:0:
260,152,144786,6,0,L|274:284,1,95.9999970703126,6|0,1:0|0:0,0:0:0:0:
211,376,145120,1,8,0:0:0:0:
173,209,145286,1,8,0:0:0:0:
319,328,145453,1,8,0:0:0:0:
128,293,145620,1,8,0:0:0:0:
335,354,145786,1,8,0:0:0:0:
332,115,145953,1,4,3:0:0:0:
309,84,146036,1,4,3:0:0:0:
274,69,146120,5,0,1:0:0:0:
396,263,146453,2,0,L|511:249,1,95.9999970703126,14|0,0:0|0:0,0:0:0:0:
293,203,146786,1,6,3:0:0:0:
195,270,146953,2,0,L|202:322,1,47.9999985351563,2|0,1:0|0:0,0:0:0:0:
143,384,147120,1,10,0:0:0:0:
119,221,147286,1,8,0:0:0:0:
143,192,147369,1,8,0:0:0:0:
179,180,147453,5,0,1:0:0:0:
291,234,147620,1,0,1:0:0:0:
434,157,147786,2,0,L|419:56,1,95.9999970703126,12|0,0:0|0:0,0:0:0:0:
312,128,148120,5,8,3:0:0:0:
312,128,148286,1,8,3:0:0:0:
312,128,148453,1,8,0:0:0:0:
180,285,148620,6,0,P|137:245|51:247,1,143.999995605469,4|0,1:0|0:0,0:0:0:0:
20,271,148953,1,8,0:0:0:0:
201,358,149120,1,8,0:0:0:0:
192,157,149286,6,0,P|235:117|321:119,1,143.999995605469,12|0,0:0|0:0,0:0:0:0:
352,142,149620,1,0,1:0:0:0:
376,177,149703,1,0,0:0:0:0:
388,216,149786,2,0,P|392:258|375:300,1,80,12|0,0:0|0:0,0:0:0:0:
142,249,150120,6,0,P|189:231|313:246,1,176.000005371094,6|8,1:0|0:0,0:0:0:0:
39,115,150786,1,0,1:0:0:0:
118,59,150953,1,2,0:0:0:0:
209,92,151120,1,10,0:0:0:0:
128,258,151286,6,0,B|102:209|102:209|113:89,1,176.000005371094,2|2,3:2|0:0,0:0:0:0:
279,190,151786,2,0,P|240:203|194:199,1,88.000002685547,10|2,0:0|0:0,0:0:0:0:
332,28,152120,2,0,L|338:128,1,88.000002685547,2|2,1:0|0:0,0:0:0:0:
189,287,152453,2,0,L|195:187,1,88.000002685547,10|2,0:0|3:2,0:0:0:0:
356,274,152786,6,0,B|269:245|282:325|189:287,1,176.000005371094,2|8,1:0|0:0,0:0:0:0:
230,204,153286,1,0,0:0:0:0:
322,355,153453,2,0,P|363:364|406:348,1,88.000002685547,0|2,1:0|0:0,0:0:0:0:
467,230,153786,1,8,0:0:0:0:
333,150,153953,1,2,3:2:0:0:
284,275,154120,6,0,P|278:318|290:360,1,88.000002685547,2|2,1:0|0:0,0:0:0:0:
383,309,154453,1,10,0:0:0:0:
212,210,154620,2,0,B|158:214|124:196|124:196|94:212|27:216,1,176.000005371094,2|0,0:0|0:0,0:0:0:0:
263,137,155120,2,0,P|298:187|297:228,1,88.000002685547,8|0,0:0|3:0,0:0:0:0:
178,96,155453,5,0,1:0:0:0:
212,210,155620,1,2,0:0:0:0:
113,147,155786,1,10,0:0:0:0:
116,265,155953,1,2,0:0:0:0:
33,164,156120,1,2,1:0:0:0:
5,278,156287,1,2,0:0:0:0:
26,131,156453,1,10,0:0:0:0:
129,290,156620,6,0,B|183:312|183:312|324:281,1,191.999994140625,6|2,1:0|1:0,0:0:0:0:
489,234,157120,1,10,0:0:0:0:
382,348,157286,1,2,1:0:0:0:
354,183,157453,1,2,0:0:0:0:
357,369,157620,1,10,3:2:0:0:
496,315,157786,1,4,3:0:0:0:
313,283,157953,1,10,3:2:0:0:
429,162,158120,5,10,0:0:0:0:
232,273,158286,1,10,0:0:0:0:
271,292,158369,1,10,0:0:0:0:
313,283,158452,1,10,0:0:0:0:
151,149,158620,6,0,L|162:214,1,44.0000013427735,14|0,0:0|0:0,0:0:0:0:
422,63,158953,2,0,L|433:-2,1,44.0000013427735,10|0,0:0|0:0,0:0:0:0:
151,149,159286,6,0,B|136:210|151:263|151:263|183:245,1,143.999995605469,10|2,3:2|1:0,0:0:0:0:
290,173,159786,1,10,0:0:0:0:
299,309,159953,1,2,1:0:0:0:
269,161,160120,1,2,0:0:0:0:
463,234,160286,1,0,1:0:0:0:
473,195,160370,1,0,1:0:0:0:
474,155,160452,1,10,0:0:0:0:
467,116,160536,1,8,0:0:0:0:
451,79,160620,1,10,0:0:0:0:
428,46,160703,1,0,0:0:0:0:
398,20,160786,6,0,P|313:46|260:23,1,132.00000402832,6|0,1:0|0:0,0:0:0:0:
241,11,161120,1,8,0:0:0:0:
135,9,161286,1,0,0:0:0:0:
65,89,161453,2,0,P|63:139|77:188,1,88.000002685547,0|0,1:0|0:0,0:0:0:0:
230,166,161786,2,0,P|232:116|218:67,1,88.000002685547,8|0,0:0|3:0,0:0:0:0:
37,259,162120,6,0,L|127:257,1,88.000002685547,0|0,1:0|0:0,0:0:0:0:
317,167,162453,2,0,L|227:165,1,88.000002685547,8|0,0:0|3:0,0:0:0:0:
229,319,162786,2,0,B|245:313|245:313|260:319|260:319|270:313|270:313|280:319|280:319|292:311|292:311|337:345|405:323,1,176.000005371094,2|8,1:0|0:0,0:0:0:0:
444,135,163286,1,2,0:0:0:0:
444,135,163370,1,2,0:0:0:0:
444,135,163453,6,0,P|391:148|362:231,1,132.00000402832,2|0,1:0|0:0,0:0:0:0:
356,253,163786,1,8,0:0:0:0:
447,223,163953,1,0,3:0:0:0:
355,334,164120,1,0,1:0:0:0:
450,328,164287,1,2,0:0:0:0:
450,328,164453,1,10,0:0:0:0:
260,340,164620,6,0,B|241:278|264:214|264:214|228:204|198:225,1,176.000005371094,6|2,1:0|1:0,0:0:0:0:
113,237,165120,1,10,0:0:0:0:
179,326,165286,1,2,0:0:0:0:
347,233,165453,2,0,P|345:189|322:153,1,88.000002685547,0|0,1:0|1:0,0:0:0:0:
147,139,165786,2,0,L|139:83,1,44.0000013427735,10|0,0:0|0:0,0:0:0:0:
113,237,165953,2,0,L|105:293,1,44.0000013427735,0|0,0:0|0:0,0:0:0:0:
217,215,166120,5,2,1:0:0:0:
45,161,166286,1,2,0:0:0:0:
231,185,166453,1,10,0:0:0:0:
18,314,166620,2,0,P|57:363|180:343,1,176.000005371094,2|0,0:0|1:0,0:0:0:0:
237,284,167120,1,10,0:0:0:0:
137,161,167286,1,6,1:0:0:0:
345,263,167453,6,0,P|309:288|266:297,1,88.000002685547,2|2,0:0|1:0,0:0:0:0:
266,190,167786,1,10,0:0:0:0:
406,206,167953,1,2,0:0:0:0:
273,384,168120,2,0,L|264:267,1,88.000002685547,0|0,1:0|1:0,0:0:0:0:
266,110,168453,1,8,0:0:0:0:
266,110,168536,1,0,0:0:0:0:
266,110,168620,1,0,0:0:0:0:
266,110,168703,1,0,0:0:0:0:
266,110,168786,5,10,0:0:0:0:
75,162,168953,1,10,0:0:0:0:
326,274,169286,6,0,B|395:262,1,51.999997619629,10|0,0:0|0:0,0:0:0:0:
95,334,169620,2,0,B|26:322,1,51.999997619629,10|0,0:0|0:0,0:0:0:0:
242,45,169953,6,0,B|259:93|259:93|251:214,1,155.999992858887,6|0,1:0|0:0,0:0:0:0:
242,243,170286,1,8,0:0:0:0:
153,132,170453,1,8,0:0:0:0:
364,136,170620,1,8,0:0:0:0:
136,229,170786,1,10,0:0:0:0:
376,241,170953,1,8,0:0:0:0:
136,229,171120,5,8,0:0:0:0:
88,214,171203,1,8,0:0:0:0:
72,167,171286,1,8,3:0:0:0:
104,128,171370,1,4,3:0:0:0:
153,132,171453,5,6,1:0:0:0:
55,145,182120,6,0,L|45:224,1,64,4|0,1:0|0:0,0:0:0:0:
157,109,182453,2,0,L|167:188,1,64,8|0,0:0|0:0,0:0:0:0:
270,172,182786,2,0,L|260:251,1,64,8|0,0:0|0:0,0:0:0:0:
372,136,183119,2,0,L|382:215,1,64,8|2,0:0|1:0,0:0:0:0:
212,308,183453,6,0,P|182:276|180:241,1,64,10|0,1:2|0:0,0:0:0:0:
261,235,183786,2,0,P|258:191|279:163,1,64,10|0,0:0|0:0,0:0:0:0:
346,212,184120,2,0,P|372:176|406:168,1,64,10|0,0:0|0:0,0:0:0:0:
428,250,184453,2,0,P|470:240|502:255,1,64,10|0,0:0|0:0,0:0:0:0:
357,339,184786,6,0,L|345:207,1,128,10|8,1:2|0:0,0:0:0:0:
215,53,185453,2,0,L|204:170,1,96,10|0,0:0|0:0,0:0:0:0:
200,179,185786,1,8,0:0:0:0:
81,103,185953,6,0,P|40:92|24:163,1,128,2|0,1:0|1:0,0:0:0:0:
100,258,186453,2,0,P|126:268|182:252,1,71.9999978027344,8|0,0:0|0:0,0:0:0:0:
278,188,186786,1,10,0:0:0:0:
188,99,186953,1,0,1:0:0:0:
168,261,187120,1,10,0:0:0:0:
370,288,187286,6,0,B|378:178|378:178|367:145|342:122,1,160,6|2,1:0|1:0,0:0:0:0:
268,269,187786,2,0,L|260:353,1,80,10|0,0:0|0:0,0:0:0:0:
103,172,188120,2,0,P|166:153|227:167,1,120,2|0,1:0|0:0,0:0:0:0:
248,181,188453,1,10,0:0:0:0:
89,282,188620,6,0,L|82:202,1,80,2|0,1:0|0:0,0:0:0:0:
151,75,188953,1,2,1:0:0:0:
248,181,189120,2,0,P|291:190|344:174,1,80,10|0,0:0|0:0,0:0:0:0:
289,99,189453,1,0,1:0:0:0:
400,147,189620,1,2,1:0:0:0:
291,67,189786,1,10,0:0:0:0:
241,268,189953,6,0,B|297:281|297:281|344:265|344:265|398:277,1,160,6|0,1:0|1:0,0:0:0:0:
292,196,190453,1,8,0:0:0:0:
247,357,190620,1,0,1:0:0:0:
170,192,190786,1,8,0:0:0:0:
220,370,190953,1,2,1:0:0:0:
395,276,191120,1,10,0:0:0:0:
268,107,191286,6,0,B|226:167|252:245|252:245|299:186,1,207.999990478516,6|8,1:0|0:0,0:0:0:0:
329,43,191786,1,8,0:0:0:0:
147,103,191953,1,8,0:0:0:0:
376,164,192120,2,0,L|443:155,1,51.999997619629,8|0,0:0|0:0,0:0:0:0:
313,289,192286,1,8,0:0:0:0:
271,289,192370,1,8,0:0:0:0:
229,290,192453,1,10,0:0:0:0:
188,291,192536,1,8,0:0:0:0:
146,292,192619,1,8,0:0:0:0:
105,292,192702,1,8,0:0:0:0:
63,293,192786,5,14,0:0:0:0:
63,293,194120,5,6,1:0:0:0:
63,293,194953,1,2,0:0:0:0:
95,197,195120,1,2,0:0:0:0:
53,324,195286,1,2,0:0:0:0:
187,248,195453,6,0,P|199:184|151:107,1,143.999995605469,4|0,1:0|0:0,0:0:0:0:
119,95,195786,1,8,0:0:0:0:
323,26,195953,2,0,P|311:90|359:167,1,143.999995605469,4|0,1:0|0:0,0:0:0:0:
389,177,196286,1,8,0:0:0:0:
417,214,196369,1,8,0:0:0:0:
416,261,196452,1,8,0:0:0:0:
385,297,196536,1,8,0:0:0:0:
339,306,196620,2,0,P|300:305|275:290,1,47.9999985351563,8|0,0:0|0:0,0:0:0:0:
202,197,196786,5,4,1:0:0:0:
203,235,196869,1,8,0:0:0:0:
205,273,196952,1,8,0:0:0:0:
207,312,197036,1,8,0:0:0:0:
209,350,197119,1,8,3:0:0:0:
326,228,197286,1,4,1:0:0:0:
122,246,197453,6,0,L|70:253,1,47.9999985351563,8|8,0:0|3:0,0:0:0:0:
144,106,197620,2,0,L|196:113,1,47.9999985351563,8|4,3:0|3:0,0:0:0:0:
345,83,197786,1,4,1:0:0:0:
384,111,197869,1,8,3:0:0:0:
402,154,197952,1,4,3:0:0:0:
396,201,198036,1,4,3:0:0:0:
366,238,198120,6,0,P|390:187|445:272,1,191.999994140625,6|8,1:0|0:0,0:0:0:0:
392,346,198620,1,0,3:0:0:0:
240,286,198786,2,0,P|239:223|242:171,1,95.9999970703126,2|0,1:0|0:0,0:0:0:0:
140,18,199120,2,0,P|141:81|138:133,1,95.9999970703126,14|0,0:0|0:0,0:0:0:0:
157,337,199453,6,0,L|56:343,1,95.9999970703126,4|0,1:0|0:0,0:0:0:0:
240,190,199786,2,0,L|341:196,1,95.9999970703126,10|0,0:0|3:0,0:0:0:0:
131,225,200120,2,0,L|30:231,1,95.9999970703126,2|0,1:0|1:0,0:0:0:0:
214,78,200453,2,0,L|315:84,1,95.9999970703126,14|0,0:0|0:0,0:0:0:0:
436,110,200786,6,0,P|365:69|358:149,1,191.999994140625,4|8,1:0|0:0,0:0:0:0:
452,231,201286,1,6,1:0:0:0:
298,297,201453,2,0,B|236:282|236:282|170:304|170:304|102:285,1,191.999994140625,0|8,0:0|0:0,0:0:0:0:
228,172,201953,1,2,1:0:0:0:
114,289,202120,6,0,P|114:333|118:385,1,95.9999970703126,6|0,1:0|0:0,0:0:0:0:
241,363,202453,1,10,0:0:0:0:
228,172,202620,2,0,P|222:103|252:20,1,143.999995605469,6|0,1:0|0:0,0:0:0:0:
274,2,202953,1,4,3:0:0:0:
399,142,203120,1,8,0:0:0:0:
364,175,203203,1,8,0:0:0:0:
319,192,203286,1,8,3:0:0:0:
271,191,203369,1,4,3:0:0:0:
228,172,203453,6,0,P|280:179|307:302,1,191.999994140625,6|14,1:0|0:0,0:0:0:0:
46,175,203953,2,0,B|144:124|137:223|233:169,1,191.999994140625,2|2,0:0|0:0,0:0:0:0:
182,94,204453,1,14,0:0:0:0:
95,248,204620,1,2,0:0:0:0:
238,262,204786,6,0,P|220:211|228:169,1,95.9999970703126,2|0,1:0|0:0,0:0:0:0:
312,65,205120,1,14,0:0:0:0:
323,208,205286,2,0,P|210:216|92:212,1,191.999994140625,2|2,0:0|0:0,0:0:0:0:
30,126,205786,1,12,0:0:0:0:
164,74,205953,1,2,0:0:0:0:
227,217,206120,6,0,L|235:323,1,95.9999970703126,6|0,1:0|0:0,0:0:0:0:
116,275,206453,1,14,0:0:0:0:
116,275,206620,1,2,0:0:0:0:
227,217,206786,2,0,L|216:85,1,95.9999970703126,0|2,1:0|0:0,0:0:0:0:
370,314,207120,2,0,L|381:182,1,95.9999970703126,14|2,0:0|0:0,0:0:0:0:
130,138,207453,6,0,P|208:123|278:126,1,143.999995605469,6|0,1:0|0:0,0:0:0:0:
308,149,207786,1,10,0:0:0:0:
470,293,207953,2,0,L|460:144,1,143.999995605469,6|0,1:0|0:0,0:0:0:0:
449,107,208286,1,2,1:0:0:0:
308,149,208453,1,8,0:0:0:0:
338,8,208620,1,0,1:0:0:0:
183,167,208786,6,0,P|230:176|276:167,1,95.9999970703126,4|0,1:0|0:0,0:0:0:0:
229,71,209120,1,0,0:0:0:0:
124,80,209286,1,0,1:0:0:0:
83,177,209453,2,0,P|82:221|86:264,1,80,10|0,0:0|0:0,0:0:0:0:
130,332,209786,1,2,0:0:0:0:
217,345,209953,1,0,0:0:0:0:
280,283,210120,6,0,L|362:276,1,80,2|8,1:0|0:0,0:0:0:0:
280,101,210453,2,0,L|362:108,1,80,0|0,0:0|1:0,0:0:0:0:
453,312,210786,2,0,L|469:216,1,80,10|0,0:0|0:0,0:0:0:0:
453,72,211120,2,0,L|469:168,1,80,2|0,0:0|0:0,0:0:0:0:
336,192,211453,6,0,B|296:172|263:180|263:180|221:221|169:203,1,160,6|0,1:2|0:2,0:0:0:0:
197,119,211953,1,2,1:0:0:0:
289,259,212120,1,10,0:0:0:0:
411,15,212453,1,12,0:0:0:0:
272,229,212786,5,8,0:0:0:0:
167,269,212953,1,0,1:0:0:0:
76,203,213119,1,0,1:0:0:0:
289,259,213286,5,8,3:0:0:0:
155,273,213453,1,0,0:0:0:0:
70,168,213619,1,0,1:0:0:0:
279,292,213786,2,0,P|278:336|275:376,1,80,10|0,0:0|0:0,0:0:0:0:
183,157,214120,6,0,P|183:112|189:58,1,95.9999970703126,4|0,1:0|1:0,0:0:0:0:
327,117,214453,1,0,1:0:0:0:
327,117,214536,1,0,0:0:0:0:
327,117,214620,1,14,0:0:0:0:
103,177,214786,1,2,1:0:0:0:
283,214,214953,1,0,1:0:0:0:
100,140,215120,1,12,0:0:0:0:
192,282,215286,1,0,1:0:0:0:
223,61,215453,5,12,0:0:0:0:
177,294,216786,6,0,P|252:314|331:254,1,160,4|8,1:0|0:0,0:0:0:0:
359,177,217286,1,2,0:0:0:0:
240,138,217453,2,0,P|234:177|240:216,1,80,2|0,1:0|0:0,0:0:0:0:
359,177,217786,2,0,P|366:138|359:99,1,80,10|0,0:0|0:0,0:0:0:0:
267,22,218119,6,0,L|94:33,1,160,2|8,1:0|0:0,0:0:0:0:
34,106,218619,1,2,0:0:0:0:
86,197,218786,2,0,L|91:312,1,80,2|0,1:0|0:0,0:0:0:0:
231,225,219119,2,0,L|236:110,1,80,10|0,0:0|0:0,0:0:0:0:
298,48,219452,6,0,B|352:35|352:35|455:57,1,160,2|10,1:0|0:0,0:0:0:0:
486,157,219952,1,0,1:0:0:0:
352,147,220119,1,2,0:0:0:0:
488,192,220286,1,0,1:0:0:0:
359,117,220453,1,10,0:0:0:0:
356,261,220620,6,0,B|298:275|240:261|240:261|188:291,1,160,2|2,1:0|1:0,0:0:0:0:
253,354,221120,1,10,0:0:0:0:
356,261,221286,1,0,0:0:0:0:
199,204,221453,2,0,P|194:250|202:282,1,80,2|2,1:0|0:0,0:0:0:0:
236,121,221786,2,0,P|192:113|158:124,1,80,10|2,0:0|0:0,0:0:0:0:
2,251,222119,6,0,P|19:304|123:330,1,160,6|10,1:0|0:0,0:0:0:0:
202,282,222619,1,0,0:0:0:0:
126,170,222786,2,0,L|30:179,1,80,2|0,1:0|0:0,0:0:0:0:
186,75,223119,2,0,L|266:68,1,80,10|2,0:0|0:0,0:0:0:0:
329,156,223453,5,0,1:0:0:0:
231,148,223620,1,0,0:0:0:0:
345,63,223786,1,10,0:0:0:0:
456,157,223953,2,0,P|435:233|371:279,1,160,2|2,1:0|1:0,0:0:0:0:
329,156,224453,1,8,0:0:0:0:
140,249,224620,6,0,B|188:266|188:266|294:243,1,160,6|2,1:0|1:0,0:0:0:0:
190,181,225120,1,10,0:0:0:0:
177,342,225286,1,2,0:0:0:0:
177,157,225453,1,2,1:0:0:0:
294,243,225620,1,2,0:0:0:0:
282,85,225786,1,10,0:0:0:0:
92,117,225952,6,0,B|68:200|117:198|93:283,1,160,4|0,1:0|0:0,0:0:0:0:
177,157,226452,1,10,0:0:0:0:
294,243,226619,1,8,0:0:0:0:
315,246,226702,1,8,0:0:0:0:
335,243,226785,1,4,3:0:0:0:
491,142,226953,1,4,3:0:0:0:
491,142,227119,2,0,P|452:137|402:141,1,80,4|0,3:0|0:0,0:0:0:0:
211,238,227453,5,4,0:0:0:0:
256,192,227536,12,0,233120,0:0:0:0:
