osu file format v14

[General]
AudioFilename: audio.mp3
AudioLeadIn: 0
PreviewTime: 56471
Countdown: 0
SampleSet: Soft
StackLeniency: 0.5
Mode: 0
LetterboxInBreaks: 0
WidescreenStoryboard: 0

[Editor]
Bookmarks: 91471,198138
DistanceSpacing: 1
BeatDivisor: 2
GridSize: 16
TimelineZoom: 1.5

[Metadata]
Title:Hitokoto no Kyori
TitleUnicode:ヒトコトの距離
Artist:*namirin
ArtistUnicode:*なみりん
Creator:sahuang
Version:Collab Normal
Source:
Tags:5colors Beomsan Akitoshi Corinn joker- Linada Left Sotarks Slayed My Angel Azusa
BeatmapID:1412674
BeatmapSetID:667290

[Difficulty]
HPDrainRate:4
CircleSize:3.3
OverallDifficulty:4
ApproachRate:5
SliderMultiplier:1.05
SliderTickRate:1

[Events]
//Background and Video events
0,0,"lol.jpg",0,0
//Break Periods
2,83653,90253
2,171653,180920
//Storyboard Layer 0 (Background)
//Storyboard Layer 1 (Fail)
//Storyboard Layer 2 (Pass)
//Storyboard Layer 3 (Foreground)
//Storyboard Sound Samples

[TimingPoints]
787,333.333333333333,4,2,1,50,1,0
8786,-100,4,2,1,70,0,0
24786,-100,4,2,2,50,0,0
34120,-100,4,2,1,50,0,0
35453,-100,4,2,1,60,0,0
52786,-100,4,2,1,70,0,0
56786,-100,4,2,1,80,0,1
67120,-100,4,2,1,80,0,0
67453,-100,4,2,1,80,0,1
80786,-100,4,2,1,70,0,0
91453,-100,4,2,1,60,0,0
101120,-100,4,2,1,70,0,0
112786,-100,4,2,1,60,0,0
119453,-100,4,2,1,70,0,0
123453,-100,4,2,1,80,0,1
133786,-100,4,2,1,80,0,0
134120,-100,4,2,1,80,0,1
147453,-100,4,2,1,70,0,0
159286,-100,4,2,1,60,0,0
160286,-100,4,2,1,70,0,0
182120,-100,4,2,2,60,0,0
186286,-100,4,2,1,60,0,0
187286,-100,4,2,1,70,0,0
191286,-100,4,2,1,70,0,0
195453,-100,4,2,1,80,0,1
215453,-100,4,2,1,80,0,0
216786,-100,4,2,1,70,0,0
227620,-100,4,2,1,20,0,0
233120,-100,4,2,1,10,0,0

[Colours]
Combo1 : 253,255,164
Combo2 : 95,95,254
Combo3 : 189,217,216
Combo4 : 255,70,70
SliderTrackOverride : 0,0,15
SliderBorder : 255,255,248

[HitObjects]
212,223,787,6,0,P|145:240|49:197,2,157.5,2|2|2,0:0|0:0|0:0,0:0:0:0:
304,173,2120,2,0,P|371:190|467:147,2,157.5,2|2|2,0:0|0:0|0:0,0:0:0:0:
275,72,3453,6,0,P|186:30|60:53,1,210,2|2,0:0|0:0,0:0:0:0:
16,129,4453,1,2,0:0:0:0:
78,211,4786,2,0,L|67:369,2,157.5,2|2|2,0:0|0:0|0:0,0:0:0:0:
162,148,6120,6,0,P|215:132|337:235,1,210,2|2,0:0|0:0,0:0:0:0:
378,308,7120,1,2,0:0:0:0:
467,253,7453,2,0,L|475:130,1,105,2|2,0:0|0:0,0:0:0:0:
482,100,7953,1,0,1:0:0:0:
482,100,8120,2,0,P|435:76|380:74,1,105,14|0,0:0|0:0,0:0:0:0:
295,130,8786,6,0,L|167:121,1,105,6|8,1:0|0:0,0:0:0:0:
152,95,9286,1,10,0:0:0:0:
152,95,9453,2,0,L|24:104,1,105,8|8,0:0|0:0,0:0:0:0:
0,196,10120,2,0,P|0:250|22:305,1,105,4|0,1:0|0:0,0:0:0:0:
59,328,10620,2,0,P|113:328|168:350,1,105,4|0,1:0|0:0,0:0:0:0:
209,364,11120,1,6,1:0:0:0:
304,321,11453,6,0,L|293:205,1,105,4|8,1:0|0:0,0:0:0:0:
290,169,11953,1,10,0:0:0:0:
290,169,12120,2,0,P|339:153|409:160,1,105,10|8,0:0|0:0,0:0:0:0:
483,206,12786,1,4,1:0:0:0:
483,206,14120,6,0,L|372:210,1,105,4|8,1:0|0:0,0:0:0:0:
305,285,14786,1,2,1:0:0:0:
202,308,15120,1,10,0:0:0:0:
103,272,15453,2,0,P|85:215|98:162,1,105,2|8,1:0|0:0,0:0:0:0:
141,146,15953,1,2,0:0:0:0:
141,146,16120,2,0,L|149:24,1,105,2|10,1:0|0:0,0:0:0:0:
252,41,16786,6,0,L|258:145,1,105,2|10,1:0|0:0,0:0:0:0:
302,182,17286,1,0,1:0:0:0:
302,182,17453,2,0,P|309:233|292:282,1,105,2|10,0:0|0:0,0:0:0:0:
265,328,17953,2,0,P|315:349|383:344,1,105,2|2,1:0|1:0,0:0:0:0:
414,331,18453,1,10,0:0:0:0:
488,256,18786,1,2,1:0:0:0:
493,150,19120,2,0,L|484:82,1,52.5,10|2,0:0|0:0,0:0:0:0:
456,54,19453,6,0,P|390:41|327:63,1,105,6|10,1:0|0:0,0:0:0:0:
258,92,20120,1,2,1:0:0:0:
229,192,20453,1,10,0:0:0:0:
198,292,20786,2,0,P|144:313|81:309,1,105,0|10,1:0|0:0,0:0:0:0:
44,313,21286,2,0,L|33:198,1,105,2|2,1:0|1:0,0:0:0:0:
8,169,21786,1,8,0:0:0:0:
8,169,21953,6,0,L|19:56,1,105,6|2,1:0|1:0,0:0:0:0:
44,19,22453,1,10,0:0:0:0:
139,62,22786,2,0,P|202:69|259:46,1,105,2|10,1:0|0:0,0:0:0:0:
286,30,23286,2,0,L|296:134,1,105,6|10,1:0|0:0,0:0:0:0:
300,186,23786,1,0,0:0:0:0:
372,269,24120,1,4,3:0:0:0:
372,269,24286,2,0,P|431:266|485:227,1,105,4|0,3:0|0:2,0:0:0:0:
498,199,24786,5,14,1:2:0:0:
499,93,25120,1,10,0:0:0:0:
410,36,25453,2,0,L|290:47,1,105,8|10,0:0|0:0,0:0:0:0:
265,78,25953,1,2,1:0:0:0:
265,78,26120,2,0,L|145:67,2,105,10|10|8,1:2|0:0|0:0,0:0:0:0:
352,137,27120,1,8,0:0:0:0:
439,195,27453,6,0,P|447:252|427:311,1,105,10|8,1:2|0:0,0:0:0:0:
344,351,28120,2,0,P|287:359|228:339,1,105,8|10,0:0|0:0,0:0:0:0:
202,321,28620,1,0,1:0:0:0:
202,321,28786,2,0,L|80:331,2,105,8|8|8,1:2|0:0|0:0,0:0:0:0:
276,246,29786,1,8,0:0:0:0:
350,171,30120,6,0,L|472:181,1,105,10|10,1:2|0:0,0:0:0:0:
454,284,30786,2,0,L|349:292,1,105,8|8,0:0|0:0,0:0:0:0:
312,330,31286,1,2,1:0:0:0:
312,330,31453,2,0,P|256:344|184:324,1,105,10|10,1:2|0:0,0:0:0:0:
125,273,32120,2,0,P|111:217|131:145,1,105,8|8,0:0|0:0,0:0:0:0:
200,105,32786,6,0,P|138:131|41:102,2,157.5,10|2|8,1:2|0:0|0:0,0:0:0:0:
290,51,34120,1,2,1:2:0:0:
394,40,34453,1,8,0:0:0:0:
479,109,34786,1,2,0:0:0:0:
479,109,34953,2,0,L|471:223,1,105,8|8,0:0|0:0,0:0:0:0:
441,257,35453,6,0,P|386:265|319:245,1,105,6|10,1:0|0:0,0:0:0:0:
294,225,35953,2,0,L|184:235,1,105,2|0,0:0|1:0,0:0:0:0:
137,242,36453,1,10,0:0:0:0:
138,346,36786,2,0,P|189:357|247:343,1,105,2|10,1:0|0:0,0:0:0:0:
288,326,37286,2,0,L|398:336,1,105,2|2,0:0|1:0,0:0:0:0:
444,344,37786,1,8,0:0:0:0:
500,255,38120,6,0,P|507:202|476:131,1,105,2|8,1:0|0:0,0:0:0:0:
416,80,38786,1,0,1:0:0:0:
314,53,39120,2,0,B|241:58,1,52.5,10|2,0:0|1:0,0:0:0:0:
227,96,39453,2,0,L|99:88,1,105,0|8,1:0|0:0,0:0:0:0:
31,141,40120,1,2,1:0:0:0:
46,244,40453,1,10,0:0:0:0:
133,302,40786,6,0,P|198:303|239:282,1,105,2|10,1:0|0:0,0:0:0:0:
268,247,41286,2,0,L|383:253,1,105,2|2,0:0|1:0,0:0:0:0:
425,255,41786,1,10,0:0:0:0:
491,173,42120,2,0,P|496:116|474:57,1,105,2|10,1:0|0:0,0:0:0:0:
447,31,42620,2,0,P|396:45|344:39,1,105,2|2,0:0|1:0,0:0:0:0:
292,31,43120,2,0,L|226:27,1,52.5,10|2,0:0|1:0,0:0:0:0:
186,28,43453,6,0,P|171:84|187:145,1,105,0|8,1:0|0:0,0:0:0:0:
224,224,44120,1,0,1:0:0:0:
166,311,44453,1,8,0:0:0:0:
64,301,44786,1,0,1:0:0:0:
64,301,44953,2,0,P|45:245|51:191,1,105,8|0,0:0|1:0,0:0:0:0:
68,151,45453,1,10,0:0:0:0:
158,97,45786,1,2,1:0:0:0:
256,133,46120,6,0,P|332:156|432:105,1,157.5,6|2,1:0|1:0,0:0:0:0:
445,101,46786,2,0,L|458:213,1,105,8|0,0:0|0:0,0:0:0:0:
416,302,47453,2,0,P|340:279|240:330,1,157.5,2|2,1:0|1:0,0:0:0:0:
221,327,48120,2,0,L|234:215,1,105,8|0,0:0|0:0,0:0:0:0:
211,119,48786,6,0,P|162:83|47:92,1,157.5,2|2,1:0|1:0,0:0:0:0:
22,108,49453,2,0,L|31:219,1,105,8|2,0:0|0:0,0:0:0:0:
92,297,50120,2,0,L|84:385,2,52.5,0|8|0,1:0|0:0|1:0,0:0:0:0:
166,222,50786,1,10,0:0:0:0:
240,147,51120,2,0,L|309:140,1,52.5,10|8,0:0|0:0,0:0:0:0:
341,124,51453,6,0,P|357:189|343:244,2,105,6|10|2,1:0|0:0|0:0,0:0:0:0:
269,47,52453,1,10,0:0:0:0:
167,71,52786,2,0,P|151:136|165:191,1,105,2|8,1:0|0:0,0:0:0:0:
245,229,53453,1,2,0:0:0:0:
351,226,53786,1,8,0:0:0:0:
450,191,54120,6,0,L|472:313,1,105,6|8,1:0|0:0,0:0:0:0:
473,345,54620,2,0,P|422:358|360:350,1,105,4|0,1:0|1:0,0:0:0:0:
321,334,55120,2,0,L|258:339,1,52.5,8|0,0:0|1:0,0:0:0:0:
223,365,55453,2,0,L|69:353,2,105,8|8|4,0:0|0:0|3:0,0:0:0:0:
432,372,56786,6,0,P|445:310|430:259,1,105,6|10,1:0|0:0,0:0:0:0:
393,238,57286,2,0,P|380:176|395:125,1,105,2|2,0:0|0:0,0:0:0:0:
403,85,57786,1,10,0:0:0:0:
298,74,58120,2,0,B|247:84|247:84|189:74,1,105,6|10,1:0|0:0,0:0:0:0:
164,31,58620,2,0,B|113:21|113:21|55:31,1,105,2|2,0:0|0:0,0:0:0:0:
12,50,59120,1,10,0:0:0:0:
2,154,59453,6,0,L|20:267,1,105,6|8,1:0|0:0,0:0:0:0:
38,306,59953,2,0,P|91:287|158:291,1,105,2|2,0:0|0:0,0:0:0:0:
190,297,60453,1,10,0:0:0:0:
290,325,60786,2,0,L|282:209,1,105,6|10,1:0|0:0,0:0:0:0:
243,185,61286,2,0,L|252:74,1,105,2|0,0:0|1:0,0:0:0:0:
264,29,61786,1,10,0:0:0:0:
369,23,62120,6,0,P|438:36|481:75,1,105,6|8,1:0|0:0,0:0:0:0:
510,149,62786,1,2,1:0:0:0:
484,251,63120,1,10,0:0:0:0:
394,305,63453,2,0,L|270:293,1,105,6|10,1:0|0:0,0:0:0:0:
184,283,64120,1,2,1:0:0:0:
92,232,64453,1,10,0:0:0:0:
85,127,64786,6,0,P|132:101|187:98,1,105,6|8,0:0|0:0,0:0:0:0:
229,120,65286,2,0,P|276:94|331:91,1,105,6|0,1:0|1:0,0:0:0:0:
376,105,65786,1,8,0:0:0:0:
437,190,66120,2,0,L|497:182,2,52.5,6|0|10,1:0|0:0|0:0,0:0:0:0:
407,233,66620,2,0,P|360:259|305:262,1,105,6|8,1:0|3:0,0:0:0:0:
258,252,67120,2,0,L|247:195,1,52.5,8|8,0:0|3:0,0:0:0:0:
228,151,67453,6,0,P|164:140|104:163,1,105,6|8,1:0|0:0,0:0:0:0:
77,168,67953,2,0,P|66:104|89:44,1,105,2|2,0:0|0:0,0:0:0:0:
110,26,68453,1,10,0:0:0:0:
213,44,68786,2,0,B|264:57|264:57|330:41,1,105,6|10,1:0|0:0,0:0:0:0:
365,28,69286,2,0,B|378:79|378:79|362:145,1,105,2|2,0:0|0:0,0:0:0:0:
347,179,69786,1,10,0:0:0:0:
243,199,70120,6,0,L|124:189,1,105,6|8,1:0|0:0,0:0:0:0:
33,185,70786,1,2,1:0:0:0:
1,285,71120,1,10,0:0:0:0:
71,362,71453,2,0,P|144:369|183:355,1,105,6|10,1:0|0:0,0:0:0:0:
209,321,71953,2,0,L|328:331,1,105,6|2,1:0|1:0,0:0:0:0:
365,337,72453,1,10,0:0:0:0:
449,274,72786,6,0,P|460:216|446:164,1,105,4|0,1:0|0:0,0:0:0:0:
371,101,73453,2,0,P|313:90|261:104,1,105,10|2,0:0|0:0,0:0:0:0:
206,184,74120,2,0,L|211:244,2,52.5,2|8|0,1:0|0:0|0:0,0:0:0:0:
131,110,74786,2,0,P|73:99|21:113,1,105,10|2,0:0|0:0,0:0:0:0:
0,210,75453,6,0,L|10:330,1,105,2|0,1:0|0:0,0:0:0:0:
100,366,76120,1,10,0:0:0:0:
203,349,76453,1,12,0:0:0:0:
279,276,76786,2,0,L|358:284,2,52.5,8|0|0,0:0|1:0|1:0,0:0:0:0:
237,243,77286,2,0,P|224:190|238:130,1,105,8|0,3:0|1:0,0:0:0:0:
260,96,77786,1,10,0:0:0:0:
337,24,78120,6,0,L|442:33,1,105,6|8,1:0|0:0,0:0:0:0:
497,47,78620,1,10,0:0:0:0:
497,47,78786,2,0,P|510:100|496:160,1,105,8|8,0:0|0:0,0:0:0:0:
440,234,79453,1,0,1:0:0:0:
340,267,79786,1,14,0:0:0:0:
242,227,80120,2,0,L|177:233,1,52.5,6|2,3:0|1:0,0:0:0:0:
145,261,80453,2,0,L|80:255,1,52.5,10|8,0:0|0:0,0:0:0:0:
40,249,80786,5,6,1:0:0:0:
256,192,80953,12,0,83453,0:0:0:0:
47,252,91453,6,0,L|186:241,1,105,6|2,1:0|1:0,0:0:0:0:
254,274,92120,2,0,L|393:285,1,105,0|2,1:0|1:0,0:0:0:0:
402,253,92620,1,2,0:0:0:0:
402,253,92786,2,0,P|427:185|413:131,2,105,2|2|0,1:0|1:0|1:0,0:0:0:0:
322,183,93787,1,0,1:0:0:0:
222,223,94120,6,0,P|165:231|106:211,1,105,2|0,1:0|1:0,0:0:0:0:
133,114,94787,2,0,P|190:106|249:126,1,105,0|2,1:0|1:0,0:0:0:0:
273,82,95287,1,2,0:0:0:0:
273,82,95453,2,0,L|395:72,2,105,0|0|0,1:0|1:0|1:0,0:0:0:0:
318,177,96453,1,0,1:0:0:0:
256,262,96787,6,0,L|246:384,1,105,2|2,1:0|1:0,0:0:0:0:
147,335,97453,2,0,L|155:230,1,105,0|0,1:0|1:0,0:0:0:0:
166,178,97953,1,2,0:0:0:0:
166,178,98120,2,0,P|222:164|294:184,2,105,2|2|0,1:0|1:0|1:0,0:0:0:0:
77,235,99120,1,0,1:0:0:0:
74,130,99453,5,6,1:0:0:0:
74,130,100787,1,2,1:0:0:0:
143,51,101120,1,12,0:0:0:0:
246,70,101453,1,0,1:0:0:0:
246,70,101620,2,0,L|233:7,2,52.5,8|8|10,0:0|0:0|0:0,0:0:0:0:
289,99,102120,6,0,P|297:154|277:221,1,105,6|10,1:0|0:0,0:0:0:0:
238,224,102620,2,0,L|248:334,1,105,2|2,0:0|1:0,0:0:0:0:
271,375,103120,1,8,0:0:0:0:
361,325,103453,2,0,P|418:310|471:321,1,105,2|10,1:0|0:0,0:0:0:0:
497,356,103953,2,0,L|501:234,1,105,2|2,1:0|1:0,0:0:0:0:
485,200,104453,2,0,L|482:132,1,52.5,8|2,0:0|0:0,0:0:0:0:
454,103,104786,6,0,P|376:90|340:95,1,105,2|8,1:0|0:0,0:0:0:0:
259,144,105453,1,0,1:0:0:0:
155,127,105787,2,0,B|160:200,1,52.5,10|2,0:0|1:0,0:0:0:0:
112,203,106120,2,0,L|104:331,1,105,0|8,1:0|0:0,0:0:0:0:
193,365,106786,2,0,P|245:362|265:366,1,52.5,2|0,1:0|1:0,0:0:0:0:
297,371,107120,1,10,0:0:0:0:
382,309,107453,6,0,P|383:244|362:203,1,105,2|10,1:0|0:0,0:0:0:0:
327,174,107953,2,0,L|333:59,1,105,2|2,0:0|1:0,0:0:0:0:
335,17,108453,1,10,0:0:0:0:
232,38,108787,2,0,L|224:160,1,105,2|10,1:0|0:0,0:0:0:0:
239,193,109287,2,0,P|187:187|136:201,1,105,2|2,0:0|1:0,0:0:0:0:
100,239,109787,2,0,L|95:292,1,52.5,10|2,0:0|1:0,0:0:0:0:
122,336,110120,6,0,P|178:351|239:335,1,105,0|8,1:0|0:0,0:0:0:0:
308,280,110787,1,0,1:0:0:0:
311,175,111120,1,8,0:0:0:0:
256,85,111453,1,0,1:0:0:0:
256,85,111620,2,0,P|200:104|146:98,1,105,8|0,0:0|1:0,0:0:0:0:
111,71,112120,1,10,0:0:0:0:
32,140,112453,1,4,0:3:0:0:
70,237,112786,6,0,B|113:267|113:267|249:243,1,157.5,6|2,1:0|1:0,0:0:0:0:
257,215,113453,2,0,L|240:323,1,105,8|0,0:0|0:0,0:0:0:0:
334,366,114120,2,0,P|394:371|410:283,1,157.5,2|2,1:0|1:0,0:0:0:0:
401,239,114786,2,0,L|396:116,1,105,8|0,0:0|0:0,0:0:0:0:
314,68,115453,6,0,B|245:114|231:42|154:91,1,157.5,2|2,1:0|1:0,0:0:0:0:
112,98,116120,2,0,L|123:214,1,105,8|2,0:0|0:0,0:0:0:0:
113,254,116620,1,10,0:0:0:0:
113,254,116786,2,0,L|43:249,2,52.5,0|8|0,1:0|0:0|1:0,0:0:0:0:
181,333,117453,1,10,0:0:0:0:
278,293,117786,2,0,L|348:288,1,52.5,10|8,0:0|0:0,0:0:0:0:
375,262,118120,6,0,P|391:197|377:142,2,105,6|10|2,1:0|0:0|0:0,0:0:0:0:
287,204,119120,1,10,0:0:0:0:
200,263,119453,2,0,P|184:198|198:143,1,105,2|8,1:0|0:0,0:0:0:0:
258,81,120120,1,2,0:0:0:0:
155,57,120453,1,8,0:0:0:0:
58,98,120787,6,0,L|66:218,1,105,6|8,1:0|0:0,0:0:0:0:
26,238,121286,2,0,L|18:358,1,105,4|0,1:0|1:0,0:0:0:0:
63,371,121787,2,0,L|115:366,1,52.5,8|0,0:0|1:0,0:0:0:0:
161,342,122120,2,0,P|220:321|272:327,2,105,8|8|4,0:0|0:0|3:0,0:0:0:0:
358,271,123453,6,0,P|420:284|471:269,1,105,6|10,1:0|0:0,0:0:0:0:
501,243,123953,2,0,P|514:181|499:130,1,105,2|2,0:0|0:0,0:0:0:0:
480,94,124453,1,10,0:0:0:0:
375,82,124786,2,0,L|251:94,1,105,6|10,1:0|0:0,0:0:0:0:
251,140,125286,2,0,L|127:128,1,105,2|2,0:0|0:0,0:0:0:0:
94,119,125786,1,10,0:0:0:0:
41,210,126120,6,0,P|67:270|61:321,1,105,6|8,1:0|0:0,0:0:0:0:
18,334,126620,2,0,L|147:330,1,105,2|2,0:0|0:0,0:0:0:0:
170,353,127120,1,10,0:0:0:0:
257,294,127453,2,0,L|245:182,1,105,6|10,1:0|0:0,0:0:0:0:
198,167,127953,2,0,L|209:62,1,105,2|0,0:0|1:0,0:0:0:0:
246,25,128453,1,10,0:0:0:0:
339,73,128786,6,0,P|389:90|453:77,1,105,6|8,1:0|0:0,0:0:0:0:
508,162,129453,1,2,1:0:0:0:
494,266,129786,1,10,0:0:0:0:
404,321,130120,2,0,P|361:301|280:309,1,105,6|10,1:0|0:0,0:0:0:0:
207,342,130787,1,2,1:0:0:0:
112,295,131120,1,10,0:0:0:0:
103,190,131453,6,0,P|116:127|110:76,1,105,6|8,0:0|0:0,0:0:0:0:
84,42,131953,1,6,1:0:0:0:
84,42,132120,2,0,L|213:48,1,105,2|8,0:0|0:0,0:0:0:0:
289,75,132786,2,0,L|291:137,1,52.5,6|0,1:0|0:0,0:0:0:0:
272,177,133120,1,10,0:0:0:0:
272,177,133286,2,0,P|341:168|384:194,1,105,6|8,1:0|3:0,0:0:0:0:
412,214,133786,2,0,L|416:286,1,52.5,8|8,0:0|3:0,0:0:0:0:
385,310,134120,6,0,P|336:341|284:335,1,105,6|8,1:0|0:0,0:0:0:0:
244,313,134620,2,0,L|124:324,1,105,2|2,0:0|0:0,0:0:0:0:
92,345,135120,1,10,0:0:0:0:
36,256,135453,2,0,L|33:141,1,105,6|10,1:0|0:0,0:0:0:0:
52,102,135953,2,0,B|106:90|106:90|160:107,1,105,2|2,0:0|0:0,0:0:0:0:
202,124,136453,1,10,0:0:0:0:
289,65,136786,6,0,L|410:68,1,105,6|8,1:0|0:0,0:0:0:0:
443,160,137453,2,0,L|338:157,1,105,2|10,1:0|0:0,0:0:0:0:
251,217,138120,2,0,L|260:348,1,105,6|10,1:0|0:0,0:0:0:0:
218,356,138620,2,0,P|169:333|117:339,1,105,6|2,1:0|1:0,0:0:0:0:
73,364,139120,1,10,0:0:0:0:
22,271,139453,6,0,B|14:219|73:170|73:170|72:119|29:82,1,210,6|10,1:0|0:0,0:0:0:0:
110,14,140453,1,2,0:0:0:0:
183,88,140787,2,0,L|188:148,2,52.5,2|8|0,1:0|0:0|0:0,0:0:0:0:
275,38,141453,2,0,P|333:49|385:35,1,105,10|2,0:0|0:0,0:0:0:0:
478,67,142120,6,0,B|507:120|507:120|496:259,1,157.5,2|2,1:0|1:0,0:0:0:0:
492,268,142786,1,10,0:0:0:0:
408,332,143120,1,12,0:0:0:0:
330,261,143453,2,0,P|335:221|330:194,2,52.5,8|0|0,0:0|1:0|1:0,0:0:0:0:
303,306,143953,2,0,L|196:315,1,105,8|0,3:0|1:0,0:0:0:0:
149,335,144453,1,10,0:0:0:0:
54,290,144786,6,0,L|47:154,1,105,6|8,1:0|0:0,0:0:0:0:
39,133,145286,1,8,0:0:0:0:
39,133,145453,2,0,P|103:148|132:144,1,52.5,8|8,0:0|0:0,0:0:0:0:
137,167,145786,2,0,P|199:147|223:130,1,52.5,8|4,0:0|3:0,0:0:0:0:
201,101,146120,1,0,1:0:0:0:
277,171,146453,1,14,0:0:0:0:
213,254,146787,2,0,L|221:329,1,52.5,6|2,3:0|1:0,0:0:0:0:
187,348,147120,2,0,L|112:356,1,52.5,10|8,0:0|0:0,0:0:0:0:
87,330,147453,5,0,1:0:0:0:
30,241,147786,2,0,P|29:164|34:94,1,105,12|8,0:0|3:0,0:0:0:0:
47,86,148286,2,0,P|76:93|106:91,1,52.5,8|8,3:0|0:0,0:0:0:0:
147,72,148620,2,0,L|294:61,1,105,4|8,1:0|0:0,0:0:0:0:
304,67,149120,1,8,0:0:0:0:
304,67,149286,1,12,0:0:0:0:
428,163,149786,2,0,P|435:191|433:223,1,52.5,12|0,0:0|0:0,0:0:0:0:
392,246,150120,6,0,L|241:252,2,105,6|8|0,1:0|0:0|1:0,0:0:0:0:
455,329,151120,1,10,0:0:0:0:
351,343,151453,2,0,L|244:347,1,105,0|10,1:0|0:0,0:0:0:0:
141,335,152120,2,0,P|102:289|104:230,1,105,2|10,1:0|0:0,0:0:0:0:
124,200,152620,1,2,3:2:0:0:
124,200,152786,6,0,L|117:76,2,105,2|8|0,1:0|0:0|1:0,0:0:0:0:
221,240,153786,1,8,0:0:0:0:
305,177,154120,2,0,P|367:187|411:172,1,105,2|10,1:0|0:0,0:0:0:0:
402,70,154786,2,0,P|355:65|279:88,1,105,0|8,1:0|0:0,0:0:0:0:
212,137,155453,5,0,1:0:0:0:
115,94,155786,1,10,0:0:0:0:
30,156,156120,2,0,L|42:273,1,105,2|10,1:0|0:0,0:0:0:0:
72,302,156620,2,0,P|138:280|202:288,1,105,6|2,1:0|1:0,0:0:0:0:
217,307,157120,2,0,L|277:304,1,52.5,10|2,0:0|1:0,0:0:0:0:
319,319,157453,1,2,0:0:0:0:
421,296,157786,1,4,3:0:0:0:
439,192,158120,6,0,L|500:185,2,52.5,10|10|10,0:0|0:0|0:0,0:0:0:0:
391,170,158620,1,14,0:0:0:0:
312,100,158953,1,10,0:0:0:0:
220,151,159286,2,0,P|134:156|100:116,1,105,10|2,3:2|1:0,0:0:0:0:
84,111,159786,2,0,L|85:181,1,52.5,10|2,0:0|1:0,0:0:0:0:
43,196,160120,2,0,L|44:266,1,52.5,2|0,0:0|1:0,0:0:0:0:
85,280,160453,2,0,L|86:350,1,52.5,10|10,0:0|0:0,0:0:0:0:
126,365,160786,6,0,P|176:339|244:343,1,105,6|8,1:0|0:0,0:0:0:0:
321,299,161453,2,0,P|273:268|242:207,1,105,0|8,1:0|0:0,0:0:0:0:
161,168,162120,2,0,P|158:224|121:281,1,105,0|8,1:0|0:0,0:0:0:0:
33,244,162786,2,0,P|35:187|72:130,1,105,2|8,1:0|0:0,0:0:0:0:
139,79,163453,6,0,L|267:76,1,105,2|8,1:0|0:0,0:0:0:0:
331,135,164120,2,0,L|334:263,1,105,0|10,1:0|0:0,0:0:0:0:
362,284,164620,2,0,P|304:274|255:288,1,105,6|2,1:0|1:0,0:0:0:0:
218,317,165120,1,10,0:0:0:0:
118,350,165453,2,0,P|50:349|7:312,1,105,0|10,1:0|0:0,0:0:0:0:
90,250,166120,6,0,L|82:132,1,105,2|10,1:0|0:0,0:0:0:0:
82,92,166620,2,0,P|168:109|207:87,1,105,2|0,0:0|1:0,0:0:0:0:
209,59,167120,2,0,L|282:54,1,52.5,8|6,0:0|1:0,0:0:0:0:
309,33,167453,2,0,P|363:27|426:55,1,105,2|10,0:0|0:0,0:0:0:0:
421,94,167953,2,0,L|413:210,1,105,2|0,0:0|1:0,0:0:0:0:
430,248,168453,1,8,0:0:0:0:
363,330,168786,6,0,L|299:334,1,52.5,10|10,0:0|0:0,0:0:0:0:
212,295,169286,1,10,0:0:0:0:
203,190,169620,1,10,0:0:0:0:
277,115,169953,2,0,P|223:87|105:226,1,262.5,6|10,1:0|0:0,0:0:0:0:
149,299,171120,2,0,L|211:290,1,52.5,8|8,0:0|3:0,0:0:0:0:
250,309,171453,5,6,1:0:0:0:
135,81,182120,6,0,L|139:194,1,105,4|8,1:0|0:0,0:0:0:0:
242,203,182786,2,0,L|238:98,1,105,8|8,0:0|0:0,0:0:0:0:
267,54,183286,1,2,1:0:0:0:
267,54,183453,2,0,P|333:39|380:52,1,105,10|10,1:2|0:0,0:0:0:0:
440,123,184120,2,0,P|455:189|442:236,1,105,10|10,0:0|0:0,0:0:0:0:
353,271,184786,6,0,B|301:259|301:259|247:272,1,105,10|8,1:2|0:0,0:0:0:0:
163,330,185453,2,0,B|112:342|112:342|60:330,1,105,10|8,0:0|0:0,0:0:0:0:
17,300,185953,2,0,L|29:174,1,105,2|0,1:0|1:0,0:0:0:0:
38,144,186453,1,8,0:0:0:0:
122,81,186786,2,0,P|119:48|111:17,2,52.5,10|0|10,0:0|1:0|0:0,0:0:0:0:
152,123,187286,6,0,L|289:127,1,105,6|2,1:0|1:0,0:0:0:0:
309,130,187786,1,10,0:0:0:0:
373,212,188120,2,0,L|442:194,2,52.5,2|0|10,1:0|0:0|0:0,0:0:0:0:
320,217,188620,2,0,L|322:339,1,105,2|2,1:0|1:0,0:0:0:0:
306,372,189120,1,10,0:0:0:0:
213,322,189453,2,0,L|210:399,2,52.5,0|2|10,1:0|1:0|0:0,0:0:0:0:
184,278,189953,6,0,B|130:265|130:265|83:281|83:281|8:272,1,157.5,6|8,1:0|0:0,0:0:0:0:
31,169,190786,2,0,L|45:92,1,52.5,8|2,0:0|1:0,0:0:0:0:
69,72,191120,1,10,0:0:0:0:
69,72,191286,2,0,L|216:81,1,105,6|8,1:0|0:0,0:0:0:0:
223,61,191786,2,0,P|267:56|288:59,1,52.5,8|8,0:0|0:0,0:0:0:0:
327,64,192120,2,0,P|353:99|361:119,1,52.5,8|8,0:0|0:0,0:0:0:0:
372,157,192453,2,0,P|354:197|341:214,1,52.5,10|8,0:0|0:0,0:0:0:0:
306,233,192786,5,14,0:0:0:0:
38,340,194120,1,6,1:0:0:0:
38,340,195453,6,0,P|21:281|29:220,1,105,4|8,1:0|0:0,0:0:0:0:
55,196,195953,2,0,L|68:65,1,105,4|8,1:0|0:0,0:0:0:0:
80,41,196453,2,0,L|141:36,1,52.5,8|8,0:0|0:0,0:0:0:0:
179,60,196786,2,0,B|224:49|224:49|287:72|348:48,2,157.5,4|4|4,1:0|1:0|1:0,0:0:0:0:
223,155,198120,6,0,L|226:263,1,105,6|8,1:0|0:0,0:0:0:0:
280,349,198786,1,2,1:0:0:0:
384,364,199120,1,14,0:0:0:0:
475,312,199453,2,0,P|489:256|473:203,1,105,0|10,1:0|0:0,0:0:0:0:
420,123,200120,1,2,1:0:0:0:
316,107,200453,1,14,0:0:0:0:
223,155,200786,6,0,L|94:159,1,105,4|8,1:0|0:0,0:0:0:0:
65,159,201286,2,0,P|56:106|72:47,1,105,6|0,1:0|1:0,0:0:0:0:
103,19,201786,1,8,0:0:0:0:
204,45,202120,2,0,P|257:54|316:38,1,105,6|10,1:0|0:0,0:0:0:0:
351,16,202620,2,0,L|355:145,1,105,6|4,1:0|3:0,0:0:0:0:
386,162,203120,2,0,L|384:228,1,52.5,8|8,0:0|3:0,0:0:0:0:
380,266,203453,6,0,P|321:254|262:276,1,105,6|14,1:0|0:0,0:0:0:0:
240,301,203953,2,0,P|181:289|122:311,1,105,2|2,0:0|0:0,0:0:0:0:
97,333,204453,1,14,0:0:0:0:
17,264,204786,2,0,B|6:212|6:212|23:158,1,105,2|14,1:0|0:0,0:0:0:0:
47,116,205286,2,0,B|99:127|99:127|153:110,1,105,2|2,0:0|0:0,0:0:0:0:
197,93,205786,1,12,0:0:0:0:
296,59,206120,6,0,L|306:164,1,105,6|14,1:0|0:0,0:0:0:0:
345,197,206620,2,0,L|335:302,1,105,2|2,0:0|0:0,0:0:0:0:
327,353,207120,1,14,0:0:0:0:
428,380,207453,2,0,P|449:347|452:275,1,105,6|10,1:0|0:0,0:0:0:0:
432,234,207953,2,0,L|442:129,1,105,6|2,1:0|1:0,0:0:0:0:
481,94,208453,2,0,L|475:41,1,52.5,8|0,0:0|1:0,0:0:0:0:
431,13,208786,6,0,P|374:35|308:28,1,105,4|0,1:0|0:0,0:0:0:0:
230,65,209453,2,0,P|173:43|107:50,1,105,10|2,0:0|0:0,0:0:0:0:
52,115,210120,2,0,L|0:110,2,52.5,2|8|0,1:0|0:0|0:0,0:0:0:0:
88,213,210786,2,0,P|145:235|211:228,1,105,10|2,0:0|0:0,0:0:0:0:
263,160,211453,6,0,L|391:152,1,105,6|0,1:2|0:2,0:0:0:0:
472,145,212120,1,10,0:0:0:0:
509,243,212453,1,12,0:0:0:0:
443,324,212786,2,0,L|453:381,2,52.5,8|0|0,0:0|1:0|1:0,0:0:0:0:
409,283,213286,2,0,P|350:300|295:289,1,105,8|0,3:0|1:0,0:0:0:0:
259,272,213786,1,10,0:0:0:0:
190,192,214120,6,0,L|198:82,1,105,4|0,1:0|1:0,0:0:0:0:
198,34,214620,2,0,P|144:19|82:33,1,105,14|0,0:0|1:0,0:0:0:0:
49,50,215120,1,12,0:0:0:0:
3,144,215453,1,12,0:0:0:0:
3,144,216786,6,0,L|120:129,1,105,4|8,1:0|0:0,0:0:0:0:
211,119,217453,1,2,1:0:0:0:
310,152,217786,1,10,0:0:0:0:
362,243,218120,2,0,P|375:308|360:355,1,105,2|8,1:0|0:0,0:0:0:0:
323,372,218620,1,2,0:0:0:0:
323,372,218786,2,0,P|258:359|211:374,1,105,2|10,1:0|0:0,0:0:0:0:
117,381,219453,6,0,L|108:270,1,105,2|10,1:0|0:0,0:0:0:0:
76,242,219953,1,0,1:0:0:0:
76,242,220120,2,0,L|85:131,1,105,2|10,0:0|0:0,0:0:0:0:
96,86,220620,2,0,P|153:103|205:92,1,105,2|2,1:0|1:0,0:0:0:0:
240,65,221120,1,10,0:0:0:0:
319,133,221453,1,2,1:0:0:0:
283,231,221786,2,0,L|290:304,1,52.5,10|2,0:0|0:0,0:0:0:0:
292,335,222120,6,0,P|345:347|405:328,1,105,6|10,1:0|0:0,0:0:0:0:
467,260,222786,1,2,1:0:0:0:
467,154,223120,1,10,0:0:0:0:
392,79,223453,2,0,P|339:67|279:86,1,105,0|10,1:0|0:0,0:0:0:0:
239,92,223953,2,0,P|186:104|126:85,1,105,2|2,1:0|1:0,0:0:0:0:
91,80,224453,1,8,0:0:0:0:
91,80,224620,6,0,L|100:196,1,105,6|2,1:0|1:0,0:0:0:0:
105,236,225120,1,10,0:0:0:0:
184,304,225453,2,0,L|179:362,2,52.5,2|2|10,1:0|0:0|0:0,0:0:0:0:
213,260,225953,2,0,P|258:248|324:268,1,105,4|10,1:0|0:0,0:0:0:0:
353,295,226453,1,2,0:0:0:0:
446,246,226786,2,0,L|451:181,1,52.5,4|4,3:0|3:0,0:0:0:0:
483,152,227120,2,0,L|478:87,1,52.5,4|0,3:0|0:0,0:0:0:0:
474,47,227453,5,4,0:0:0:0:
256,192,227620,12,0,233120,0:0:0:0:
