osu file format v14

[General]
AudioFilename: audio.mp3
AudioLeadIn: 0
PreviewTime: 56470
Countdown: 0
SampleSet: Soft
StackLeniency: 0.7
Mode: 0
LetterboxInBreaks: 0
WidescreenStoryboard: 0

[Editor]
Bookmarks: 804,1137,1303,1637,1803,1970,2137,2470,2637,2970,3137,3303,3470,4137,4470,4803,5137,5303,5637,5803,6137,6803,7137,7470,7803,8137,8470,8803,10637,14470,14637,14803,15137,15470,15803,15970,16137,16470,16803,17137,17303,17470,17637,17803,17970,18137,18470,18803,19137,19303,19470,24053,35470,38970,51303,51387,51470,56137,78470,78637,78803,78970,79137,95303,97303,98220,122887,123637,131303,142137
DistanceSpacing: 1
BeatDivisor: 4
GridSize: 32
TimelineZoom: 1.3

[Metadata]
Title:Hitokoto no Kyori (Short Ver.)
TitleUnicode:ヒトコトの距離 (Short Ver.)
Artist:*namirin
ArtistUnicode:*なみりん
Creator:Lexion
Version:Last Call
Source:
Tags:cut version v.
BeatmapID:1936874
BeatmapSetID:927340

[Difficulty]
HPDrainRate:6
CircleSize:4
OverallDifficulty:8
ApproachRate:9.4
SliderMultiplier:1
SliderTickRate:1

[Events]
//Background and Video events
0,0,"asdasdas.jpg",0,0
//Break Periods
2,25062,34989
2,83729,90989
//Storyboard Layer 0 (Background)
//Storyboard Layer 1 (Fail)
//Storyboard Layer 2 (Pass)
//Storyboard Layer 3 (Foreground)
//Storyboard Sound Samples

[TimingPoints]
530,333.333333333333,4,2,0,100,1,0
530,-83.3333333333333,4,2,0,100,0,0
8196,-71.4285714285714,4,2,0,100,0,0
10196,-58.8235294117647,4,2,0,100,0,0
56529,-333.333333333333,4,2,0,100,0,0
56863,-58.8235294117647,4,2,0,100,0,1
72863,-58.8235294117647,4,2,0,100,0,0
78196,-52.6315789473684,4,2,0,100,0,1
80863,-58.8235294117647,4,2,0,100,0,0
91529,-62.5,4,2,0,100,0,0
99529,-500,4,2,0,100,0,0
100863,-62.5,4,2,0,100,0,0
123196,-333.333333333333,4,2,0,100,0,0
123529,-52.6315789473684,4,2,0,100,0,1
139529,-58.8235294117647,4,2,0,100,0,0
144863,-52.6315789473684,4,2,0,100,0,1
147529,-58.8235294117647,4,2,0,100,0,0

[Colours]
Combo1 : 191,255,255
Combo2 : 255,183,219

[HitObjects]
174,43,863,6,0,P|117:63|73:103,1,119.999996337891
127,255,1362,2,0,P|136:198|174:148,1,119.999996337891
248,96,1862,1,0,0:0:0:0:
248,96,2029,1,0,0:0:0:0:
231,245,2196,6,0,L|217:373,1,119.999996337891
347,295,2696,2,0,L|332:163,1,119.999996337891
327,90,3196,1,0,0:0:0:0:
327,90,3363,1,0,0:0:0:0:
437,289,3529,6,0,P|412:345|367:386,1,119.999996337891
332,285,4029,1,0,0:0:0:0:
329,208,4196,2,0,P|310:149|273:101,1,119.999996337891
400,95,4696,1,0,0:0:0:0:
355,37,4862,2,0,P|301:11|241:9,1,119.999996337891
120,81,5362,6,0,L|104:205,1,119.999996337891
93,319,5862,2,0,L|165:327,1,59.9999981689454
394,252,6196,2,0,L|263:269,1,119.999996337891
275,268,6696,1,0,0:0:0:0:
314,151,6862,2,0,L|373:124,1,59.9999981689454
236,56,7196,2,0,L|254:-9,1,59.9999981689454
208,132,7529,6,0,P|178:176|113:201,1,119.999996337891
234,268,8029,1,0,0:0:0:0:
48,100,8196,6,0,P|5:160|9:243,1,139.999995727539
420,143,8862,5,0,0:0:0:0:
377,152,9196,5,0,0:0:0:0:
115,198,9362,1,0,0:0:0:0:
354,315,9529,1,0,0:0:0:0:
229,82,9696,1,0,0:0:0:0:
193,347,9862,1,0,0:0:0:0:
377,152,10029,1,0,0:0:0:0:
306,3,10196,6,0,P|227:-29|141:9,1,170.000003242493
152,160,10696,2,0,P|230:188|306:156,1,170.000003242493
482,67,11196,6,0,P|455:25|404:-3,1,85.0000016212464
396,186,11529,2,0,P|369:227|325:249,1,85.0000016212464
66,207,11862,5,0,0:0:0:0:
389,94,12028,1,0,0:0:0:0:
75,360,12195,1,0,0:0:0:0:
164,80,12362,1,0,0:0:0:0:
329,357,12528,1,0,0:0:0:0:
466,45,12695,1,0,0:0:0:0:
466,45,12779,1,0,0:0:0:0:
466,45,12862,1,0,0:0:0:0:
279,201,14029,5,0,0:0:0:0:
279,201,14112,1,0,0:0:0:0:
279,201,14196,2,0,P|241:226|184:242,1,85.0000016212464
201,116,14529,1,0,0:0:0:0:
74,294,14696,1,0,0:0:0:0:
91,103,14862,1,0,0:0:0:0:
183,335,15029,1,0,0:0:0:0:
304,127,15196,1,0,0:0:0:0:
294,321,15362,1,0,0:0:0:0:
458,248,15529,6,0,P|473:209|479:167,1,85.0000016212464
351,174,15862,1,0,0:0:0:0:
512,306,16029,1,0,0:0:0:0:
282,230,16196,1,0,0:0:0:0:
479,166,16362,1,0,0:0:0:0:
239,119,16529,1,0,0:0:0:0:
504,35,16696,1,0,0:0:0:0:
257,20,16862,6,0,P|214:25|175:41,1,85.0000016212464
0,156,17196,1,0,0:0:0:0:
239,119,17362,1,0,0:0:0:0:
0,0,17529,1,0,0:0:0:0:
257,20,17696,1,0,0:0:0:0:
100,292,17862,1,0,0:0:0:0:
219,212,18029,6,0,P|258:196|300:190,1,85.0000016212464
415,292,18362,1,0,0:0:0:0:
429,105,18529,1,0,0:0:0:0:
287,303,18696,1,0,0:0:0:0:
239,119,18862,1,0,0:0:0:0:
348,253,19029,1,0,0:0:0:0:
100,292,19196,1,0,0:0:0:0:
239,119,19362,1,0,0:0:0:0:
125,54,19529,6,0,P|82:59|43:75,1,85.0000016212464
114,176,19862,1,0,0:0:0:0:
267,0,20029,1,0,0:0:0:0:
213,234,20196,1,0,0:0:0:0:
187,0,20362,1,0,0:0:0:0:
117,285,20529,1,0,0:0:0:0:
239,119,20696,6,0,P|278:103|320:98,1,85.0000016212464
498,109,21029,1,0,0:0:0:0:
327,271,21196,1,0,0:0:0:0:
383,38,21362,6,0,P|343:22|301:17,1,85.0000016212464
67,112,21696,2,0,P|106:96|148:91,1,85.0000016212464
320,98,22029,2,0,P|315:140|299:179,1,85.0000016212464
148,90,22362,5,0,0:0:0:0:
233,332,22529,1,0,0:0:0:0:
406,187,22696,1,0,0:0:0:0:
87,251,22862,1,0,0:0:0:0:
406,366,23029,1,0,0:0:0:0:
346,33,23196,1,0,0:0:0:0:
87,251,23362,2,0,P|64:286|51:327,1,85.0000016212464
193,110,23696,5,0,0:0:0:0:
202,286,23862,1,0,0:0:0:0:
352,190,24029,1,0,0:0:0:0:
352,190,24112,1,0,0:0:0:0:
352,190,24196,1,0,0:0:0:0:
202,286,24362,1,0,0:0:0:0:
193,110,24529,6,0,L|101:101,1,85.0000016212464
0,92,24862,1,0,0:0:0:0:
96,119,35529,6,0,P|135:133|178:136,1,85.0000016212464
363,71,35862,1,0,0:0:0:0:
324,237,36029,2,0,P|327:279|341:319,1,85.0000016212464
250,186,36362,5,0,0:0:0:0:
408,254,36529,1,0,0:0:0:0:
162,317,36696,1,0,0:0:0:0:
178,136,36862,6,0,P|166:95|144:58,1,85.0000016212464
0,0,37196,1,0,0:0:0:0:
16,157,37362,6,0,P|27:197|49:234,1,85.0000016212464
158,350,37696,2,0,P|169:309|191:272,1,85.0000016212464
329,149,38029,5,0,0:0:0:0:
327,306,38196,2,0,P|337:347|357:384,1,85.0000016212464
270,227,38529,1,0,0:0:0:0:
428,310,38696,1,0,0:0:0:0:
409,116,38862,1,0,0:0:0:0:
327,306,39029,1,0,0:0:0:0:
269,77,39196,1,0,0:0:0:0:
219,311,39362,6,0,P|182:331|140:341,1,85.0000016212464
26,273,39696,1,0,0:0:0:0:
219,216,39862,1,0,0:0:0:0:
176,0,40029,6,0,P|159:38|153:80,1,85.0000016212464
219,216,40362,1,0,0:0:0:0:
269,77,40529,2,0,P|290:40|321:11,1,85.0000016212464
394,122,40862,6,0,L|407:205,1,85.0000016212464
432,355,41196,1,0,0:0:0:0:
303,169,41362,2,0,L|289:252,1,85.0000016212464
273,384,41696,1,0,0:0:0:0:
394,122,41862,6,0,P|363:92|325:73,1,85.0000016212464
86,166,42196,6,0,P|109:133|145:105,1,85.0000016212464,0|0,0:3|0:0,2:0:0:0:
286,0,42529,1,0,0:0:0:0:
289,252,42696,2,0,P|280:293|260:331,1,85.0000016212464
243,73,43029,5,0,0:0:0:0:
363,332,43196,1,0,0:0:0:0:
169,145,43362,5,0,0:0:0:0:
436,220,43529,1,0,0:0:0:0:
160,249,43696,1,0,0:0:0:0:
362,121,43862,1,0,0:0:0:0:
138,48,44029,1,0,0:0:0:0:
422,34,44196,1,0,0:0:0:0:
169,145,44362,1,0,0:0:0:0:
464,128,44529,1,0,0:0:0:0:
160,249,44696,1,0,0:0:0:0:
436,220,44862,5,0,0:0:0:0:
464,128,45029,1,0,0:0:0:0:
279,219,45362,5,0,0:0:0:0:
279,219,45446,1,0,0:0:0:0:
279,219,45529,1,0,0:0:0:0:
153,224,45696,1,0,0:0:0:0:
83,132,45862,2,0,L|98:36,1,85.0000016212464
266,123,46196,6,0,P|303:142|345:151,1,85.0000016212464
347,18,46529,1,0,0:0:0:0:
279,219,46696,2,0,P|287:260|307:298,1,85.0000016212464
431,125,47029,1,0,0:0:0:0:
388,330,47196,1,0,0:0:0:0:
345,151,47362,1,0,0:0:0:0:
307,298,47529,6,0,P|269:317|227:326,1,85.0000016212464
175,139,47862,1,0,0:0:0:0:
85,316,48029,2,0,P|65:278|56:236,1,85.0000016212464,0|0,0:1|0:0,0:0:0:0:
96,48,48362,1,0,0:0:0:0:
168,245,48529,1,0,0:0:0:0:
259,87,48696,5,0,0:0:0:0:
259,87,48779,1,0,0:0:0:0:
259,87,48862,2,0,P|293:63|334:49,1,85.0000016212464,0|0,0:1|0:0,0:0:0:0:
493,45,49196,1,0,0:0:0:0:
360,195,49362,2,0,P|325:218|284:232,1,85.0000016212464,0|0,0:1|0:0,0:0:0:0:
416,110,49696,5,0,0:0:0:0:
370,308,49862,1,0,0:0:0:0:
273,126,50029,2,0,P|238:102|197:88,1,85.0000016212464,0|0,0:1|0:0,0:0:0:0:
11,145,50362,1,0,0:0:0:0:
193,190,50529,1,0,0:0:0:0:
63,325,50696,1,0,0:0:0:0:
245,371,50862,6,0,P|285:360|322:338,1,85.0000016212464,0|0,0:1|0:0,0:0:0:0:
477,291,51196,2,0,P|436:280|399:258,1,85.0000016212464,0|0,0:1|0:0,0:0:0:0:
333,49,51529,6,0,L|350:150,1,85.0000016212464
256,290,51862,2,0,L|273:189,1,85.0000016212464
333,49,52196,6,0,P|293:37|250:37,1,85.0000016212464,0|0,0:1|0:0,0:0:0:0:
11,145,52529,2,0,P|50:133|93:133,1,85.0000016212464,0|0,0:1|0:0,0:0:0:0:
385,174,52862,6,0,L|399:257,1,85.0000016212464
131,337,53196,2,0,L|145:253,1,85.0000016212464
416,37,53529,6,0,P|373:37|332:48,1,85.0000016212464,0|0,0:1|0:0,0:0:0:0:
11,145,53862,2,0,P|53:145|94:156,1,85.0000016212464,0|0,0:1|0:0,0:0:0:0:
232,315,54196,6,0,P|272:326|315:326,1,85.0000016212464,0|0,0:1|0:0,0:0:0:0:
388,132,54529,1,0,0:0:0:0:
480,373,54696,6,0,P|439:384|396:384,1,85.0000016212464,0|0,0:1|0:0,0:0:0:0:
280,115,55029,1,0,0:0:0:0:
232,315,55196,1,0,0:0:0:0:
70,57,55362,5,0,0:0:0:0:
70,57,55446,1,0,0:0:0:0:
70,57,55529,1,0,0:0:0:0:
148,184,55696,1,0,0:0:0:0:
280,115,55862,5,0,0:0:0:0:
341,108,55945,1,0,0:0:0:0:
390,146,56028,1,0,0:0:0:0:
396,208,56112,1,0,0:0:0:0:
357,256,56195,1,0,0:0:0:0:
50,162,56529,6,0,L|45:189,1,22.4999993133545
42,204,56862,6,0,L|22:322,1,85.0000016212464
156,91,57196,1,0,0:0:0:0:
178,283,57362,2,0,L|194:407,1,85.0000016212464
242,125,57696,5,0,0:0:0:0:
96,342,57862,1,0,0:0:0:0:
327,91,58029,1,0,0:0:0:0:
362,334,58196,6,0,P|399:350|453:359,1,85.0000016212464,0|0,0:1|0:0,0:0:0:0:
413,126,58529,1,0,0:0:0:0:
265,331,58696,2,0,P|229:349|175:354,1,85.0000016212464,0|0,0:1|0:0,0:0:0:0:
427,283,59029,5,0,0:0:0:0:
195,222,59196,1,0,0:0:0:0:
413,126,59362,1,0,0:0:0:0:
184,29,59529,6,0,P|144:34|97:58,1,85.0000016212464,0|0,0:1|0:0,0:0:0:0:
195,222,59862,1,0,0:0:0:0:
288,137,60029,2,0,P|257:111|207:94,1,85.0000016212464,0|0,0:1|0:0,0:0:0:0:
115,286,60362,5,0,0:0:0:0:
105,51,60529,1,0,0:0:0:0:
211,324,60696,1,0,0:0:0:0:
296,135,60862,6,0,P|324:111|374:95,1,85.0000016212464,0|0,0:1|0:0,0:0:0:0:
398,259,61196,1,0,0:0:0:0:
439,26,61362,2,0,P|401:9|348:5,1,85.0000016212464,0|0,0:1|0:0,0:0:0:0:
183,128,61696,5,0,0:0:0:0:
419,172,61862,2,0,P|380:177|331:199,1,85.0000016212464,0|0,0:1|0:0,0:0:0:0:
159,283,62196,2,0,P|196:296|240:326,1,85.0000016212464,0|0,0:1|0:0,0:0:0:0:
362,384,62529,5,0,0:0:0:0:
244,219,62696,1,0,0:0:0:0:
138,383,62862,6,0,P|97:368|59:331,1,85.0000016212464,0|0,0:1|0:0,0:0:0:0:
110,101,63196,2,0,P|129:147|138:195,1,85.0000016212464,0|0,0:1|0:0,0:0:0:0:
227,355,63529,6,0,P|178:377|137:384,1,85.0000016212464,0|0,0:1|0:0,0:0:0:0:
341,201,63862,2,0,P|378:183|433:174,1,85.0000016212464,0|0,0:1|0:0,0:0:0:0:
158,267,64196,6,0,P|141:228|133:171,1,85.0000016212464,0|0,0:1|0:0,0:0:0:0:
336,0,64529,2,0,P|352:38|361:96,1,85.0000016212464,0|0,0:1|0:0,0:0:0:0:
305,341,64862,6,0,L|315:222,1,85.0000016212464
336,0,65196,1,0,0:0:0:0:
424,312,65362,1,0,0:0:0:0:
216,77,65529,2,0,P|181:55|125:41,1,85.0000016212464,0|0,0:1|0:0,0:0:0:0:
214,300,65862,5,0,0:0:0:0:
359,81,66029,1,0,0:0:0:0:
392,287,66196,2,0,P|380:324|353:371,1,85.0000016212464,0|0,0:1|0:0,0:0:0:0:
142,191,66529,5,0,0:0:0:0:
359,81,66696,2,0,P|401:86|450:108,1,85.0000016212464,0|0,0:1|0:0,2:0:0:0:
237,201,67029,5,0,0:0:0:0:
365,224,67196,1,0,0:0:0:0:
409,347,67362,1,0,0:0:0:0:
409,347,67446,1,0,0:0:0:0:
409,347,67529,6,0,L|286:323,1,85.0000016212464
176,300,67862,1,0,0:0:0:0:
359,81,68029,2,0,L|283:180,1,85.0000016212464
231,384,68362,5,0,0:0:0:0:
203,99,68529,1,0,0:0:0:0:
8,308,68696,1,0,0:0:0:0:
187,2,68862,6,0,P|224:5|273:27,1,85.0000016212464,0|0,0:1|0:0,2:0:0:0:
446,194,69196,1,0,0:0:0:0:
183,173,69362,2,0,P|186:137|207:90,1,85.0000016212464,0|0,0:1|0:0,2:0:0:0:
110,271,69696,5,0,0:0:0:0:
114,67,69862,1,0,0:0:0:0:
220,288,70029,1,0,0:0:0:0:
387,120,70196,6,0,P|349:110|298:115,1,85.0000016212464,0|0,0:1|0:0,2:0:0:0:
457,19,70529,1,0,0:0:0:0:
340,205,70696,1,0,0:0:0:0:
159,2,70862,6,0,P|132:31|109:78,1,85.0000016212464,0|0,0:1|0:0,2:0:0:0:
166,259,71196,2,0,P|167:219|185:169,1,85.0000016212464,0|0,0:1|0:0,2:0:0:0:
295,18,71529,6,0,L|307:140,1,85.0000016212464,0|0,0:1|0:0,2:0:0:0:
329,299,71862,1,0,0:0:0:0:
407,136,72029,6,0,P|387:170|346:207,1,85.0000016212464,0|0,0:1|0:0,2:0:0:0:
213,285,72362,1,0,0:0:0:0:
220,165,72529,6,0,L|229:70,1,85.0000016212464,0|0,0:1|0:0,2:0:0:0:
57,28,72862,2,0,L|69:143,1,85.0000016212464,0|0,0:1|0:0,2:0:0:0:
78,224,73196,1,0,0:0:0:0:
152,305,73362,1,0,0:0:0:0:
262,313,73529,6,0,P|304:308|343:291,1,85.0000016212464,0|0,0:1|0:0,2:0:0:0:
349,148,73862,2,0,P|309:164|276:190,1,85.0000016212464,0|0,0:1|0:0,2:0:0:0:
437,362,74196,6,0,P|452:322|458:280,1,85.0000016212464,0|0,0:1|0:0,2:0:0:0:
448,24,74529,6,0,P|441:65|424:104,1,85.0000016212464,0|0,0:1|0:0,2:0:0:0:
348,279,74862,6,0,L|339:363,1,85.0000016212464,0|0,0:1|0:0,2:0:0:0:
228,270,75196,2,0,L|219:185,1,85.0000016212464,0|0,0:1|0:0,2:0:0:0:
215,0,75529,6,0,P|246:28|268:64,1,85.0000016212464,0|0,0:1|0:0,2:0:0:0:
334,206,75862,1,0,0:0:0:0:
182,82,76029,1,0,0:0:0:0:
142,276,76196,6,0,P|125:314|97:347,1,85.0000016212464,0|0,0:1|0:0,2:0:0:0:
0,79,76529,1,0,0:0:0:0:
0,235,76696,1,0,0:0:0:0:
182,82,76862,5,0,0:0:0:0:
236,241,77029,1,0,0:0:0:0:
71,208,77196,1,0,0:0:0:0:
221,158,77362,5,0,0:0:0:0:
170,306,77529,1,0,0:0:0:0:
324,275,77696,1,0,0:0:0:0:
221,158,77862,6,0,L|233:45,1,85.0000016212464,0|0,0:1|0:0,2:0:0:0:
236,241,78196,2,0,L|246:340,1,94.9999974632264,0|0,0:1|0:0,2:0:0:0:
279,52,78529,5,0,0:0:0:0:
83,298,78696,1,0,0:0:0:0:
386,212,78863,1,0,0:0:0:0:
90,104,79029,1,0,0:0:0:0:
266,366,79196,1,0,0:0:0:0:
301,370,79279,1,0,0:0:0:0:
336,367,79362,1,0,0:0:0:0:
370,356,79445,1,0,0:0:0:0:
401,339,79529,1,0,0:0:0:0:
83,298,79862,6,0,L|89:182,1,94.9999974632264,0|0,0:1|0:0,2:0:0:0:
90,104,80196,1,0,0:0:0:0:
256,197,80362,1,0,0:0:0:0:
251,97,80530,2,0,L|246:3,1,94.9999974632264,0|0,0:1|0:0,2:0:0:0:
256,197,80862,1,0,0:0:0:0:
256,192,81029,12,0,83529,0:0:0:0:
155,126,91529,6,0,L|162:206,1,80,0|0,0:1|0:0,2:0:0:0:
60,17,91862,5,0,0:0:0:0:
46,183,92029,2,0,L|37:291,1,80,0|0,0:1|0:0,2:0:0:0:
31,384,92362,5,0,0:0:0:0:
46,183,92529,1,0,0:0:0:0:
212,296,92696,1,0,0:0:0:0:
245,160,92862,6,0,L|238:80,1,80,0|0,0:1|0:0,2:0:0:0:
326,271,93195,5,0,0:0:0:0:
357,97,93362,2,0,L|363:17,1,80,0|0,0:1|0:0,2:0:0:0:
475,75,93696,6,0,L|481:154,1,80,0|0,0:1|0:0,2:0:0:0:
493,300,94029,1,0,0:0:0:0:
339,185,94196,6,0,P|296:188|255:203,1,80,0|0,0:1|0:0,2:0:0:0:
140,297,94529,2,0,P|172:324|211:340,1,80,0|0,0:1|0:0,2:0:0:0:
433,221,94862,5,0,0:0:0:0:
280,114,95029,1,0,0:0:0:0:
321,297,95196,1,0,0:0:0:0:
341,50,95362,6,0,P|302:32|256:29,1,80,0|0,0:1|0:0,2:0:0:0:
436,110,95696,1,0,0:0:0:0:
433,221,95862,2,0,P|399:246|352:262,1,80,0|0,0:1|0:0,2:0:0:0:
161,156,96196,6,0,P|122:139|76:131,1,80,0|0,0:1|0:0,2:0:0:0:
74,297,96529,1,0,0:0:0:0:
0,144,96696,1,0,0:0:0:0:
124,234,96862,6,0,L|206:227,1,80,0|0,0:1|0:0,2:0:0:0:
376,213,97196,1,0,2:0:0:0:
253,323,97362,6,0,L|173:316,1,80,0|0,0:1|0:0,2:0:0:0:
1,302,97696,5,0,2:0:0:0:
124,234,97862,1,0,0:0:0:0:
0,144,98029,1,0,0:0:0:0:
150,51,98196,6,0,L|230:44,1,80,0|0,0:1|0:0,2:0:0:0:
402,30,98529,1,0,2:0:0:0:
252,165,98696,6,0,L|172:158,1,80,0|0,0:1|0:0,2:0:0:0:
0,144,99029,6,0,L|7:224,1,80,0|0,0:1|0:0,2:0:0:0:
18,384,99362,1,0,2:0:0:0:
252,165,99529,6,0,P|282:158|283:189,1,70
192,275,100862,6,0,P|150:294|108:300,1,80,0|0,0:1|0:0,2:0:0:0:
44,160,101196,2,0,P|83:175|121:207,1,80,0|0,0:1|0:0,2:0:0:0:
253,350,101529,1,0,0:0:0:0:
433,258,101696,1,0,0:0:0:0:
480,335,101862,5,0,0:0:0:0:
424,348,101945,1,0,0:0:0:0:
372,325,102028,1,0,0:0:0:0:
344,275,102111,1,0,0:0:0:0:
354,219,102196,6,0,L|382:137,1,80,0|0,0:1|0:0,2:0:0:0:
428,0,102529,1,0,0:0:0:0:
248,16,102696,6,0,L|168:23,1,80,0|0,0:1|0:0,2:0:0:0:
0,34,103029,5,0,0:0:0:0:
139,239,103196,1,0,0:0:0:0:
248,16,103362,1,0,0:0:0:0:
233,214,103529,6,0,L|226:294,1,80,0|0,0:1|0:0,2:0:0:0:
346,67,103862,5,0,0:0:0:0:
362,265,104029,2,0,L|369:345,1,80,0|0,0:1|0:0,2:0:0:0:
488,294,104362,6,0,L|495:214,1,80,0|0,0:1|0:0,2:0:0:0:
510,16,104696,1,0,0:0:0:0:
406,131,104862,6,0,P|366:149|323:156,1,80,0|0,0:1|0:0,2:0:0:0:
167,38,105196,2,0,P|206:21|249:16,1,80,0|0,0:1|0:0,2:0:0:0:
457,78,105529,5,0,0:0:0:0:
248,109,105696,1,0,0:0:0:0:
380,275,105862,1,0,0:0:0:0:
145,144,106029,6,0,P|143:101|155:57,1,80,0|0,0:1|0:0,2:0:0:0:
49,175,106362,1,0,0:0:0:0:
222,209,106529,1,0,0:0:0:0:
52,93,106696,1,0,0:0:0:0:
49,263,106862,6,0,L|46:354,1,80,0|0,0:1|0:0,2:0:0:0:
216,384,107196,2,0,L|221:299,1,80,0|0,0:1|0:0,2:0:0:0:
240,37,107529,6,0,L|234:124,1,80,0|0,0:1|0:0,2:0:0:0:
218,304,107862,1,0,0:0:0:0:
333,100,108029,6,0,L|340:180,1,80,0|0,0:1|0:0,2:0:0:0:
355,367,108362,1,0,0:0:0:0:
458,36,108529,6,0,L|451:116,1,80,0|0,0:1|0:0,2:0:0:0:
430,342,108862,6,0,P|389:359|351:367,1,80,0|0,0:3|0:0,2:0:0:0:
339,179,109196,1,0,0:0:0:0:
215,304,109362,6,0,P|195:268|182:227,1,80,0|0,0:3|0:0,2:0:0:0:
200,50,109696,1,0,0:0:0:0:
121,303,109862,1,0,0:0:0:0:
26,103,110029,6,0,P|57:81|98:68,1,80,0|0,0:3|0:0,2:0:0:0:
291,62,110362,5,0,0:0:0:0:
107,174,110529,1,0,0:0:0:0:
339,179,110695,1,0,0:0:0:0:
121,303,110862,1,0,0:0:0:0:
261,141,111029,5,0,0:0:0:0:
98,68,111195,1,0,0:0:0:0:
268,228,111362,1,0,0:0:0:0:
291,62,111529,5,0,0:0:0:0:
493,136,111696,1,0,0:0:0:0:
261,141,111862,6,0,P|223:161|193:191,1,80,0|0,0:3|0:0,2:0:0:0:
150,268,112112,1,0,0:0:0:0:
150,268,112196,2,0,P|187:288|214:316,1,80,0|0,0:3|0:0,2:0:0:0:
270,384,112529,2,0,P|312:379|346:366,1,40,0|0,0:3|0:0,2:0:0:0:
499,215,112862,6,0,L|492:135,1,80,0|0,0:1|0:0,2:0:0:0:
482,0,113196,1,0,0:0:0:0:
346,195,113362,6,0,P|315:220|278:236,1,80,0|0,0:3|0:0,2:0:0:0:
143,206,113696,5,0,0:0:0:0:
242,101,113862,1,0,0:0:0:0:
193,328,114029,1,0,0:0:0:0:
36,118,114196,6,0,P|66:92|103:76,1,80,0|0,0:3|0:0,2:0:0:0:
374,61,114529,1,0,0:0:0:0:
346,195,114696,6,0,P|362:231|387:262,1,80,0|0,0:3|0:0,2:0:0:0:
512,302,115029,5,0,0:0:0:0:
478,158,115196,1,0,0:0:0:0:
282,283,115362,1,0,0:0:0:0:
282,283,115446,1,0,0:0:0:0:
282,283,115529,6,0,L|202:290,1,80,0|0,0:1|0:0,2:0:0:0:
59,300,115862,1,0,0:0:0:0:
125,184,116029,6,0,L|205:177,1,80,0|0,0:1|0:0,2:0:0:0:
348,167,116362,1,0,0:0:0:0:
282,283,116529,1,0,0:0:0:0:
459,235,116696,6,0,P|473:197|477:157,1,80,0|0,0:3|0:0,2:0:0:0:
242,99,117029,5,0,0:0:0:0:
383,40,117196,1,0,0:0:0:0:
348,167,117362,1,0,0:0:0:0:
282,283,117529,6,0,P|252:309|216:327,1,80,0|0,0:3|0:0,2:0:0:0:
102,207,117862,2,0,P|140:213|180:208,1,80,0|0,0:3|0:0,2:0:0:0:
256,176,118112,1,0,0:0:0:0:
256,176,118196,6,0,P|253:136|241:98,1,80,0|0,0:3|0:0,2:0:0:0:
92,0,118529,2,0,P|69:32|55:70,1,80,0|0,0:3|0:0,2:0:0:0:
53,307,118862,6,0,P|85:329|123:343,1,80,0|0,0:3|0:0,2:0:0:0:
357,187,119196,2,0,P|343:224|319:256,1,80,0|0,0:3|0:0,2:0:0:0:
167,147,119529,6,0,P|150:110|144:71,1,80,0|0,0:3|0:0,2:0:0:0:
369,84,119862,2,0,P|406:97|438:121,1,80,0|0,0:3|0:0,2:0:0:0:
311,349,120196,6,0,P|273:335|241:311,1,80,0|0,0:3|0:0,2:0:0:0:
204,77,120529,2,0,P|180:109|167:147,1,80,0|0,0:3|0:0,2:0:0:0:
49,312,120862,6,0,L|121:276,1,80,0|0,0:3|0:3,2:3:0:0:
285,191,121196,1,0,0:0:0:0:
160,67,121362,6,0,L|167:147,1,80,0|0,0:1|0:0,2:0:0:0:
179,331,121696,1,0,0:0:0:0:
345,112,121862,5,0,0:0:0:0:
301,319,122029,1,0,0:0:0:0:
301,319,122112,1,0,0:0:0:0:
301,319,122196,1,0,0:0:0:0:
179,331,122362,1,0,0:0:0:0:
91,244,122529,5,0,0:0:0:0:
94,195,122612,1,0,0:0:0:0:
132,165,122695,1,0,0:0:0:0:
180,174,122778,1,0,0:0:0:0:
206,215,122862,1,0,0:0:0:0:
435,349,123196,6,0,L|430:321,1,22.4999993133545,0|0,2:0|2:0,2:0:0:0:
426,308,123529,6,0,L|404:193,1,94.9999974632264,0|0,2:0|2:0,2:0:0:0:
382,57,123863,1,0,0:0:0:0:
294,290,124029,2,0,L|281:384,1,94.9999974632264
167,94,124363,5,0,0:0:0:0:
202,330,124529,1,0,0:0:0:0:
91,58,124696,1,0,0:0:0:0:
0,209,124863,6,0,P|43:231|88:239,1,94.9999974632264,0|0,0:1|0:0,0:0:0:0:
243,130,125196,5,0,0:0:0:0:
386,310,125363,2,0,P|355:346|316:372,1,94.9999974632264,0|0,0:1|0:0,0:0:0:0:
383,165,125696,5,0,0:0:0:0:
246,283,125863,1,0,0:0:0:0:
340,56,126029,1,0,0:0:0:0:
498,135,126196,6,0,P|501:183|489:229,1,94.9999974632264,0|0,0:1|0:0,0:0:0:0:
268,148,126529,5,0,0:0:0:0:
164,307,126696,6,0,P|195:342|235:367,1,94.9999974632264,0|0,0:1|0:0,0:0:0:0:
90,144,127029,5,0,0:0:0:0:
16,319,127196,1,0,0:0:0:0:
136,41,127363,1,0,0:0:0:0:
13,196,127529,6,0,P|50:224|95:238,1,94.9999974632264,0|0,0:1|0:0,0:0:0:0:
276,112,127862,5,0,0:0:0:0:
391,239,128029,2,0,P|354:269|311:287,1,94.9999974632264,0|0,0:1|0:0,0:0:0:0:
445,71,128363,5,0,0:0:0:0:
292,24,128529,2,0,P|250:30|203:58,1,94.9999974632264,0|0,0:1|0:0,0:0:0:0:
13,196,128863,2,0,P|54:202|104:229,1,94.9999974632264,0|0,0:1|0:0,0:0:0:0:
235,367,129196,5,0,0:0:0:0:
282,187,129363,1,0,0:0:0:0:
412,317,129529,6,0,P|446:348|490:367,1,94.9999974632264,0|0,0:1|0:0,0:0:0:0:
407,167,129863,2,0,P|386:124|356:87,1,94.9999974632264,0|0,0:1|0:0,0:0:0:0:
101,226,130196,2,0,P|122:269|152:306,1,94.9999974632264,0|0,0:1|0:0,0:0:0:0:
290,22,130529,2,0,P|328:5|381:0,1,94.9999974632264,0|0,0:1|0:0,0:0:0:0:
502,156,130862,2,0,P|495:197|470:244,1,94.9999974632264,0|0,0:1|0:0,0:0:0:0:
148,130,131196,2,0,P|170:88|204:55,1,94.9999974632264,0|0,0:1|0:0,0:0:0:0:
320,0,131529,6,0,L|330:126,1,94.9999974632264
338,321,131863,1,0,0:0:0:0:
415,170,132029,1,0,0:0:0:0:
148,130,132196,2,0,P|107:144|64:174,1,94.9999974632264,0|0,0:1|0:0,0:0:0:0:
178,289,132529,5,0,0:0:0:0:
327,94,132696,1,0,0:0:0:0:
426,278,132863,2,0,P|430:319|423:372,1,94.9999974632264,0|0,0:1|0:0,0:0:0:0:
258,307,133196,5,0,0:0:0:0:
512,141,133363,2,0,P|483:109|437:81,1,94.9999974632264,0|0,0:1|0:0,2:0:0:0:
245,42,133696,5,0,0:0:0:0:
180,169,133863,1,0,0:0:0:0:
258,307,134029,1,0,0:0:0:0:
258,307,134113,1,0,0:0:0:0:
258,307,134196,6,0,L|129:281,1,94.9999974632264
0,257,134529,1,0,0:0:0:0:
179,168,134696,6,0,L|273:150,1,94.9999974632264
399,122,135029,5,0,0:0:0:0:
164,288,135196,1,0,0:0:0:0:
443,352,135363,1,0,0:0:0:0:
379,33,135529,6,0,P|421:38|470:65,1,94.9999974632264,0|0,0:1|0:0,2:0:0:0:
425,239,135863,1,0,0:0:0:0:
202,77,136029,6,0,P|155:83|113:106,1,94.9999974632264,0|0,0:3|0:0,2:0:0:0:
164,288,136363,5,0,0:0:0:0:
59,163,136529,1,0,0:0:0:0:
147,384,136696,1,0,0:0:0:0:
137,206,136863,6,0,P|184:207|227:225,1,94.9999974632264,0|0,0:1|0:0,2:0:0:0:
364,337,137196,1,0,0:0:0:0:
212,127,137363,1,0,0:0:0:0:
56,255,137529,6,0,P|48:208|58:162,1,94.9999974632264,0|0,0:1|0:0,2:0:0:0:
179,0,137863,2,0,P|138:24|107:60,1,94.9999974632264,0|0,0:1|0:0,2:0:0:0:
157,203,138196,6,0,L|251:213,1,94.9999974632264,0|0,0:1|0:0,2:3:0:0:
429,230,138529,1,0,0:0:0:0:
347,374,138696,6,0,L|252:384,1,94.9999974632264,0|0,0:1|0:0,2:3:0:0:
391,302,139029,1,0,0:0:0:0:
379,170,139196,6,0,L|370:75,1,94.9999974632264,0|0,0:1|0:0,2:0:0:0:
212,129,139529,2,0,L|203:217,1,85.0000016212464,0|0,0:1|0:0,2:0:0:0:
193,313,139863,1,0,0:0:0:0:
277,384,140029,1,0,0:0:0:0:
389,383,140196,6,0,P|427:367|458:335,1,85.0000016212464,0|0,0:3|0:3,2:3:0:0:
451,128,140529,2,0,P|411:144|378:170,1,85.0000016212464,0|0,0:1|0:0,2:0:0:0:
277,384,140863,6,0,P|292:344|298:302,1,85.0000016212464,0|0,0:1|0:0,2:0:0:0:
268,42,141196,6,0,P|282:81|288:123,1,85.0000016212464,0|0,0:1|0:0,2:0:0:0:
297,302,141529,6,0,L|213:311,1,85.0000016212464,0|0,0:1|0:0,2:0:0:0:
68,189,141862,6,0,L|152:198,1,85.0000016212464,0|0,0:1|0:0,2:0:0:0:
321,106,142196,6,0,P|299:69|267:41,1,85.0000016212464,0|0,0:1|0:0,2:0:0:0:
297,302,142529,1,0,0:0:0:0:
221,135,142696,1,0,0:0:0:0:
386,355,142862,6,0,P|396:313|394:271,1,85.0000016212464,0|0,0:1|0:0,2:0:0:0:
321,106,143196,1,0,0:0:0:0:
223,270,143363,1,0,0:0:0:0:
210,31,143529,5,0,0:0:0:0:
104,161,143696,1,0,0:0:0:0:
271,187,143863,1,0,0:0:0:0:
147,89,144029,5,0,0:0:0:0:
144,245,144196,1,0,0:0:0:0:
10,163,144363,1,0,0:0:0:0:
271,187,144529,6,0,L|384:199,1,85.0000016212464,0|0,0:1|0:0,2:0:0:0:
469,318,144862,6,0,L|352:307,1,94.9999974632264,0|0,0:1|0:0,2:0:0:0:
99,161,145196,5,0,0:0:0:0:
374,309,145363,1,0,0:0:0:0:
237,25,145530,1,0,0:0:0:0:
181,337,145696,1,0,0:0:0:0:
409,118,145863,1,0,0:0:0:0:
181,337,145946,1,0,0:0:0:0:
150,354,146030,1,0,0:0:0:0:
116,365,146113,1,0,0:0:0:0:
81,368,146196,1,0,0:0:0:0:
102,265,146529,6,0,L|108:149,1,94.9999974632264,0|0,0:1|0:0,2:0:0:0:
111,0,146863,1,0,0:0:0:0:
254,226,147029,1,0,0:0:0:0:
246,0,147197,2,0,L|251:94,1,94.9999974632264,0|0,0:1|0:0,2:0:0:0:
260,352,147529,1,0,0:0:0:0:
256,192,147696,12,0,150196,0:0:0:0:
