osu file format v14

[General]
AudioFilename: audio.mp3
AudioLeadIn: 0
PreviewTime: 56466
Countdown: 0
SampleSet: Soft
StackLeniency: 0.5
Mode: 0
LetterboxInBreaks: 0
WidescreenStoryboard: 0

[Editor]
DistanceSpacing: 1
BeatDivisor: 4
GridSize: 4
TimelineZoom: 1.2

[Metadata]
Title:Hitokoto no Kyori
TitleUnicode:ヒトコトの距離
Artist:*namirin
ArtistUnicode:*なみりん
Creator:Kroytz
Version:Sotarks' Expert
Source:
Tags:M3-39 5colors utaite kalibe sharkie gaia haruto haruto_aizawa sotarks doormat
BeatmapID:1287979
BeatmapSetID:609569

[Difficulty]
HPDrainRate:6
CircleSize:3.8
OverallDifficulty:8.5
ApproachRate:9
SliderMultiplier:1.82
SliderTickRate:1

[Events]
//Background and Video events
0,0,"SotarksBG.jpg",0,0
//Break Periods
//Storyboard Layer 0 (Background)
//Storyboard Layer 1 (Fail)
//Storyboard Layer 2 (Pass)
//Storyboard Layer 3 (Foreground)
//Storyboard Sound Samples

[TimingPoints]
471,333.333333333333,4,2,22,40,1,0
805,333.333333333333,4,2,22,40,1,0
805,-133.333333333333,4,2,22,40,0,0
4388,-133.333333333333,4,2,22,5,0,0
4471,-133.333333333333,4,2,22,40,0,0
4721,-133.333333333333,4,2,22,5,0,0
4804,-133.333333333333,4,2,22,40,0,0
7054,-133.333333333333,4,2,22,5,0,0
7138,-133.333333333333,4,2,22,40,0,0
7388,-133.333333333333,4,2,22,5,0,0
7471,-133.333333333333,4,2,22,40,0,0
7971,-133.333333333333,4,2,22,50,0,0
8138,-200,4,2,22,60,0,0
8721,-200,4,2,22,5,0,0
8804,-83.3333333333333,4,2,22,80,0,0
10138,-111.111111111111,4,2,22,80,0,0
10554,-111.111111111111,4,2,22,5,0,0
10638,-111.111111111111,4,2,22,80,0,0
11054,-111.111111111111,4,2,22,5,0,0
11138,-111.111111111111,4,2,22,80,0,0
11388,-111.111111111111,4,2,22,5,0,0
11471,-111.111111111111,4,2,22,80,0,0
14138,-100,4,2,22,80,0,1
18221,-100,4,2,22,5,0,1
18304,-100,4,2,22,80,0,1
22221,-100,4,2,22,5,0,1
22304,-100,4,2,22,80,0,1
23554,-100,4,2,22,5,0,1
23638,-100,4,2,22,80,0,1
24804,-142.857142857143,4,2,23,40,0,0
34138,-142.857142857143,4,2,22,50,0,0
34471,-117.647058823529,4,2,22,50,0,0
34721,-117.647058823529,4,2,22,5,0,0
34804,-117.647058823529,4,2,22,50,0,0
35471,-111.111111111111,4,2,22,70,0,0
42054,-100,4,2,22,5,0,0
42138,-100,4,2,22,70,0,0
45804,-142.857142857143,4,2,22,70,0,0
46054,-500,4,2,22,5,0,0
46138,-125,4,2,22,70,0,0
51471,-111.111111111111,4,2,22,70,0,0
52804,-105.263157894737,4,2,22,70,0,0
54138,-100,4,2,22,70,0,0
56471,-200,4,2,22,30,0,0
56804,-90.9090909090909,4,2,22,80,0,1
57054,-90.9090909090909,4,2,22,5,0,1
57138,-90.9090909090909,4,2,22,80,0,1
58388,-90.9090909090909,4,2,22,5,0,1
58471,-90.9090909090909,4,2,22,80,0,1
59721,-90.9090909090909,4,2,22,5,0,1
59804,-90.9090909090909,4,2,22,80,0,1
61054,-90.9090909090909,4,2,22,5,0,1
61138,-90.9090909090909,4,2,22,80,0,1
62388,-90.9090909090909,4,2,22,5,0,1
62471,-90.9090909090909,4,2,22,80,0,1
63721,-90.9090909090909,4,2,22,5,0,1
63804,-90.9090909090909,4,2,22,80,0,1
66388,-90.9090909090909,4,2,22,5,0,1
66471,-90.9090909090909,4,2,22,80,0,1
66888,-90.9090909090909,4,2,22,5,0,1
66971,-90.9090909090909,4,2,22,80,0,1
67388,-90.9090909090909,4,2,22,80,0,0
67471,-90.9090909090909,4,2,22,80,0,1
67721,-90.9090909090909,4,2,22,5,0,1
67804,-90.9090909090909,4,2,22,80,0,1
69054,-90.9090909090909,4,2,22,5,0,1
69138,-90.9090909090909,4,2,22,80,0,1
70388,-90.9090909090909,4,2,22,5,0,1
70471,-90.9090909090909,4,2,22,80,0,1
71721,-90.9090909090909,4,2,22,5,0,1
71804,-90.9090909090909,4,2,22,80,0,1
72221,-90.9090909090909,4,2,22,5,0,1
72304,-90.9090909090909,4,2,22,80,0,1
72804,-125,4,2,22,80,0,0
74138,-111.111111111111,4,2,22,80,0,0
75471,-100,4,2,22,80,0,0
77804,-166.666666666667,4,2,22,80,0,0
78054,-125,4,2,22,5,0,0
78138,-83.3333333333333,4,2,22,80,0,0
80054,-83.3333333333333,4,2,22,5,0,0
80138,-83.3333333333333,4,2,22,80,0,0
80721,-83.3333333333333,4,2,22,80,0,0
80804,-100,4,2,22,80,0,1
84888,-100,4,2,22,5,0,1
84971,-100,4,2,22,80,0,1
88888,-100,4,2,22,5,0,1
88971,-100,4,2,22,80,0,1
90221,-100,4,2,22,5,0,1
90304,-100,4,2,22,80,0,1
91471,-200,4,2,22,80,0,0
96804,-200,4,2,22,5,0,0

[Colours]
Combo1 : 148,214,150
Combo2 : 236,173,241
Combo3 : 217,123,230
Combo4 : 251,138,132

[HitObjects]
112,128,805,6,0,P|168:120|264:116,1,136.500005207062,2|2,0:0|0:0,0:0:0:0:
307,214,1304,2,0,P|251:206|155:202,1,136.500005207062,2|2,0:0|0:0,0:0:0:0:
102,297,1804,2,0,P|162:285|200:284,1,68.250002603531,2|2,0:0|0:0,0:0:0:0:
70,147,2138,6,0,P|86:187|92:219,2,68.250002603531,2|0|2,0:0|3:0|0:0,0:0:0:0:
185,66,2638,2,0,P|175:124|171:213,1,136.500005207062,2|2,0:0|0:0,0:0:0:0:
245,319,3138,2,0,P|252:268|251:233,1,68.250002603531,2|2,0:0|0:0,0:0:0:0:
317,115,3471,6,0,P|318:149|324:182,2,68.250002603531,2|0|0,0:0|3:0|0:0,0:0:0:0:
371,42,3971,1,0,0:0:0:0:
411,127,4138,2,0,P|365:137|307:103,1,102.375003905296,2|0,0:0|0:0,0:0:0:0:
287,75,4471,2,0,P|241:52|192:62,1,102.375003905296,2|0,0:0|0:0,0:0:0:0:
168,104,4804,6,0,L|172:179,2,68.250002603531,2|0|2,0:0|3:0|0:0,0:0:0:0:
83,47,5304,2,0,L|92:200,1,136.500005207062,2|2,0:0|0:0,0:0:0:0:
96,284,5804,1,2,0:0:0:0:
96,284,6138,6,0,B|162:260|164:313|237:279,1,136.500005207062,2|0,0:0|0:0,0:0:0:0:
193,203,6638,1,0,3:0:0:0:
230,122,6804,2,0,L|344:116,1,102.375003905296,2|0,0:0|0:0,0:0:0:0:
369,154,7138,2,0,L|255:148,1,102.375003905296,2|0,0:0|0:0,0:0:0:0:
230,122,7471,6,0,B|183:117|183:117|142:130|142:130|89:124,1,136.500005207062,2|2,0:0|0:0,0:0:0:0:
288,48,7971,1,0,1:0:0:0:
279,239,8138,2,0,B|271:271|271:271|246:227|294:207|265:145,1,159.25,10|0,0:0|0:0,0:0:0:0:
194,184,8804,5,6,1:2:0:0:
194,184,9138,1,8,0:0:0:0:
386,91,9304,1,10,0:0:0:0:
301,336,9471,1,10,0:0:0:0:
189,74,9638,1,8,0:0:0:0:
476,211,9804,1,8,0:0:0:0:
165,332,9971,1,8,0:0:0:0:
265,21,10138,6,0,B|316:131|212:107|270:248,1,204.749993751526,4|0,1:0|0:0,0:0:0:0:
334,276,10638,2,0,P|292:227|185:317,1,204.749993751526,4|0,1:0|0:0,0:0:0:0:
120,345,11138,2,0,P|99:305|123:217,1,122.849996250916,6|0,1:2|0:0,0:0:0:0:
184,280,11471,5,6,1:2:0:0:
184,280,11804,1,8,0:0:0:0:
263,25,11971,1,10,0:0:0:0:
430,247,12138,1,10,0:0:0:0:
120,178,12304,1,8,0:0:0:0:
361,20,12471,1,8,0:0:0:0:
280,343,12638,2,0,L|234:335,1,40.9499987503052,8|8,0:0|0:0,0:0:0:0:
176,48,12804,5,4,1:0:0:0:
155,72,13971,2,0,L|213:65,1,40.9499987503052,8|8,0:0|0:0,0:0:0:0:
296,141,14138,6,0,B|206:114|209:201|86:136,1,182,6|8,1:0|0:0,0:0:0:0:
261,217,14638,1,0,0:0:0:0:
327,60,14804,2,0,L|419:50,1,91,2|0,1:0|0:0,0:0:0:0:
155,72,15138,2,0,L|63:62,1,91,10|0,0:0|0:0,0:0:0:0:
296,141,15471,2,0,P|340:183|272:296,1,182,4|8,1:0|0:0,0:0:0:0:
407,139,15971,1,0,0:0:0:0:
261,217,16138,2,0,L|170:205,1,91,2|0,1:0|0:0,0:0:0:0:
354,65,16471,2,0,L|445:53,1,91,10|0,0:0|0:0,0:0:0:0:
424,215,16804,5,6,1:0:0:0:
274,133,16971,1,0,0:0:0:0:
444,53,17138,1,10,0:0:0:0:
259,138,17304,1,2,1:0:0:0:
438,225,17471,1,2,0:0:0:0:
333,40,17638,1,2,1:0:0:0:
306,268,17804,1,10,0:0:0:0:
335,24,17971,6,0,B|289:24|289:24|256:43|256:43|199:41,1,136.5,6|0,1:0|0:0,0:0:0:0:
171,39,18304,1,2,1:0:0:0:
346,110,18471,2,0,P|358:163|361:203,1,91,10|0,0:0|0:0,0:0:0:0:
307,285,18804,1,2,1:0:0:0:
254,101,18971,1,2,0:0:0:0:
449,173,19138,1,10,0:0:0:0:
320,197,19304,1,2,0:0:0:0:
411,49,19471,5,6,1:0:0:0:
397,252,19638,1,0,0:0:0:0:
311,37,19804,1,10,0:0:0:0:
234,229,19971,1,0,0:0:0:0:
370,122,20138,1,2,1:0:0:0:
172,66,20304,1,0,0:0:0:0:
266,305,20471,1,10,0:0:0:0:
287,152,20638,1,2,0:0:0:0:
173,350,20804,6,0,L|357:321,1,182,4|10,1:0|0:0,0:0:0:0:
121,216,21304,2,0,P|94:273|81:316,1,91,2|0,1:0|0:0,0:0:0:0:
86,128,21638,1,2,1:0:0:0:
169,331,21804,1,8,0:0:0:0:
166,92,21971,6,0,B|197:164|137:155|179:260,1,136.5,6|0,1:0|0:0,0:0:0:0:
171,273,22304,1,0,1:0:0:0:
86,128,22471,1,10,0:0:0:0:
247,195,22638,1,2,0:0:0:0:
60,312,22804,1,2,1:0:0:0:
157,68,22971,1,2,0:0:0:0:
310,279,23138,1,10,0:0:0:0:
86,128,23304,6,0,P|170:114|258:109,1,136.5,6|0,1:0|0:0,0:0:0:0:
270,117,23638,1,8,0:0:0:0:
144,208,23804,1,8,0:0:0:0:
337,196,23971,2,0,L|344:244,2,45.5,4|4|8,3:0|3:0|3:0,0:0:0:0:
191,281,24304,1,4,3:0:0:0:
324,318,24471,1,4,3:0:0:0:
241,350,24638,1,2,0:0:0:0:
343,241,24804,6,0,P|388:265|405:314,1,95.5499970840455,14|0,0:0|0:0,0:0:0:0:
407,331,25138,1,10,0:0:0:0:
457,211,25304,2,0,L|444:142,1,63.6999980560303,2|8,0:0|0:0,0:0:0:0:
379,88,25638,1,2,0:0:0:0:
379,88,25804,1,10,0:0:0:0:
287,217,25971,1,2,1:2:0:0:
242,130,26138,2,0,L|140:124,1,95.5499970840455,8|0,0:0|0:0,0:0:0:0:
110,122,26471,1,10,0:0:0:0:
23,222,26638,2,0,L|104:211,1,63.6999980560303,2|8,0:0|0:0,0:0:0:0:
133,301,26971,2,0,L|52:290,1,63.6999980560303,2|8,0:0|0:0,0:0:0:0:
122,209,27304,1,0,0:0:0:0:
216,321,27471,6,0,B|293:344|271:290|360:319,2,127.399996112061,10|8|8,1:2|0:0|0:0,0:0:0:0:
246,239,28304,1,2,0:0:0:0:
246,239,28471,1,10,0:0:0:0:
174,89,28638,1,0,1:0:0:0:
128,165,28804,2,0,P|179:173|249:140,1,127.399996112061,8|8,1:2|0:0,0:0:0:0:
85,87,29304,2,0,P|58:113|46:140,1,63.6999980560303,0|8,0:0|0:0,0:0:0:0:
137,227,29638,2,0,P|133:181|123:155,1,63.6999980560303,0|8,0:0|0:0,0:0:0:0:
50,214,29971,1,2,0:0:0:0:
95,315,30138,6,0,L|224:301,1,127.399996112061,10|10,1:2|0:0,0:0:0:0:
292,253,30638,1,2,0:0:0:0:
330,329,30804,2,0,P|273:341|218:292,1,127.399996112061,8|8,0:0|0:0,0:0:0:0:
225,136,31304,1,2,1:2:0:0:
174,214,31471,2,0,B|72:221|72:221|83:190,1,127.399996112061,10|10,0:0|0:0,0:0:0:0:
165,75,31971,2,0,P|202:55|243:54,1,63.6999980560303,2|8,0:0|0:0,0:0:0:0:
283,158,32304,2,0,P|246:138|205:137,1,63.6999980560303,2|8,0:0|0:0,0:0:0:0:
174,214,32638,1,0,0:0:0:0:
325,237,32804,6,0,P|358:208|358:118,1,127.399996112061,10|10,1:2|0:0,0:0:0:0:
443,210,33304,2,0,L|453:288,1,63.6999980560303,2|8,0:0|0:0,0:0:0:0:
316,300,33638,2,0,L|325:237,1,63.6999980560303,2|8,0:0|0:0,0:0:0:0:
283,158,33971,1,0,3:0:0:0:
224,329,34138,5,2,1:2:0:0:
242,74,34471,2,0,P|288:64|349:92,1,116.025002213001,8|0,0:0|0:0,0:0:0:0:
367,123,34804,1,0,1:0:0:0:
212,256,34971,1,8,0:0:0:0:
175,266,35054,1,8,0:0:0:0:
137,261,35137,1,8,0:0:0:0:
103,242,35221,1,8,0:0:0:0:
81,211,35304,1,10,0:0:0:0:
73,173,35387,1,8,0:0:0:0:
78,139,35471,6,0,B|156:98|157:176|260:128,1,163.799995001221,6|10,1:2|0:2,0:0:0:0:
364,50,35971,2,0,P|312:41|273:47,1,81.8999975006104,2|0,0:2|1:0,0:0:0:0:
200,67,36304,1,0,1:0:0:0:
317,126,36471,1,10,0:2:0:0:
317,126,36638,1,2,0:2:0:0:
112,23,36804,2,0,L|126:193,1,163.799995001221,2|10,1:2|0:2,0:0:0:0:
216,321,37304,2,0,L|296:298,1,81.8999975006104,2|0,0:2|1:0,0:0:0:0:
237,129,37638,2,0,L|231:239,1,81.8999975006104,2|8,1:2|0:0,0:0:0:0:
294,298,37971,1,2,0:2:0:0:
282,53,38138,6,0,B|203:17|190:94|101:43,2,163.799995001221,2|8|0,1:2|0:0|1:0,0:0:0:0:
340,123,38971,1,2,1:2:0:0:
237,128,39138,1,10,0:2:0:0:
282,53,39304,1,2,0:2:0:0:
340,123,39471,2,0,L|350:297,2,163.799995001221,0|8|2,1:0|0:0|1:2,0:0:0:0:
259,227,40304,1,0,1:0:0:0:
160,153,40471,2,0,P|222:128|250:128,1,81.8999975006104,10|0,0:2|0:0,0:0:0:0:
166,237,40804,6,0,P|110:223|87:191,1,81.8999975006104,2|0,1:2|0:0,0:0:0:0:
160,153,41138,1,10,0:2:0:0:
266,312,41304,2,0,P|314:294|337:259,1,81.8999975006104,2|0,0:2|1:0,0:0:0:0:
259,227,41638,1,2,1:2:0:0:
34,307,41804,2,0,B|3:221|3:221|15:164,1,122.849996250916,10|0,0:2|0:0,0:0:0:0:
24,156,42138,2,0,L|117:145,1,91,2|0,1:2|0:0,0:0:0:0:
186,186,42471,1,10,0:2:0:0:
315,76,42638,2,0,L|222:65,1,91,2|0,0:2|1:0,0:0:0:0:
114,145,42971,1,2,1:2:0:0:
257,231,43138,1,10,0:2:0:0:
224,65,43304,1,2,0:2:0:0:
194,296,43471,6,0,P|266:320|341:256,2,182,0|8|0,1:0|0:0|1:0,0:0:0:0:
257,231,44304,1,0,1:0:0:0:
163,38,44471,2,0,P|157:84|159:144,1,91,8|0,0:0|0:0,0:0:0:0:
174,214,44804,1,0,1:0:0:0:
349,38,44971,2,0,P|355:84|353:144,1,91,8|2,0:0|0:2,0:0:0:0:
270,270,45304,1,0,1:0:0:0:
257,231,45387,1,0,1:0:0:0:
257,190,45470,1,10,0:2:0:0:
333,324,45638,1,8,3:0:0:0:
301,108,45804,2,0,P|339:158|340:208,1,95.5499970840455,2|0,1:2|0:0,0:0:0:0:
257,190,46138,6,0,B|175:175|200:250|101:213,1,145.6,6|2,1:0|0:0,0:0:0:0:
136,134,46638,1,2,1:0:0:0:
237,271,46804,2,0,P|284:273|311:257,2,72.8,8|0|0,0:0|0:0|0:0,0:0:0:0:
241,88,47304,1,8,0:0:0:0:
257,190,47471,1,2,1:0:0:0:
311,43,47638,2,0,P|325:85|321:115,1,72.8,8|2,0:0|0:0,0:0:0:0:
241,88,47971,1,2,1:0:0:0:
211,262,48138,2,0,P|266:275|339:224,1,145.6,8|0,0:0|0:0,0:0:0:0:
142,188,48638,5,8,0:0:0:0:
136,228,48721,1,8,0:0:0:0:
130,269,48804,2,0,L|112:106,1,145.6,2|2,1:0|0:0,0:0:0:0:
167,44,49304,1,2,1:0:0:0:
230,188,49471,2,0,L|336:176,1,72.8,8|2,0:0|0:0,0:0:0:0:
352,107,49804,1,2,0:0:0:0:
384,268,49971,2,0,L|278:256,1,72.8,10|0,0:0|1:0,0:0:0:0:
182,108,50304,2,0,L|288:96,1,72.8,8|0,0:0|1:0,0:0:0:0:
302,179,50638,1,0,0:0:0:0:
98,119,50804,5,10,0:0:0:0:
336,90,50971,1,0,1:0:0:0:
178,231,51138,5,10,0:0:0:0:
234,26,51304,2,0,L|247:83,1,36.4,0|0,1:0|1:0,0:0:0:0:
266,251,51471,6,0,P|243:295|117:294,1,163.799995001221,6|10,1:0|0:0,0:0:0:0:
162,150,51971,2,0,P|176:214|179:255,1,81.8999975006104,0|2,1:0|0:0,0:0:0:0:
93,85,52304,1,2,0:0:0:0:
93,85,52388,1,2,0:0:0:0:
93,85,52471,2,0,P|148:63|176:62,1,81.8999975006104,10|0,0:0|0:0,0:0:0:0:
321,194,52804,2,0,P|236:192|154:142,1,172.899995383072,6|8,1:0|0:0,0:0:0:0:
367,114,53304,2,0,P|398:159|412:200,1,86.449997691536,0|2,1:0|0:0,0:0:0:0:
274,117,53638,1,2,0:0:0:0:
274,117,53721,1,2,0:0:0:0:
274,117,53804,2,0,P|290:77|316:42,1,86.449997691536,10|0,0:0|0:0,0:0:0:0:
499,143,54138,6,0,P|451:178|369:87,1,182,6|10,1:0|0:0,0:0:0:0:
168,258,54638,2,0,P|216:293|298:202,1,182,6|2,1:0|1:0,0:0:0:0:
111,87,55138,1,10,0:0:0:0:
76,280,55304,1,2,0:0:0:0:
195,41,55471,2,0,P|202:101|206:156,1,91,10|8,0:0|3:0,0:0:0:0:
139,325,55804,1,8,0:0:0:0:
107,293,55887,1,4,3:0:0:0:
109,249,55970,1,4,3:0:0:0:
144,221,56054,1,4,3:0:0:0:
187,228,56137,1,8,3:0:0:0:
187,228,56471,6,0,L|246:222,1,45.5,0|0,3:0|3:0,3:0:0:0:
445,282,56804,6,0,P|356:286|314:228,1,150.150004582214,6|0,1:0|0:0,0:0:0:0:
312,204,57138,1,10,0:0:0:0:
402,22,57304,2,0,P|420:81|424:133,1,100.10000305481,2|0,0:0|1:0,0:0:0:0:
397,211,57638,1,2,0:0:0:0:
331,87,57804,1,10,0:0:0:0:
481,217,57971,1,2,0:0:0:0:
285,317,58138,2,0,B|217:350|215:283|118:330,1,150.150004582214,6|0,1:0|0:0,0:0:0:0:
105,344,58471,1,10,0:0:0:0:
229,141,58638,2,0,P|254:214|238:256,1,100.10000305481,2|0,0:0|1:0,0:0:0:0:
167,205,58971,1,2,0:0:0:0:
289,73,59138,1,10,0:0:0:0:
327,272,59304,1,2,0:0:0:0:
229,141,59471,6,0,P|153:119|92:158,1,150.150004582214,6|0,1:0|0:0,0:0:0:0:
81,189,59804,1,10,0:0:0:0:
179,303,59971,2,0,P|174:232|161:187,1,100.10000305481,2|0,0:0|1:0,0:0:0:0:
91,272,60304,1,2,0:0:0:0:
266,327,60471,1,10,0:0:0:0:
229,141,60638,1,2,0:0:0:0:
179,303,60804,2,0,L|359:286,1,150.150004582214,6|0,1:0|0:0,0:0:0:0:
367,285,61138,1,10,0:0:0:0:
289,64,61304,2,0,P|238:116|226:148,1,100.10000305481,2|0,0:0|1:0,0:0:0:0:
280,211,61638,1,0,0:0:0:0:
463,81,61804,2,0,P|410:53|365:50,1,100.10000305481,10|0,0:0|0:0,0:0:0:0:
228,140,62138,6,0,P|277:124|362:174,1,150.150004582214,6|0,1:0|0:0,0:0:0:0:
368,216,62471,2,0,L|356:317,1,100.10000305481,8|0,0:0|0:0,0:0:0:0:
151,208,62804,2,0,L|139:108,1,100.10000305481,2|0,1:0|0:0,0:0:0:0:
283,49,63138,2,0,P|280:109|266:162,1,100.10000305481,10|0,0:0|0:0,0:0:0:0:
160,324,63471,2,0,P|149:275|215:178,1,150.150004582214,6|0,1:0|0:0,0:0:0:0:
224,217,63804,2,0,P|288:229|331:202,1,100.10000305481,10|0,0:0|0:0,0:0:0:0:
376,46,64138,2,0,P|312:34|269:61,1,100.10000305481,2|0,1:0|1:0,0:0:0:0:
390,264,64471,2,0,P|403:207|379:153,1,100.10000305481,10|0,0:0|0:0,0:0:0:0:
209,8,64804,6,0,B|162:94|258:105|199:206,1,200.200006109619,6|8,1:0|0:0,0:0:0:0:
93,342,65304,1,6,1:0:0:0:
37,152,65471,2,0,L|149:141,1,100.10000305481,2|0,0:0|1:0,0:0:0:0:
264,260,65804,1,8,0:0:0:0:
264,260,65971,1,10,3:0:0:0:
409,80,66138,6,0,P|346:61|278:127,1,150.150004582214,6|0,1:0|0:0,0:0:0:0:
279,146,66471,1,10,0:0:0:0:
300,348,66638,2,0,P|352:285|334:208,1,150.150004582214,6|0,1:0|0:0,0:0:0:0:
312,184,66971,1,4,3:0:0:0:
183,296,67138,1,8,0:0:0:0:
235,67,67304,2,0,P|253:118|255:127,1,50.0500015274048,0|0,1:0|1:0,1:0:0:0:
275,296,67471,6,0,B|263:324|263:324|278:263|232:262|270:191,1,150.150004582214,6|0,1:0|0:0,0:0:0:0:
280,159,67804,1,10,0:0:0:0:
439,250,67971,2,0,P|378:252|335:233,1,100.10000305481,2|0,0:0|1:0,0:0:0:0:
395,164,68304,1,2,0:0:0:0:
468,328,68471,1,10,0:0:0:0:
453,92,68638,1,2,0:0:0:0:
342,237,68804,2,0,L|166:216,1,150.150004582214,6|0,1:0|0:0,0:0:0:0:
155,212,69138,1,10,0:0:0:0:
280,37,69304,2,0,B|295:102|295:102|283:140,1,100.10000305481,2|0,0:0|1:0,0:0:0:0:
207,99,69638,1,2,0:0:0:0:
362,170,69804,1,10,0:0:0:0:
155,212,69971,1,2,0:0:0:0:
402,87,70138,6,0,P|444:133|434:220,1,150.150004582214,6|0,1:0|0:0,0:0:0:0:
408,253,70471,2,8,P|341:263|305:239,1,100.10000305481,8|0,0:0|0:0,0:0:0:0:
308,91,70804,2,0,P|354:73|402:87,1,100.10000305481,2|0,1:0|0:0,0:0:0:0:
277,218,71138,2,0,P|264:170|278:121,1,100.10000305481,10|0,0:0|0:0,0:0:0:0:
402,87,71471,6,0,P|444:133|434:220,1,150.150004582214,6|0,1:0|0:0,0:0:0:0:
408,253,71804,1,10,0:0:0:0:
277,122,71971,2,0,B|168:114|168:114|130:149,1,150.150004582214,6|0,1:0|0:0,0:0:0:0:
117,172,72304,1,10,0:0:0:0:
342,57,72471,2,0,B|367:118|367:118|352:163,1,100.10000305481,10|4,0:0|3:0,0:0:0:0:
280,345,72804,6,0,B|247:269|314:283|278:190,1,145.6,6|0,1:0|0:0,0:0:0:0:
203,241,73304,1,0,1:0:0:0:
356,307,73471,2,0,P|407:301|456:211,1,145.6,10|2,0:0|0:0,0:0:0:0:
412,136,73971,1,0,0:0:0:0:
283,204,74138,1,2,1:0:0:0:
296,37,74304,1,8,0:0:0:0:
328,123,74471,1,2,0:0:0:0:
328,123,74638,1,0,1:0:0:0:
185,52,74804,2,0,P|123:46|80:43,1,81.8999975006104,10|0,0:0|0:0,0:0:0:0:
9,188,75138,2,0,P|71:182|114:179,1,81.8999975006104,2|0,1:0|0:0,0:0:0:0:
174,307,75471,6,0,B|136:217|215:216|164:120,1,182,6|0,1:0|0:0,0:0:0:0:
90,180,75971,1,2,1:0:0:0:
250,258,76138,2,0,L|358:233,1,91,10|0,0:0|0:0,0:0:0:0:
267,4,76471,2,0,B|242:54|242:54|251:109,1,91,12|0,0:0|0:0,0:0:0:0:
339,239,76804,5,8,0:0:0:0:
326,64,76971,1,0,1:0:0:0:
245,171,77138,1,0,1:0:0:0:
331,150,77304,1,8,3:0:0:0:
247,88,77471,1,0,1:0:0:0:
162,195,77638,1,0,1:0:0:0:
237,251,77804,2,0,P|246:177|240:152,1,81.8999975006104,10|0,0:0|0:0,0:0:0:0:
245,171,78138,5,6,1:0:0:0:
245,171,78471,1,8,0:0:0:0:
430,330,78638,1,10,0:0:0:0:
140,302,78804,1,10,0:0:0:0:
427,149,78971,1,8,0:0:0:0:
99,132,79138,2,0,P|152:107|161:106,1,54.5999983337403,8|4,0:0|3:0,0:0:0:0:
379,76,79304,2,0,P|326:51|317:50,1,54.5999983337403,4|4,3:0|3:0,0:0:0:0:
159,190,79471,1,12,0:0:0:0:
159,190,79804,6,0,B|231:158|246:223|337:183,1,163.799995001221,14|0,0:0|0:0,0:0:0:0:
349,168,80138,1,10,0:0:0:0:
194,275,80304,1,2,1:0:0:0:
277,107,80471,1,10,0:0:0:0:
267,343,80638,2,0,L|275:289,1,54.5999983337403,8|8,0:0|0:0,0:0:0:0:
167,179,80804,6,0,B|233:170|233:170|277:191|277:191|369:171,1,182,6|8,1:0|0:0,0:0:0:0:
200,260,81304,1,0,0:0:0:0:
132,107,81471,2,0,P|69:100|30:101,1,91,2|0,1:0|0:0,0:0:0:0:
293,105,81804,2,0,P|342:98|385:95,1,91,10|0,0:0|0:0,0:0:0:0:
164,184,82137,2,0,B|120:226|120:226|107:295|159:346,1,182,4|8,1:0|0:0,0:0:0:0:
48,197,82637,1,0,0:0:0:0:
200,260,82804,2,0,B|254:255|254:255|287:234,1,91,2|0,1:0|0:0,0:0:0:0:
101,123,83137,2,0,B|40:115|40:115|2:126,1,91,10|0,0:0|0:0,0:0:0:0:
31,273,83470,5,6,1:0:0:0:
181,191,83637,1,0,0:0:0:0:
11,123,83804,1,10,0:0:0:0:
196,196,83970,1,2,1:0:0:0:
17,283,84137,1,2,0:0:0:0:
122,98,84304,1,2,1:0:0:0:
149,326,84470,1,10,0:0:0:0:
120,82,84637,6,0,B|183:61|173:118|256:99,1,136.5,6|0,1:0|0:0,0:0:0:0:
284,97,84970,1,2,1:0:0:0:
134,159,85138,2,0,P|122:212|119:252,1,91,10|0,0:0|0:0,0:0:0:0:
190,302,85471,1,2,1:0:0:0:
250,100,85638,1,2,0:0:0:0:
40,206,85805,1,10,0:0:0:0:
218,201,85971,1,2,0:0:0:0:
83,83,86138,5,6,1:0:0:0:
97,286,86305,1,0,0:0:0:0:
171,66,86471,1,10,0:0:0:0:
281,263,86638,1,0,0:0:0:0:
115,161,86805,1,2,1:0:0:0:
322,100,86971,1,0,0:0:0:0:
225,334,87138,1,10,0:0:0:0:
207,186,87305,1,2,0:0:0:0:
316,359,87471,6,0,B|160:352|160:352|199:315,1,182,4|10,1:0|0:0,0:0:0:0:
373,250,87971,2,0,B|404:299|404:299|413:350,1,91,2|0,1:0|0:0,0:0:0:0:
408,162,88305,1,2,1:0:0:0:
316,335,88471,1,8,0:0:0:0:
328,126,88638,6,0,B|297:198|357:189|315:294,1,136.5,6|0,1:0|0:0,0:0:0:0:
321,298,88971,1,0,1:0:0:0:
408,162,89138,1,10,0:0:0:0:
247,229,89305,1,2,0:0:0:0:
434,346,89471,1,2,1:0:0:0:
335,92,89638,1,2,0:0:0:0:
184,313,89805,1,10,0:0:0:0:
408,162,89971,6,0,B|320:134|320:134|236:143,1,136.5,6|0,1:0|0:0,0:0:0:0:
228,150,90305,1,8,0:0:0:0:
342,56,90471,1,8,0:0:0:0:
314,217,90638,2,0,L|307:265,2,45.5,4|4|8,3:0|3:0|3:0,0:0:0:0:
249,60,90971,1,4,3:0:0:0:
228,150,91138,1,4,3:0:0:0:
249,60,91305,1,0,0:0:0:0:
203,234,91471,5,4,0:0:0:0:
256,192,91554,12,0,96804,0:0:0:0:
