osu file format v14

[General]
AudioFilename: audio.mp3
AudioLeadIn: 0
PreviewTime: 56466
Countdown: 0
SampleSet: Soft
StackLeniency: 0.5
Mode: 0
LetterboxInBreaks: 0
WidescreenStoryboard: 0

[Editor]
Bookmarks: 800,8799,14133,19466,24799,35466,46133,51466,56799,62133,67466,72799,78133,80799,86133,91466,96799
DistanceSpacing: 1.3
BeatDivisor: 4
GridSize: 4
TimelineZoom: 1.2

[Metadata]
Title:Hitokoto no Kyori
TitleUnicode:ヒトコトの距離
Artist:*namirin
ArtistUnicode:*なみりん
Creator:Kroytz
Version:Sharkie's Hard
Source:
Tags:M3-39 5colors utaite kalibe sharkie gaia haruto haruto_aizawa sotarks doormat
BeatmapID:1415008
BeatmapSetID:609569

[Difficulty]
HPDrainRate:4.5
CircleSize:3.8
OverallDifficulty:6
ApproachRate:8
SliderMultiplier:1.4
SliderTickRate:1

[Events]
//Background and Video events
0,0,"BG.jpg",0,0
//Break Periods
//Storyboard Layer 0 (Background)
//Storyboard Layer 1 (Fail)
//Storyboard Layer 2 (Pass)
//Storyboard Layer 3 (Foreground)
//Storyboard Sound Samples

[TimingPoints]
471,333.333333333333,4,2,1,60,1,0
805,333.333333333333,4,2,1,60,1,0
805,-142.857142857143,4,2,1,60,0,0
8138,-200,4,2,1,60,0,0
8471,-200,4,2,1,5,0,0
8804,-100,4,2,1,70,0,0
14138,-100,4,2,1,80,0,1
24804,-125,4,2,1,40,0,0
34138,-111.111111111111,4,2,1,50,0,0
34804,-111.111111111111,4,2,1,50,0,0
35471,-111.111111111111,4,2,1,70,0,0
46138,-125,4,2,1,70,0,0
51471,-111.111111111111,4,2,1,70,0,0
54138,-100,4,2,1,70,0,0
56471,-142.857142857143,4,2,1,40,0,0
56804,-100,4,2,1,80,0,1
57054,-100,4,2,1,5,0,1
57138,-100,4,2,1,80,0,1
58388,-100,4,2,1,5,0,1
58471,-100,4,2,1,80,0,1
62388,-100,4,2,1,5,0,1
62471,-100,4,2,1,80,0,1
63721,-100,4,2,1,5,0,1
63804,-100,4,2,1,80,0,1
67388,-100,4,2,1,80,0,0
67471,-100,4,2,1,80,0,1
67721,-100,4,2,1,5,0,1
67804,-100,4,2,1,80,0,1
69054,-100,4,2,1,5,0,1
69138,-100,4,2,1,80,0,1
72804,-125,4,2,1,80,0,0
73138,-125,4,2,1,5,0,0
73304,-125,4,2,1,80,0,0
75804,-125,4,2,1,5,0,0
75971,-125,4,2,1,80,0,0
76471,-100,4,2,1,80,0,0
78054,-100,4,2,1,5,0,0
78138,-100,4,2,1,80,0,0
80804,-100,4,2,1,80,0,1
91471,-100,4,2,1,80,0,0
96804,-100,4,2,1,5,0,0

[Colours]
Combo1 : 148,214,150
Combo2 : 236,173,241
Combo3 : 217,123,230
Combo4 : 251,138,132

[HitObjects]
255,107,805,6,0,L|253:58,2,48.9999985046387,2|0|0,0:0|0:0|0:0,0:0:0:0:
260,199,1304,1,2,0:0:0:0:
275,99,2138,6,0,L|273:50,2,48.9999985046387,2|2|2,0:0|0:0|0:0,0:0:0:0:
280,191,2637,1,2,0:0:0:0:
295,91,3471,6,0,L|293:42,2,48.9999985046387,2|2|2,0:0|0:0|0:0,0:0:0:0:
300,183,3971,2,0,L|303:280,1,97.9999970092774,2|0,0:0|0:0,0:0:0:0:
315,83,4804,6,0,L|313:34,2,48.9999985046387,2|2|2,0:0|0:0|0:0,0:0:0:0:
320,175,5304,2,0,L|323:272,1,97.9999970092774,2|0,0:0|0:0,0:0:0:0:
329,366,5804,1,0,0:0:0:0:
348,355,6138,6,0,L|397:353,2,48.9999985046387,2|0|2,0:0|0:0|0:0,0:0:0:0:
258,323,6638,2,0,P|210:314|162:311,1,97.9999970092774,0|0,0:0|0:0,0:0:0:0:
73,283,7138,2,0,L|24:285,1,48.9999985046387,2|0,0:0|0:0,0:0:0:0:
20,191,7471,2,0,P|68:181|116:178,1,97.9999970092774,2|0,0:0|0:0,0:0:0:0:
204,211,7971,1,0,1:2:0:0:
204,211,8138,6,0,B|255:215|255:215|267:220|267:220|327:225,1,122.5,8|0,0:0|0:0,0:0:0:0:
336,233,8804,6,0,L|405:239,1,70,4|0,1:2|0:0,0:0:0:0:
487,197,9138,1,8,0:0:0:0:
487,197,9304,1,8,0:0:0:0:
463,109,9471,2,0,P|464:74|473:40,1,70,8|8,0:0|0:0,0:0:0:0:
388,5,9804,2,0,P|368:34|343:60,1,70,8|8,0:0|0:0,0:0:0:0:
260,96,10138,6,0,L|120:83,1,140,4|0,1:2|0:0,0:0:0:0:
55,147,10638,2,0,P|122:134|181:173,1,140,4|0,1:2|0:0,0:0:0:0:
240,239,11138,2,0,L|234:308,1,70,4|0,0:0|0:0,0:0:0:0:
110,294,11471,6,0,L|104:224,1,70,6|0,0:0|0:0,0:0:0:0:
55,147,11804,1,10,0:0:0:0:
55,147,11971,1,10,0:0:0:0:
96,67,12138,2,0,P|129:53|163:48,1,70,10|10,0:0|0:0,0:0:0:0:
249,78,12471,2,0,P|270:105|284:137,1,70,10|10,0:0|3:2,0:0:0:0:
283,151,12721,1,2,3:2:0:0:
282,164,12804,1,4,1:2:0:0:
273,251,13971,5,0,0:0:0:0:
273,251,14054,1,0,0:0:0:0:
273,251,14138,2,0,P|239:260|201:262,1,70,6|0,1:2|0:0,0:0:0:0:
130,208,14471,2,0,P|96:199|61:196,1,70,8|0,0:2|0:0,0:0:0:0:
12,273,14804,2,0,L|9:346,1,70,2|2,0:0|0:0,0:0:0:0:
95,310,15138,2,0,L|92:379,1,70,8|2,0:0|0:0,0:0:0:0:
178,347,15471,6,0,L|182:207,1,140,2|8,1:2|0:0,0:0:0:0:
186,115,15971,1,0,0:0:0:0:
186,115,16138,2,0,P|219:106|254:103,1,70,2|2,0:0|0:0,0:0:0:0:
345,110,16471,2,0,P|378:100|410:85,1,70,8|2,0:0|0:0,0:0:0:0:
480,27,16804,6,0,P|449:81|467:159,1,140,2|8,1:2|0:0,0:0:0:0:
494,240,17304,2,0,P|474:306|413:337,1,140,0|2,0:0|0:0,0:0:0:0:
331,302,17804,1,8,0:0:0:0:
321,211,17971,6,0,L|316:71,1,140,2|2,0:0|0:0,0:0:0:0:
248,9,18471,1,8,0:0:0:0:
248,9,18638,1,0,0:0:0:0:
160,36,18804,2,0,L|90:38,1,70,2|0,0:0|0:0,0:0:0:0:
40,124,19138,2,0,L|110:127,1,70,8|0,0:0|3:0,0:0:0:0:
227,98,19471,6,0,P|281:134|295:203,1,140,6|8,1:2|0:0,0:0:0:0:
235,272,19971,1,0,0:0:0:0:
147,254,20138,2,0,P|112:264|83:282,1,70,2|2,0:0|0:0,0:0:0:0:
14,222,20471,1,8,0:0:0:0:
14,222,20638,6,0,P|23:188|21:154,1,70,2|2,3:2|1:2,0:0:0:0:
7,63,20971,1,0,0:0:0:0:
92,28,21138,1,8,0:0:0:0:
92,28,21304,2,0,P|159:31|233:43,1,140,2|2,3:2|0:0,0:0:0:0:
319,22,21804,1,8,0:0:0:0:
340,110,21971,6,0,L|335:249,1,140,6|2,1:2|0:0,0:0:0:0:
358,338,22471,2,0,P|389:353|425:360,1,70,8|0,0:0|0:0,0:0:0:0:
497,306,22804,2,0,P|494:271|482:236,1,70,2|2,1:2|0:0,0:0:0:0:
427,136,23138,1,8,0:0:0:0:
427,136,23304,6,0,B|395:126|395:126|371:134|371:134|283:130,1,140,6|8,1:2|3:2,0:0:0:0:
222,191,23804,2,0,L|152:188,1,70,4|8,3:0|3:2,0:0:0:0:
64,214,24138,2,0,P|35:239|19:268,1,70,8|8,3:0|3:0,0:0:0:0:
106,297,24471,2,0,P|94:333|94:366,1,70,4|4,3:0|3:0,0:0:0:0:
183,347,24804,6,0,L|294:342,1,112,4|2,0:0|0:3,0:0:0:0:
430,224,25471,2,0,L|318:219,1,112,2|2,0:3|0:3,0:0:0:0:
229,232,25971,1,0,1:0:0:0:
229,232,26138,2,0,P|174:235|126:209,1,112,2|2,0:3|0:3,0:0:0:0:
186,43,26804,2,0,P|204:94|192:148,1,112,2|2,0:3|0:3,0:0:0:0:
181,326,27471,6,0,P|229:300|285:304,1,112,2|2,0:3|0:3,0:0:0:0:
463,324,28138,2,0,P|487:274|491:218,1,112,2|2,0:3|0:3,0:0:0:0:
458,135,28638,1,0,1:0:0:0:
458,135,28804,2,0,P|447:80|457:25,1,112,2|2,0:3|0:3,0:0:0:0:
286,81,29471,2,0,P|322:122|341:175,1,112,2|2,0:3|0:3,0:0:0:0:
279,343,30138,6,0,L|167:339,1,112,2|2,0:3|0:3,0:0:0:0:
19,237,30804,2,0,P|69:212|125:208,1,112,2|2,0:3|0:3,0:0:0:0:
214,219,31304,1,0,1:0:0:0:
214,219,31471,2,0,P|268:210|309:173,1,112,2|2,0:3|0:3,0:0:0:0:
225,16,32138,2,0,L|229:128,1,112,2|2,0:3|0:3,0:0:0:0:
400,171,32804,6,0,L|403:59,1,112,2|2,0:3|0:3,0:0:0:0:
224,16,33471,2,0,P|171:31|134:72,1,112,2|2,0:3|1:3,0:0:0:0:
84,147,33971,1,0,1:0:0:0:
84,147,34138,6,0,P|54:158|23:163,1,62.9999980773926,2|0,3:2|3:0,0:0:0:0:
5,250,34471,2,0,P|36:254|65:265,1,62.9999980773926,8|0,3:2|0:0,0:0:0:0:
149,293,34804,2,0,P|180:288|209:277,1,62.9999980773926,2|8,0:0|0:0,0:0:0:0:
292,246,35138,2,0,L|323:243,3,31.4999990386963,8|8|8|8,3:2|3:2|3:2|3:2,0:0:0:0:
337,235,35471,6,0,L|399:239,1,62.9999980773926,4|0,0:0|0:0,0:0:0:0:
483,275,35804,2,0,P|497:303|504:333,1,62.9999980773926,8|0,0:0|0:0,0:0:0:0:
422,370,36138,1,2,0:0:0:0:
422,370,36304,1,2,0:0:0:0:
338,339,36471,2,0,L|275:334,1,62.9999980773926,8|0,0:0|0:0,0:0:0:0:
202,283,36804,6,0,P|263:288|317:258,1,125.999996154785,2|8,0:0|0:0,0:0:0:0:
378,194,37304,1,0,0:0:0:0:
398,109,37471,2,0,L|402:46,1,62.9999980773926,2|2,0:0|0:0,0:0:0:0:
313,32,37804,2,0,P|287:50|267:74,1,62.9999980773926,8|0,0:0|0:0,0:0:0:0:
202,135,38138,6,0,P|140:140|86:110,2,125.999996154785,2|8|2,0:0|0:0|0:0,0:0:0:0:
288,161,38971,1,2,0:0:0:0:
288,161,39138,2,0,P|313:178|334:202,1,62.9999980773926,8|0,0:0|0:0,0:0:0:0:
373,282,39471,6,0,L|377:344,1,62.9999980773926,2|0,0:0|0:0,0:0:0:0:
463,359,39804,2,0,P|486:301|479:238,1,125.999996154785,8|2,0:0|0:0,0:0:0:0:
418,175,40304,1,2,0:0:0:0:
334,202,40471,2,0,L|271:206,1,62.9999980773926,8|0,0:0|0:0,0:0:0:0:
203,263,40804,6,0,P|174:275|143:280,1,62.9999980773926,2|0,0:0|0:0,0:0:0:0:
147,191,41138,2,0,P|115:187|86:176,1,62.9999980773926,8|0,0:0|0:0,0:0:0:0:
15,123,41471,1,2,0:0:0:0:
15,123,41638,1,2,0:0:0:0:
68,52,41804,2,0,L|130:47,1,62.9999980773926,8|0,0:0|0:0,0:0:0:0:
239,116,42138,6,0,P|300:122|351:87,1,125.999996154785,2|8,0:0|0:0,0:0:0:0:
384,5,42638,1,0,0:0:0:0:
438,74,42804,2,0,L|442:136,1,62.9999980773926,2|2,0:0|0:0,0:0:0:0:
490,211,43138,2,0,L|485:273,1,62.9999980773926,8|0,0:0|0:0,0:0:0:0:
376,303,43471,6,0,B|381:225|381:225|377:201|362:181,2,125.999996154785,2|8|2,0:0|0:0|0:0,0:0:0:0:
314,366,44304,1,2,0:0:0:0:
314,366,44471,2,0,L|251:361,1,62.9999980773926,8|0,0:0|0:0,0:0:0:0:
163,351,44804,5,2,1:2:0:0:
217,278,44971,2,0,P|240:221|226:161,1,125.999996154785,8|8,0:0|3:2,0:0:0:0:
212,152,45388,1,8,3:2:0:0:
197,145,45471,2,0,L|134:140,1,62.9999980773926,8|8,3:2|3:0,0:0:0:0:
46,133,45804,1,0,0:0:0:0:
136,288,46138,6,0,B|210:282|210:282|223:275|223:275|301:269,1,168,4|2,0:0|0:0,0:0:0:0:
381,309,46804,2,0,P|436:304|477:267,1,112,10|0,0:0|0:0,0:0:0:0:
494,179,47304,6,0,L|498:123,1,56,8|2,0:0|0:0,0:0:0:0:
409,107,47638,2,0,L|400:219,1,112,8|2,0:0|0:0,0:0:0:0:
381,309,48138,2,0,P|329:296|267:291,1,112,8|0,0:0|0:0,0:0:0:0:
192,334,48638,1,8,3:2:0:0:
192,334,48721,1,8,3:2:0:0:
192,334,48804,6,0,P|140:347|78:352,1,112,2|0,0:0|0:0,0:0:0:0:
14,292,49304,1,2,0:0:0:0:
31,204,49471,2,0,L|34:92,1,112,8|2,0:0|0:0,0:0:0:0:
94,24,49971,6,0,P|120:18|149:15,1,56,8|2,3:2|3:2,0:0:0:0:
219,71,50304,2,0,P|271:88|333:81,1,112,8|2,0:0|0:0,0:0:0:0:
412,53,50804,2,0,L|414:110,1,56,8|2,0:0|0:0,0:0:0:0:
495,71,51138,2,0,L|497:128,1,56,8|8,0:0|3:2,0:0:0:0:
494,143,51388,1,8,3:2:0:0:
489,161,51471,6,0,P|439:196|377:192,1,125.999996154785,6|10,1:2|1:2,0:0:0:0:
302,146,51971,1,2,0:0:0:0:
224,189,52138,2,0,L|157:186,1,62.9999980773926,2|2,1:2|0:0,0:0:0:0:
147,179,52388,1,0,0:0:0:0:
132,172,52471,2,0,L|65:169,1,62.9999980773926,10|2,1:2|0:0,0:0:0:0:
36,251,52804,6,0,B|109:253|109:253|134:263|153:281,1,125.999996154785,2|10,1:2|1:2,0:0:0:0:
215,343,53304,2,0,P|275:352|343:354,1,125.999996154785,2|2,0:0|0:0,0:0:0:0:
421,319,53804,2,0,P|454:312|484:309,1,62.9999980773926,8|2,1:2|0:0,0:0:0:0:
470,218,54138,6,0,P|419:263|351:259,1,140,6|8,1:2|0:0,0:0:0:0:
293,93,54638,2,0,P|358:114|389:176,1,140,6|2,1:2|0:0,0:0:0:0:
261,267,55138,2,0,L|187:265,1,70,8|8,0:0|3:2,0:0:0:0:
111,309,55471,5,12,0:2:0:0:
67,229,55638,1,8,0:0:0:0:
91,140,55804,2,0,L|93:105,3,35,4|4|8|8,3:0|3:0|3:0|3:0,0:0:0:0:
96,91,56138,1,8,3:0:0:0:
186,94,56471,6,0,L|184:143,1,48.9999985046387,2|2,0:0|0:0,0:0:0:0:
225,224,56804,6,0,P|262:189|275:139,1,105,4|0,0:0|0:0,0:0:0:0:
274,125,57138,2,0,L|278:48,1,70,8|0,0:0|0:0,0:0:0:0:
368,38,57471,2,0,L|364:107,1,70,2|2,0:0|0:0,0:0:0:0:
336,194,57804,1,8,0:0:0:0:
425,176,57971,1,2,0:0:0:0:
308,281,58138,6,0,L|203:274,1,105,2|0,0:0|0:0,0:0:0:0:
189,277,58471,2,0,P|203:308|208:343,1,70,8|0,0:0|0:0,0:0:0:0:
102,380,58804,2,0,P|80:353|67:321,1,70,2|2,0:0|0:0,0:0:0:0:
38,233,59138,1,8,0:0:0:0:
38,233,59304,1,2,0:0:0:0:
145,155,59471,6,0,L|154:15,1,140,2|8,0:0|0:0,0:0:0:0:
238,50,59971,1,0,0:0:0:0:
319,8,60138,2,0,P|353:9|386:22,1,70,2|2,0:0|0:0,0:0:0:0:
336,97,60471,2,0,P|365:115|386:143,1,70,8|2,0:0|0:0,0:0:0:0:
320,235,60804,6,0,P|377:198|444:213,1,140,2|8,0:0|0:0,0:0:0:0:
483,294,61304,1,0,0:0:0:0:
431,370,61471,2,0,L|361:367,1,70,2|2,0:0|0:0,0:0:0:0:
270,379,61804,2,0,L|200:376,1,70,2|2,0:0|0:0,0:0:0:0:
143,260,62138,6,0,P|146:206|160:150,1,105,2|0,0:0|0:0,0:0:0:0:
168,147,62471,2,0,P|179:114|183:79,1,70,8|0,0:0|0:0,0:0:0:0:
273,73,62804,2,0,P|279:108|294:140,1,70,2|2,0:0|0:0,0:0:0:0:
381,171,63138,2,0,L|450:168,1,70,8|2,0:0|0:0,0:0:0:0:
311,231,63471,6,0,L|206:227,1,105,2|0,0:0|0:0,0:0:0:0:
194,219,63804,2,0,L|124:216,1,70,8|0,0:0|0:0,0:0:0:0:
163,133,64138,2,0,L|93:130,1,70,2|2,0:0|0:0,0:0:0:0:
132,47,64471,2,0,L|62:44,1,70,8|2,0:0|0:0,0:0:0:0:
8,161,64804,6,0,P|75:169|112:225,1,140,6|8,0:0|0:0,0:0:0:0:
214,252,65304,2,0,P|146:259|109:315,1,140,6|0,0:0|0:0,0:0:0:0:
200,365,65804,2,0,L|270:363,1,70,10|2,0:0|0:0,0:0:0:0:
415,306,66138,6,0,P|450:310|483:321,1,70
504,232,66471,1,8,0:0:0:0:
326,291,66638,2,0,P|293:232|310:166,1,140,6|2,0:0|3:2,0:0:0:0:
384,221,67138,1,4,3:0:0:0:
441,150,67304,1,8,3:0:0:0:
441,150,67388,1,8,3:0:0:0:
441,150,67471,6,0,L|444:45,1,105,6|0,0:0|0:0,0:0:0:0:
437,32,67804,2,0,P|403:20|369:16,1,70,8|0,0:0|0:0,0:0:0:0:
305,82,68138,2,0,P|272:93|238:98,1,70,2|2,0:0|0:0,0:0:0:0:
163,44,68471,1,8,0:0:0:0:
163,44,68638,1,2,0:0:0:0:
69,172,68804,6,0,P|57:223|53:275,1,105,2|0,0:0|0:0,0:0:0:0:
59,287,69138,2,0,L|56:357,1,70,8|0,0:0|0:0,0:0:0:0:
146,368,69471,2,0,P|167:340|179:307,1,70,2|2,0:0|0:0,0:0:0:0:
200,219,69804,1,8,0:0:0:0:
200,219,69971,1,2,0:0:0:0:
269,328,70138,6,0,L|408:332,1,140,2|8,0:0|0:0,0:0:0:0:
495,302,70638,1,0,0:0:0:0:
459,218,70804,2,0,L|461:142,1,70,2|2,0:0|0:0,0:0:0:0:
375,183,71138,2,0,L|377:113,1,70,8|2,0:0|0:0,0:0:0:0:
295,8,71471,6,0,L|291:148,1,140,6|8,0:0|0:0,0:0:0:0:
461,148,71971,2,0,P|466:93|416:29,1,140,6|2,0:0|0:0,0:0:0:0:
375,183,72471,2,0,L|373:253,1,70,8|2,0:0|0:0,0:0:0:0:
299,305,72804,6,0,B|228:302|228:302|215:311|215:311|175:314|137:335,1,168,6|0,0:0|0:0,0:0:0:0:
49,350,73471,2,0,P|23:338|1:321,1,56,8|0,0:0|0:0,0:0:0:0:
20,233,73804,2,0,L|78:230,1,56,0|0,0:0|0:0,0:0:0:0:
166,228,74138,5,2,0:0:0:0:
166,228,74304,2,0,L|161:112,1,112,8|0,0:0|0:0,0:0:0:0:
197,32,74804,2,0,P|221:19|248:14,1,56,10|0,0:0|0:0,0:0:0:0:
251,106,75138,2,0,P|278:109|303:121,1,56,2|0,0:0|0:0,0:0:0:0:
252,196,75471,6,0,L|85:201,1,168,2|0,0:0|0:0,0:0:0:0:
90,291,76138,2,0,L|145:288,1,56,8|0,0:0|0:0,0:0:0:0:
227,328,76471,2,0,L|296:331,1,70,4|0,0:0|0:0,0:0:0:0:
384,304,76804,6,0,P|419:309|451:322,2,70,8|2|2,0:0|0:0|3:2,0:0:0:0:
317,241,77304,2,0,P|304:208|299:173,2,70,4|2|8,3:0|3:2|3:0,0:0:0:0:
405,213,77804,2,0,P|422:166|420:110,1,105,10|0,0:0|0:0,0:0:0:0:
416,97,78138,6,0,L|346:94,1,70,6|0,0:0|0:0,0:0:0:0:
255,85,78471,1,10,0:0:0:0:
255,85,78638,1,10,0:0:0:0:
212,165,78804,2,0,L|209:235,1,70,10|10,0:0|0:0,0:0:0:0:
302,324,79138,2,0,L|299:254,1,70,10|0,3:2|3:0,0:0:0:0:
297,239,79388,1,0,3:0:0:0:
295,225,79471,1,2,1:2:0:0:
177,358,79804,6,0,B|95:360|95:360|68:357|43:337,1,140,6|8,0:0|3:2,0:0:0:0:
15,250,80304,1,0,3:2:0:0:
104,269,80471,2,0,L|176:266,1,70,8|8,0:0|3:2,0:0:0:0:
187,263,80721,1,8,3:2:0:0:
200,260,80804,6,0,L|272:257,1,70,6|0,1:2|0:0,0:0:0:0:
345,203,81138,2,0,L|417:200,1,70,8|0,0:0|0:0,0:0:0:0:
479,136,81471,2,0,P|488:102|489:67,1,70,2|2,0:0|0:0,0:0:0:0:
410,22,81804,2,0,P|379:38|354:62,1,70,8|2,0:0|0:0,0:0:0:0:
285,123,82138,6,0,L|143:118,1,140,2|8,1:2|0:0,0:0:0:0:
62,77,82638,1,0,0:0:0:0:
62,77,82804,2,0,P|53:114|57:145,1,70,2|2,0:0|0:0,0:0:0:0:
125,208,83138,2,0,P|133:245|129:276,1,70,8|2,0:0|0:0,0:0:0:0:
74,348,83471,6,0,P|136:319|205:330,1,140,2|8,1:2|0:0,0:0:0:0:
292,356,83971,2,0,P|347:316|361:249,1,140,0|2,0:0|0:0,0:0:0:0:
364,158,84471,1,8,0:0:0:0:
276,127,84638,6,0,L|271:267,1,140,2|2,0:0|0:0,0:0:0:0:
205,330,85138,1,8,0:0:0:0:
205,330,85304,1,0,0:0:0:0:
161,249,85471,2,0,P|129:236|95:233,1,70,2|2,0:0|0:0,0:0:0:0:
44,345,85804,2,0,P|78:341|109:326,1,70,8|2,0:0|0:0,0:0:0:0:
271,267,86138,6,0,L|266:127,1,140,6|8,1:2|0:0,0:0:0:0:
262,35,86638,1,0,0:0:0:0:
342,76,86804,2,0,P|377:84|412:85,1,70,2|2,0:0|0:0,0:0:0:0:
459,164,87138,1,8,0:0:0:0:
459,164,87304,6,0,P|424:166|389:173,1,70,0|2,3:0|1:2,0:0:0:0:
358,259,87638,1,0,0:0:0:0:
272,227,87804,1,8,0:0:0:0:
272,227,87971,2,0,L|132:231,1,140,0|2,3:0|0:0,0:0:0:0:
62,172,88471,1,8,0:0:0:0:
141,14,88638,6,0,P|170:76|149:141,1,140,6|2,1:2|0:0,0:0:0:0:
45,261,89138,2,0,P|31:293|25:328,1,70,8|0,0:0|0:0,0:0:0:0:
106,371,89471,2,0,P|134:350|155:322,1,70,8|2,1:2|0:0,0:0:0:0:
218,202,89804,1,8,0:0:0:0:
218,202,89971,6,0,B|273:200|273:200|289:191|289:191|357:189,1,140,6|8,1:2|0:0,0:0:0:0:
413,259,90471,2,0,L|483:256,1,70,8|8,3:2|3:2,0:0:0:0:
486,347,90804,2,0,P|454:362|420:370,1,70,2|2,3:2|3:2,0:0:0:0:
343,316,91138,2,0,P|310:303|275:298,1,70,8|2,3:2|3:2,0:0:0:0:
154,322,91471,5,6,0:0:0:0:
256,192,91638,12,0,96804,0:0:0:0:
