osu file format v14

[General]
AudioFilename: audio.mp3
AudioLeadIn: 0
PreviewTime: 56466
Countdown: 0
SampleSet: Soft
StackLeniency: 0.7
Mode: 0
LetterboxInBreaks: 0
WidescreenStoryboard: 0

[Editor]
DistanceSpacing: 0.9
BeatDivisor: 4
GridSize: 4
TimelineZoom: 1.2

[Metadata]
Title:Hitokoto no Kyori
TitleUnicode:ヒトコトの距離
Artist:*namirin
ArtistUnicode:*なみりん
Creator:Kroytz
Version:Kalibe's Normal
Source:
Tags:M3-39 5colors utaite kalibe sharkie gaia haruto haruto_aizawa sotarks doormat
BeatmapID:1288090
BeatmapSetID:609569

[Difficulty]
HPDrainRate:3.5
CircleSize:3.5
OverallDifficulty:3.5
ApproachRate:4.5
SliderMultiplier:1.1
SliderTickRate:1

[Events]
//Background and Video events
0,0,"BG.jpg",0,0
//Break Periods
//Storyboard Layer 0 (Background)
//Storyboard Layer 1 (Fail)
//Storyboard Layer 2 (Pass)
//Storyboard Layer 3 (Foreground)
//Storyboard Sound Samples

[TimingPoints]
471,333.333333333333,4,2,1,60,1,0
805,333.333333333333,4,2,1,60,1,0
805,-100,4,2,1,60,0,0
8804,-100,4,2,1,70,0,0
14138,-100,4,2,1,80,0,1
24804,-100,4,2,2,40,0,0
33638,-100,4,2,1,40,0,0
33804,-100,4,2,2,40,0,0
34138,-100,4,2,1,50,0,0
35471,-100,4,2,1,70,0,0
35804,-100,4,2,3,70,0,0
35971,-100,4,2,1,70,0,0
56471,-100,4,2,1,30,0,0
56804,-100,4,2,1,80,0,1
67388,-100,4,2,1,80,0,0
67471,-100,4,2,1,80,0,1
72804,-100,4,2,1,80,0,0
80804,-100,4,2,1,80,0,1
91471,-100,4,2,1,80,0,0
96804,-100,4,2,1,5,0,0

[Colours]
Combo1 : 148,214,150
Combo2 : 236,173,241
Combo3 : 217,123,230
Combo4 : 251,138,132

[HitObjects]
352,48,805,6,0,B|432:15|425:85|518:49,2,165,2|2|0,0:0|0:0|0:0,0:0:0:0:
264,97,2138,2,0,P|224:168|264:242,2,165,2|2|0,0:0|0:0|0:0,0:0:0:0:
330,170,3471,6,0,P|423:212|491:127,1,220,2|0,0:0|0:0,0:0:0:0:
437,49,4471,1,0,0:0:0:0:
345,87,4804,2,0,L|181:56,1,165,2|2,0:0|0:0,0:0:0:0:
61,141,5804,1,0,0:0:0:0:
77,238,6138,6,0,B|166:206|204:291|294:245,1,220,2|2,0:0|0:0,0:0:0:0:
358,175,7138,1,2,0:0:0:0:
453,199,7471,2,0,P|491:298|455:355,1,165,2|0,0:0|1:2,0:0:0:0:
424,370,8138,2,0,L|315:357,1,110,8|0,0:0|0:0,0:0:0:0:
239,292,8804,6,0,P|178:298|122:306,1,110,4|8,1:2|0:0,0:0:0:0:
90,335,9304,1,8,0:0:0:0:
90,335,9471,2,0,P|65:283|83:227,1,110,8|8,0:0|0:0,0:0:0:0:
159,179,10138,2,0,B|217:169|217:169|262:191|262:191|336:179,2,165,4|4|4,1:2|1:2|0:0,0:0:0:0:
77,234,11471,6,0,P|56:183|80:127,1,110,6|10,0:0|0:0,0:0:0:0:
114,104,11971,1,10,0:0:0:0:
114,104,12138,2,0,L|225:82,1,110,10|10,0:0|0:0,0:0:0:0:
318,60,12804,1,4,1:2:0:0:
318,60,14138,6,0,P|306:117|294:176,2,110,6|8|2,1:2|0:2|0:0,0:0:0:0:
404,11,15138,1,8,0:0:0:0:
487,64,15471,2,0,P|510:116|490:164,1,110,2|8,1:2|0:0,0:0:0:0:
403,115,16138,2,0,P|380:167|400:215,1,110,2|8,0:0|0:0,0:0:0:0:
470,281,16804,5,2,1:2:0:0:
394,345,17138,1,8,0:0:0:0:
394,345,17304,2,0,P|312:325|223:317,1,165,0|8,0:0|0:0,0:0:0:0:
207,360,17971,2,0,P|171:263|209:207,1,165,2|8,0:0|0:0,0:0:0:0:
275,153,18804,2,0,P|292:98|268:47,1,110,2|8,0:0|0:0,0:0:0:0:
189,105,19471,5,6,1:2:0:0:
102,57,19804,1,8,0:0:0:0:
29,125,20138,2,0,P|41:183|52:240,1,110,2|8,0:0|0:0,0:0:0:0:
38,331,20804,1,2,1:2:0:0:
126,285,21138,1,8,0:0:0:0:
126,285,21304,2,0,B|200:256|208:324|294:287,1,165,2|8,3:2|0:0,0:0:0:0:
314,331,21971,6,0,P|344:257|309:185,1,165,6|8,1:2|0:0,0:0:0:0:
216,150,22804,2,0,P|193:101|210:45,1,110,2|8,1:2|0:0,0:0:0:0:
239,12,23304,1,6,1:2:0:0:
295,93,23638,2,0,P|401:110|460:120,1,165,8|8,3:2|3:0,0:0:0:0:
401,200,24471,1,4,3:0:0:0:
465,275,24804,6,0,P|367:241|296:325,1,220,4|2,0:0|0:3,0:0:0:0:
210,366,25804,1,2,0:3:0:0:
116,333,26138,2,0,P|57:341|-1:349,1,110,2|2,0:3|0:3,0:0:0:0:
15,249,26804,2,0,P|69:241|123:234,1,110,2|2,0:3|0:3,0:0:0:0:
144,137,27471,6,0,P|89:144|35:151,2,110,2|2|2,0:3|0:3|0:3,0:0:0:0:
224,79,28471,1,2,0:3:0:0:
318,109,28804,2,0,P|305:58|300:-13,1,110,2|2,0:3|0:3,0:0:0:0:
390,42,29471,2,0,P|443:55|498:60,1,110,2|2,0:3|0:3,0:0:0:0:
436,138,30138,6,0,P|351:148|264:188,2,165,2|2|2,0:3|0:0|0:3,0:0:0:0:
497,215,31471,2,0,P|516:265|506:336,1,110,2|2,0:3|0:3,0:0:0:0:
428,374,32138,2,0,P|374:370|314:331,1,110,2|2,0:3|0:3,0:0:0:0:
249,280,32804,5,2,0:3:0:0:
177,349,33138,1,2,0:3:0:0:
177,349,33304,2,0,P|78:357|51:291,1,165,0|2,0:0|1:3,0:0:0:0:
120,238,34138,1,2,3:2:0:0:
35,186,34471,2,0,B|16:136|16:136|41:83,1,110,8|2,3:2|0:0,0:0:0:0:
79,54,34971,2,0,L|190:65,1,110,8|8,0:0|3:2,0:0:0:0:
221,101,35471,6,0,P|326:113|374:71,2,165,4|0|8,0:0|0:0|0:0,0:0:0:0:
135,151,36804,1,2,0:0:0:0:
190,232,37138,2,0,P|247:223|307:212,2,110,8|2|8,0:0|0:0|0:0,0:0:0:0:
125,307,38138,6,0,P|179:315|233:325,1,110,2|8,0:0|0:0,0:0:0:0:
322,367,38804,1,2,0:0:0:0:
417,339,39138,1,8,0:0:0:0:
417,339,39304,2,0,P|456:237|454:176,1,165,0|8,0:0|0:0,0:0:0:0:
368,231,40138,2,0,P|318:236|253:213,1,110,2|8,0:0|0:0,0:0:0:0:
179,162,40804,5,2,0:0:0:0:
113,236,41138,2,0,P|81:194|93:127,1,110,8|2,0:0|0:0,0:0:0:0:
152,66,41804,1,8,0:0:0:0:
244,102,42138,2,0,L|362:85,1,110,2|8,0:0|0:0,0:0:0:0:
393,57,42638,2,0,P|356:159|347:219,1,165,0|8,0:0|0:0,0:0:0:0:
382,306,43471,6,0,P|330:288|273:281,1,110,2|8,0:0|0:0,0:0:0:0:
202,347,44138,2,0,P|150:365|93:372,1,110,2|8,0:0|0:0,0:0:0:0:
17,311,44804,1,2,1:2:0:0:
17,311,44971,2,0,B|46:245|-4:234|26:148,1,165,8|8,0:0|3:2,0:0:0:0:
91,75,45804,1,0,0:0:0:0:
149,155,46138,6,0,P|204:161|259:132,1,110,4|0,0:0|0:0,0:0:0:0:
309,57,46804,2,0,P|361:20|444:63,1,165,10|8,0:0|0:0,0:0:0:0:
465,106,47471,1,2,0:0:0:0:
465,106,47638,2,0,B|448:151|448:151|466:223|466:223|447:268,1,165,8|8,0:0|0:0,0:0:0:0:
338,361,48638,1,8,3:2:0:0:
338,361,48804,6,0,P|244:313|187:338,1,165,2|2,0:0|0:0,0:0:0:0:
161,369,49471,1,8,0:0:0:0:
28,301,49971,2,0,L|10:234,1,55,8|2,3:2|3:2,0:0:0:0:
2,199,50304,2,0,P|81:211|138:151,1,165,8|8,0:0|0:0,0:0:0:0:
50,106,51138,1,8,0:0:0:0:
125,41,51471,6,0,L|281:55,1,110,6|10,1:2|1:2,0:0:0:0:
293,129,52138,2,0,L|402:119,1,110,2|10,1:2|1:2,0:0:0:0:
485,172,52804,2,0,P|499:225|476:277,1,110,2|10,1:2|1:2,0:0:0:0:
449,314,53304,1,2,0:0:0:0:
449,314,53471,2,0,P|387:300|342:324,1,110,2|8,0:0|1:2,0:0:0:0:
262,371,54138,6,0,P|207:364|153:355,1,110,6|8,1:2|0:0,0:0:0:0:
103,359,54638,2,0,P|51:270|79:207,1,165,6|8,1:2|0:0,0:0:0:0:
136,144,55471,1,12,0:2:0:0:
204,215,55804,2,0,L|186:283,2,55,4|8|8,3:0|3:0|3:0,0:0:0:0:
240,122,56471,1,2,0:0:0:0:
321,180,56804,6,0,P|375:172|436:164,1,110,4|8,0:0|0:0,0:0:0:0:
474,142,57304,2,0,P|459:196|447:256,1,110,0|2,0:0|0:0,0:0:0:0:
476,289,57804,1,8,0:0:0:0:
399,351,58138,2,0,P|344:344|290:335,1,110,2|8,0:0|0:0,0:0:0:0:
251,304,58638,2,0,P|196:310|142:319,1,110,0|2,0:0|0:0,0:0:0:0:
97,341,59138,1,8,0:0:0:0:
20,278,59471,6,0,P|11:227|32:170,1,110,2|8,0:0|0:0,0:0:0:0:
40,75,60138,2,0,P|87:52|148:58,1,110,2|8,0:0|0:0,0:0:0:0:
225,112,60804,1,2,0:0:0:0:
139,158,61138,1,8,0:0:0:0:
139,158,61304,2,0,B|214:132|230:189|309:158,1,165,0|8,0:0|0:0,0:0:0:0:
376,97,62138,6,0,P|416:82|485:103,2,110,2|8|2,0:0|0:0|0:0,0:0:0:0:
300,161,63138,1,8,0:0:0:0:
363,235,63471,2,0,P|419:228|485:221,1,110,2|8,0:0|0:0,0:0:0:0:
486,320,64138,2,0,P|431:326|376:332,1,110,2|8,0:0|0:0,0:0:0:0:
284,297,64804,6,0,B|266:248|266:248|282:189,1,110,6|8,0:0|0:0,0:0:0:0:
315,156,65304,2,0,P|398:148|490:141,1,165,6|10,0:0|0:0,0:0:0:0:
445,48,66138,1,6,0:0:0:0:
350,70,66471,1,8,0:0:0:0:
350,70,66638,2,0,B|277:48|261:103|182:72,1,165,6|4,0:0|3:0,0:0:0:0:
97,39,67471,6,0,P|69:87|75:142,1,110,6|8,0:0|0:0,0:0:0:0:
51,183,67971,2,0,P|103:171|172:166,1,110,0|2,0:0|0:0,0:0:0:0:
196,198,68471,1,8,0:0:0:0:
288,163,68804,2,0,P|283:217|271:271,1,110,2|8,0:0|0:0,0:0:0:0:
244,313,69304,2,0,P|294:294|358:305,1,110,0|2,0:0|0:0,0:0:0:0:
385,336,69804,1,8,0:0:0:0:
476,296,70138,6,0,P|497:247|494:185,1,110,2|8,0:0|0:0,0:0:0:0:
450,103,70804,2,0,P|401:82|339:85,1,110,2|8,0:0|0:0,0:0:0:0:
266,143,71471,2,0,P|211:170|161:160,1,110,6|8,0:0|0:0,0:0:0:0:
119,141,71971,2,0,L|154:273,1,110,6|2,0:0|0:0,0:0:0:0:
117,287,72471,1,8,0:0:0:0:
190,352,72804,6,0,B|249:344|249:344|286:365|286:365|351:357,1,165,6|0,0:0|0:0,0:0:0:0:
397,346,73471,2,0,P|411:293|385:242,1,110,8|0,0:0|0:0,0:0:0:0:
304,192,74138,1,2,0:0:0:0:
304,192,74304,2,0,L|183:208,1,110,8|0,0:0|0:0,0:0:0:0:
152,232,74804,2,0,P|101:246|46:221,1,110,10|2,0:0|0:0,0:0:0:0:
19,130,75471,6,0,P|104:72|161:89,1,165,2|0,0:0|0:0,0:0:0:0:
174,133,76138,1,8,0:0:0:0:
254,74,76471,1,4,0:0:0:0:
309,155,76804,2,0,L|293:216,2,55,8|2|2,0:0|0:0|3:2,0:0:0:0:
347,123,77304,2,0,P|401:117|465:111,1,110,4|8,3:0|3:0,0:0:0:0:
500,134,77804,1,10,0:0:0:0:
424,198,78138,6,0,P|400:248|410:308,1,110,6|10,0:0|0:0,0:0:0:0:
431,343,78638,1,10,0:0:0:0:
431,343,78804,2,0,L|278:322,1,110,10|10,0:0|3:2,0:0:0:0:
242,268,79471,1,2,1:2:0:0:
169,334,79804,2,0,P|143:288|152:230,1,110,6|8,0:0|3:2,0:0:0:0:
229,173,80471,2,0,L|296:186,1,55,8|8,0:0|3:2,0:0:0:0:
327,204,80804,6,0,P|313:142|303:95,2,110,6|8|2,1:2|0:0|0:0,0:0:0:0:
392,278,81804,1,8,0:0:0:0:
323,349,82138,2,0,B|271:361|271:361|216:341,1,110,2|8,1:2|0:0,0:0:0:0:
236,244,82804,2,0,B|184:232|184:232|129:252,1,110,2|8,0:0|0:0,0:0:0:0:
74,333,83471,5,2,1:2:0:0:
10,256,83804,1,8,0:0:0:0:
10,256,83971,2,0,P|-3:204|25:94,1,165,0|8,0:0|0:0,0:0:0:0:
19,48,84638,2,0,P|115:88|176:54,1,165,2|8,0:0|0:0,0:0:0:0:
250,14,85471,2,0,L|268:129,1,110,2|8,0:0|0:0,0:0:0:0:
277,221,86138,5,6,1:2:0:0:
185,183,86471,1,8,0:0:0:0:
96,227,86804,2,0,P|72:279|86:331,1,110,2|8,0:0|0:0,0:0:0:0:
175,290,87471,1,2,1:2:0:0:
251,352,87804,1,8,0:0:0:0:
251,352,87971,2,0,B|317:324|343:386|417:346,1,165,0|8,3:0|0:0,0:0:0:0:
456,369,88638,6,0,P|426:269|459:221,1,165,6|8,1:2|0:0,0:0:0:0:
505,138,89471,2,0,L|396:153,1,110,8|8,1:2|0:0,0:0:0:0:
348,140,89971,1,6,1:2:0:0:
280,211,90304,2,0,P|246:112|282:65,1,165,8|2,0:0|3:2,0:0:0:0:
361,18,91138,1,8,3:2:0:0:
454,51,91471,5,6,0:0:0:0:
256,192,91638,12,0,96804,0:0:0:0:
