osu file format v14

[General]
AudioFilename: audio.mp3
AudioLeadIn: 0
PreviewTime: 56466
Countdown: 0
SampleSet: Soft
StackLeniency: 0.5
Mode: 0
LetterboxInBreaks: 0
WidescreenStoryboard: 0

[Editor]
Bookmarks: 54633
DistanceSpacing: 1
BeatDivisor: 4
GridSize: 4
TimelineZoom: 1.2

[Metadata]
Title:Hitokoto no Kyori
TitleUnicode:ヒトコトの距離
Artist:*namirin
ArtistUnicode:*なみりん
Creator:Kroytz
Version:Gaia's Insane
Source:
Tags:M3-39 5colors utaite kalibe sharkie gaia haruto haruto_aizawa sotarks doormat
BeatmapID:1289001
BeatmapSetID:609569

[Difficulty]
HPDrainRate:6
CircleSize:4
OverallDifficulty:7
ApproachRate:9
SliderMultiplier:1.7
SliderTickRate:1

[Events]
//Background and Video events
0,0,"BG.jpg",0,0
//Break Periods
//Storyboard Layer 0 (Background)
//Storyboard Layer 1 (Fail)
//Storyboard Layer 2 (Pass)
//Storyboard Layer 3 (Foreground)
//Storyboard Sound Samples

[TimingPoints]
471,333.333333333333,4,2,1,60,1,0
805,333.333333333333,4,2,1,60,1,0
6138,-142.857142857143,4,2,1,60,0,0
7138,-142.857142857143,4,2,1,60,0,0
7471,-142.857142857143,4,2,1,60,0,0
8138,-200,4,2,1,60,0,0
8721,-200,4,2,1,5,0,0
8804,-111.111111111111,4,2,1,70,0,0
11471,-100,4,2,1,70,0,0
14138,-100,4,2,1,80,0,1
24804,-125,4,2,1,40,0,0
34138,-125,4,2,1,50,0,0
35471,-111.111111111111,4,2,1,70,0,0
45804,-166.666666666666,4,2,1,70,0,0
46054,-166.666666666666,4,2,1,5,0,0
46138,-142.857142857143,4,2,1,70,0,0
51471,-125,4,2,1,70,0,0
52804,-111.111111111111,4,2,1,70,0,0
54138,-100,4,2,1,70,0,0
56471,-125,4,2,1,40,0,0
56804,-90.9090909090909,4,2,1,80,0,1
67388,-90.9090909090909,4,2,1,80,0,0
67471,-90.9090909090909,4,2,1,80,0,1
72804,-111.111111111111,4,2,1,80,0,0
76471,-83.3333333333333,4,2,1,80,0,0
76721,-83.3333333333333,4,2,1,5,0,0
76804,-125,4,2,1,80,0,0
78138,-100,4,2,1,80,0,0
80804,-100,4,2,1,80,0,1
91471,-100,4,2,1,80,0,0
96804,-100,4,2,1,5,0,0

[Colours]
Combo1 : 148,214,150
Combo2 : 236,173,241
Combo3 : 217,123,230
Combo4 : 251,138,132

[HitObjects]
120,60,805,5,2,0:0:0:0:
176,140,971,1,0,0:0:0:0:
140,248,1138,1,0,0:0:0:0:
36,260,1304,1,2,0:0:0:0:
36,260,2138,5,2,0:0:0:0:
136,216,2304,1,2,0:0:0:0:
248,256,2471,1,2,0:0:0:0:
272,364,2638,1,2,0:0:0:0:
272,364,3471,5,2,0:0:0:0:
184,276,3638,1,2,0:0:0:0:
208,160,3804,1,2,0:0:0:0:
308,112,3971,1,2,0:0:0:0:
308,112,4804,5,2,0:0:0:0:
384,188,4971,1,2,0:0:0:0:
304,268,5138,1,2,0:0:0:0:
224,184,5304,1,2,0:0:0:0:
224,184,6138,6,0,L|204:56,1,118.999996368408,2|2,0:0|0:0,0:0:0:0:
108,128,6638,2,0,L|96:256,1,118.999996368408,2|0,0:0|0:0,0:0:0:0:
152,320,7138,2,0,P|125:335|92:340,1,59.4999981842042,2|0,0:0|0:0,0:0:0:0:
184,236,7471,6,0,P|243:249|316:264,1,118.999996368408,2|0,0:0|0:0,0:0:0:0:
416,200,7971,1,0,1:2:0:0:
200,132,8138,6,0,P|128:148|48:160,1,148.75,8|0,0:0|0:0,0:0:0:0:
36,148,8804,6,0,P|8:100|80:36,1,152.999995330811,4|8,1:2|0:0,0:0:0:0:
216,112,9304,1,8,0:0:0:0:
120,260,9471,1,8,0:0:0:0:
296,228,9638,1,8,0:0:0:0:
116,112,9804,1,8,0:0:0:0:
268,252,9971,1,8,0:0:0:0:
367,93,10138,6,0,P|296:103|191:113,1,152.999995330811,4|0,1:2|0:0,0:0:0:0:
296,228,10638,2,0,P|372:235|447:246,1,152.999995330811,4|0,1:2|0:0,0:0:0:0:
460,104,11138,2,0,P|449:69|444:24,1,76.4999976654053,4|0,0:0|0:0,0:0:0:0:
272,104,11471,6,0,P|304:152|268:252,1,170,6|10,0:0|0:0,0:0:0:0:
92,324,11971,1,10,0:0:0:0:
312,344,12138,1,10,0:0:0:0:
200,168,12304,1,10,0:0:0:0:
104,352,12471,1,10,0:0:0:0:
244,256,12638,1,10,3:2:0:0:
244,256,12721,1,2,3:2:0:0:
244,256,12804,5,4,1:2:0:0:
128,92,13971,1,8,0:0:0:0:
128,92,14054,1,8,0:0:0:0:
128,92,14138,6,0,P|116:56|116:4,1,85,6|0,1:2|0:0,0:0:0:0:
264,72,14471,2,0,P|255:116|248:172,1,85,8|0,0:2|0:0,0:0:0:0:
300,292,14804,2,0,P|257:283|204:280,1,85,2|2,0:0|0:0,0:0:0:0:
48,208,15138,1,8,0:0:0:0:
0,348,15304,1,2,0:0:0:0:
64,204,15471,6,0,P|106:198|168:188,1,85,2|0,1:2|0:0,0:0:0:0:
344,128,15804,2,0,P|352:160|352:228,1,85,8|0,0:0|0:0,0:0:0:0:
226,357,16138,2,0,P|206:305|234:261,1,85,2|2,0:0|0:0,0:0:0:0:
236,112,16471,2,0,P|199:107|144:96,1,85,8|2,0:0|0:0,0:0:0:0:
270,225,16804,6,0,P|311:216|353:211,1,85,2|0,1:2|0:0,0:0:0:0:
464,64,17138,2,0,P|488:100|480:160,1,85,8|0,0:0|0:0,0:0:0:0:
468,312,17471,1,2,0:0:0:0:
372,200,17638,1,2,0:0:0:0:
500,160,17804,1,8,0:0:0:0:
456,324,17971,6,0,P|372:315|280:308,1,170,2|2,0:0|0:0,0:0:0:0:
96,264,18471,2,0,P|101:312|104:364,1,85,8|0,0:0|0:0,0:0:0:0:
184,200,18804,1,2,0:0:0:0:
8,204,18971,1,2,0:0:0:0:
112,72,19138,1,10,0:0:0:0:
96,240,19304,1,2,2:2:0:0:
220,92,19471,6,0,P|217:50|196:4,1,85,6|0,1:2|0:0,0:0:0:0:
356,80,19804,2,0,P|400:91|448:96,1,85,8|0,0:0|0:0,0:0:0:0:
284,200,20138,2,0,P|236:211|164:224,2,85,2|2|8,0:0|0:0|0:0,0:0:0:0:
456,332,20638,6,0,P|436:284|320:288,1,170,2|0,3:2|0:0,0:0:0:0:
172,200,21138,1,8,0:0:0:0:
248,308,21304,2,0,P|289:316|340:320,1,85,2|2,3:2|1:2,0:0:0:0:
144,208,21638,2,0,L|44:228,1,85,2|8,0:0|0:0,0:0:0:0:
272,172,21971,6,0,B|268:116|292:68|292:68|264:36|220:60,1,170,6|2,1:2|0:0,0:0:0:0:
144,208,22471,2,0,L|160:328,1,85,8|0,0:0|0:0,0:0:0:0:
260,376,22804,1,2,1:2:0:0:
304,260,22971,1,2,0:0:0:0:
176,292,23138,1,8,0:0:0:0:
276,380,23304,6,0,B|336:369|393:365|393:365|402:342|420:312,1,170,6|8,1:2|3:2,0:0:0:0:
308,152,23804,2,0,P|280:200|288:240,1,85,4|8,3:0|3:2,0:0:0:0:
304,260,24054,1,8,3:2:0:0:
304,260,24138,1,8,3:0:0:0:
404,192,24304,1,8,3:0:0:0:
372,72,24471,1,4,3:0:0:0:
264,48,24638,1,4,3:0:0:0:
308,152,24804,6,0,P|346:163|400:172,1,68,4|0,0:0|0:0,0:0:0:0:
236,266,25138,1,2,0:3:0:0:
236,266,25304,2,0,P|272:264|312:258,1,68,0|2,0:0|0:3,0:0:0:0:
184,160,25638,2,0,P|168:128|176:88,2,68,0|2|0,0:0|0:3|1:0,0:0:0:0:
120,344,26138,6,0,P|148:284|88:220,1,136,2|2,0:3|0:3,0:0:0:0:
20,132,26638,2,0,P|55:141|96:144,1,68,0|2,0:0|0:3,0:0:0:0:
252,56,26971,2,0,P|218:59|185:68,1,68,0|2,0:0|0:3,0:0:0:0:
86,144,27304,1,0,1:0:0:0:
288,156,27471,6,0,P|336:128|344:36,2,136,2|2|2,0:3|0:3|0:3,0:0:0:0:
168,84,28304,1,0,0:0:0:0:
264,176,28471,1,2,0:3:0:0:
100,236,28638,1,0,1:0:0:0:
288,156,28804,6,0,P|326:161|368:168,1,68,2|0,0:3|0:0,0:0:0:0:
308,284,29138,2,0,P|274:289|240:293,1,68,2|0,0:3|0:0,0:0:0:0:
100,236,29471,2,0,P|93:277|96:320,2,68,2|0|2,0:3|0:0|0:3,0:0:0:0:
146,97,29971,1,0,1:0:0:0:
146,97,30138,6,0,P|86:129|6:129,1,136,2|2,0:3|0:3,0:0:0:0:
172,192,30638,1,0,0:0:0:0:
172,192,30804,2,0,P|216:202|256:216,1,68,2|0,0:3|0:0,0:0:0:0:
320,324,31138,1,2,0:3:0:0:
384,224,31304,1,0,1:0:0:0:
320,324,31471,6,0,P|253:334|180:340,1,136,2|2,0:3|0:3,0:0:0:0:
36,264,31971,2,0,P|20:232|24:188,1,68,0|2,0:0|0:3,0:0:0:0:
146,97,32304,2,0,P|162:129|158:173,1,68,0|2,0:0|0:3,0:0:0:0:
52,288,32638,1,0,1:0:0:0:
160,180,32804,6,0,P|208:152|296:164,1,136,2|2,0:3|0:3,0:0:0:0:
260,312,33304,2,0,P|248:283|236:228,1,68,0|2,0:0|0:3,0:0:0:0:
392,152,33638,2,0,P|383:184|370:216,1,68,0|2,0:0|1:3,0:0:0:0:
336,68,33971,1,0,1:0:0:0:
336,68,34138,6,0,L|412:56,1,68,2|0,3:2|3:0,0:0:0:0:
216,152,34471,2,0,P|248:157|300:160,1,68,8|0,3:2|0:0,0:0:0:0:
124,48,34804,1,2,0:0:0:0:
152,244,34971,1,8,0:0:0:0:
40,152,35138,1,8,3:2:0:0:
40,152,35221,1,8,3:2:0:0:
40,152,35304,1,8,3:2:0:0:
40,152,35388,1,8,3:2:0:0:
40,152,35471,6,0,L|32:320,1,152.999995330811,4|8,0:0|0:0,0:0:0:0:
200,360,35971,2,0,P|234:354|280:340,1,76.4999976654053,0|2,0:0|0:0,0:0:0:0:
370,216,36304,2,0,P|414:218|446:224,2,76.4999976654053,2|8|0,0:0|0:0|0:0,0:0:0:0:
212,248,36804,6,0,P|176:216|216:120,1,152.999995330811,2|8,0:0|0:0,0:0:0:0:
336,32,37304,2,0,P|331:68|316:128,1,76.4999976654053,0|2,0:0|0:0,0:0:0:0:
300,272,37638,1,2,0:0:0:0:
220,120,37804,1,8,0:0:0:0:
372,184,37971,1,0,0:0:0:0:
192,260,38138,6,0,B|120:280|120:232|16:268,2,152.999995330811,2|8|2,0:0|0:0|0:0,0:0:0:0:
236,116,38971,1,2,0:0:0:0:
308,288,39138,1,8,0:0:0:0:
372,164,39304,1,0,0:0:0:0:
300,304,39471,6,0,P|291:340|288:384,1,76.4999976654053,2|0,0:0|0:0,0:0:0:0:
231,195,39804,2,0,P|227:156|219:119,1,76.4999976654053,8|0,0:0|0:0,0:0:0:0:
104,24,40138,1,2,0:0:0:0:
112,212,40304,1,2,0:0:0:0:
294,132,40471,2,0,P|259:126|202:116,1,76.4999976654053,8|0,0:0|0:0,0:0:0:0:
48,296,40804,6,0,P|88:256|200:272,1,152.999995330811,2|8,0:0|0:0,0:0:0:0:
312,368,41304,2,0,B|284:292|332:292|308:212,1,152.999995330811,0|2,0:0|0:0,0:0:0:0:
150,87,41804,2,0,P|180:108|222:119,1,76.4999976654053,8|0,0:0|0:0,0:0:0:0:
444,36,42138,6,0,P|380:32|344:108,1,152.999995330811,2|8,0:0|0:0,0:0:0:0:
461,237,42638,2,0,P|396:226|305:217,1,152.999995330811,0|2,0:0|0:0,0:0:0:0:
152,264,43138,1,8,0:0:0:0:
336,308,43304,1,0,0:0:0:0:
240,128,43471,6,0,P|200:132|144:148,1,76.4999976654053,2|0,0:0|0:0,0:0:0:0:
48,276,43804,2,0,P|84:284|148:284,1,76.4999976654053,8|0,0:0|0:0,0:0:0:0:
309,217,44138,1,2,0:0:0:0:
172,176,44304,1,2,0:0:0:0:
212,316,44471,1,8,0:0:0:0:
284,224,44638,1,0,0:0:0:0:
120,268,44804,5,2,1:2:0:0:
309,217,44971,2,0,P|390:227|476:244,1,152.999995330811,8|8,0:0|3:2,0:0:0:0:
476,264,45388,1,8,3:2:0:0:
476,264,45471,2,0,P|480:304|448:356,1,76.4999976654053,8|8,3:2|3:0,0:0:0:0:
300,192,45804,6,0,P|286:156|290:118,1,76.4999976654053,8|0,0:3|0:0,0:0:0:0:
328,56,46138,6,0,P|282:73|136:104,1,178.499994552612,4|2,0:0|0:0,0:0:0:0:
44,56,46804,2,0,P|51:102|64:196,1,118.999996368408,10|0,0:0|0:0,0:0:0:0:
172,256,47304,5,8,0:0:0:0:
52,332,47471,1,2,0:0:0:0:
188,248,47638,2,0,P|244:236|300:288,1,118.999996368408,8|2,0:0|0:0,0:0:0:0:
436,304,48138,2,0,P|397:261|414:187,1,118.999996368408,8|0,0:0|0:0,0:0:0:0:
476,72,48638,1,8,3:2:0:0:
476,72,48721,1,8,3:2:0:0:
476,72,48804,6,0,P|404:124|300:128,1,178.499994552612,2|2,0:0|0:0,0:0:0:0:
216,56,49471,2,0,P|176:32|84:48,1,118.999996368408,8|2,0:0|0:0,0:0:0:0:
96,200,49971,5,8,3:2:0:0:
0,92,50138,1,2,3:2:0:0:
88,180,50304,1,8,0:0:0:0:
120,56,50471,1,2,0:0:0:0:
80,164,50638,1,2,0:0:0:0:
216,148,50804,2,0,P|253:152|296:156,1,59.4999981842042,8|2,0:0|0:0,0:0:0:0:
392,232,51138,2,0,P|362:234|332:238,1,59.4999981842042,8|8,0:0|3:2,0:0:0:0:
312,272,51388,1,8,3:2:0:0:
312,272,51471,6,0,P|316:312|328:352,1,68,6|0,1:2|0:0,0:0:0:0:
188,248,51804,2,0,P|189:216|200:172,1,68,10|2,1:2|0:0,0:0:0:0:
376,140,52138,2,0,L|300:152,1,68,2|2,1:2|0:0,0:0:0:0:
156,56,52471,2,0,L|223:66,1,68,10|2,1:2|0:0,0:0:0:0:
172,264,52804,6,0,P|132:248|124:144,1,152.999995330811,2|10,1:2|1:2,0:0:0:0:
288,140,53304,1,2,0:0:0:0:
292,264,53471,2,0,P|285:298|268:340,1,76.4999976654053,2|2,1:2|0:0,0:0:0:0:
392,196,53804,2,0,P|420:187|472:180,1,76.4999976654053,8|2,1:2|0:0,0:0:0:0:
288,140,54138,6,0,P|217:133|112:112,1,170,6|8,1:2|0:0,0:0:0:0:
4,289,54638,2,0,P|87:272|171:263,1,170,6|2,1:2|0:0,0:0:0:0:
388,212,55138,1,8,0:0:0:0:
256,340,55304,1,8,3:2:0:0:
256,340,55388,1,8,3:2:0:0:
256,340,55471,5,12,0:2:0:0:
272,160,55638,1,8,0:0:0:0:
404,312,55804,1,4,3:0:0:0:
414,309,55888,1,4,3:0:0:0:
423,307,55971,1,8,3:0:0:0:
432,305,56054,1,8,3:0:0:0:
442,303,56138,1,8,3:0:0:0:
148,144,56471,2,0,P|115:143|68:136,1,68,2|2,0:0|0:0,0:0:0:0:
248,24,56804,6,0,P|300:56|280:176,1,187.000005706787,4|8,0:0|0:0,0:0:0:0:
180,240,57304,2,0,P|251:249|372:264,1,187.000005706787,2|2,0:0|0:0,0:0:0:0:
184,152,57804,2,0,P|160:124|164:56,1,93.5000028533936,8|2,0:0|0:0,0:0:0:0:
408,180,58138,6,0,P|452:224|424:340,1,187.000005706787,2|8,0:0|0:0,0:0:0:0:
264,328,58638,2,0,P|149:345|76:352,1,187.000005706787,2|2,0:0|0:0,0:0:0:0:
0,232,59138,1,8,0:0:0:0:
72,372,59304,1,2,0:0:0:0:
144,200,59471,6,0,B|152:72|152:72|184:63|216:36,1,187.000005706787,2|8,0:0|0:0,0:0:0:0:
356,8,59971,2,0,P|412:52|360:152,1,187.000005706787,2|2,0:0|0:0,0:0:0:0:
304,260,60471,2,0,P|341:269|408:280,1,93.5000028533936,8|2,0:0|0:0,0:0:0:0:
184,180,60804,6,0,P|94:181|48:264,1,187.000005706787,2|8,0:0|0:0,0:0:0:0:
259,356,61304,2,0,P|348:354|395:272,1,187.000005706787,2|2,0:0|0:0,0:0:0:0:
374,146,61804,2,0,P|427:142|480:132,1,93.5000028533936,8|2,0:0|0:0,0:0:0:0:
296,24,62138,6,0,B|236:-8|172:20|172:20|168:60|144:84,2,187.000005706787,2|8|2,0:0|0:0|0:0,0:0:0:0:
380,172,62971,1,2,0:0:0:0:
184,180,63138,2,0,P|140:177|84:168,1,93.5000028533936,10|2,0:0|0:0,0:0:0:0:
303,297,63471,6,0,P|348:283|411:277,1,93.5000028533936,2|0,0:0|0:0,0:0:0:0:
184,372,63804,2,0,P|172:312|204:272,1,93.5000028533936,10|0,0:0|0:0,0:0:0:0:
288,100,64138,2,0,P|304:142|290:186,1,93.5000028533936,2|2,0:0|0:0,0:0:0:0:
91,169,64471,2,0,P|137:176|184:179,1,93.5000028533936,10|2,0:0|0:0,0:0:0:0:
388,32,64804,6,0,P|316:45|192:64,1,187.000005706787,6|8,0:0|0:0,0:0:0:0:
288,284,65304,2,0,B|358:283|416:296|416:296|423:270|448:228,1,187.000005706787,6|8,0:0|0:0,0:0:0:0:
440,112,65804,2,0,P|400:122|344:144,1,93.5000028533936,10|2,0:0|0:0,0:0:0:0:
208,312,66138,5,6,0:0:0:0:
264,100,66304,1,0,0:0:0:0:
316,252,66471,1,8,0:0:0:0:
104,188,66638,2,0,B|32:152|72:72|72:72|108:68|124:96,1,187.000005706787,6|2,0:0|3:2,0:0:0:0:
222,204,67138,1,4,3:0:0:0:
218,231,67221,1,4,3:0:0:0:
215,258,67304,1,8,3:0:0:0:
211,285,67388,1,8,3:0:0:0:
208,312,67471,6,0,P|117:326|20:336,1,187.000005706787,6|8,0:0|0:0,0:0:0:0:
316,252,67971,2,0,B|390:264|448:268|448:268|455:294|472:332,1,187.000005706787,2|2,0:0|0:0,0:0:0:0:
364,140,68471,2,0,P|364:92|400:52,1,93.5000028533936,8|2,0:0|0:0,0:0:0:0:
248,160,68804,6,0,B|123:150|123:150|118:121|100:88,1,187.000005706787,2|8,0:0|0:0,0:0:0:0:
44,268,69304,2,0,P|134:274|232:284,1,187.000005706787,2|2,0:0|0:0,0:0:0:0:
424,208,69804,2,0,P|379:228|332:232,1,93.5000028533936,8|2,0:0|0:0,0:0:0:0:
172,36,70138,6,0,P|248:52|260:168,1,187.000005706787,2|8,0:0|0:0,0:0:0:0:
248,160,70804,2,0,P|209:155|142:145,1,93.5000028533936,2|2,0:0|0:0,0:0:0:0:
284,304,71138,2,0,P|330:296|376:291,1,93.5000028533936,8|2,0:0|0:0,0:0:0:0:
512,160,71471,6,0,B|472:252|536:248|500:344,1,187.000005706787,6|8,0:0|0:0,0:0:0:0:
316,208,71971,2,0,B|280:172|280:108|280:108|308:68|368:84,1,187.000005706787,6|2,0:0|0:0,0:0:0:0:
200,176,72471,2,0,P|154:196|92:192,1,93.5000028533936,8|2,0:0|0:0,0:0:0:0:
20,104,72804,6,0,P|10:183|4:272,1,152.999995330811,6|2,0:0|0:0,0:0:0:0:
140,368,73304,1,0,0:0:0:0:
140,368,73471,2,0,P|210:347|308:328,1,152.999995330811,8|0,0:0|0:0,0:0:0:0:
336,232,73971,2,0,P|296:229|236:224,1,76.4999976654053,0|2,0:0|0:0,0:0:0:0:
80,160,74304,6,0,B|184:140|184:140|185:120|200:80,1,152.999995330811,8|0,0:0|0:0,0:0:0:0:
312,28,74804,2,0,P|315:70|328:132,1,76.4999976654053,10|0,0:0|0:0,0:0:0:0:
251,301,75138,2,0,P|254:258|267:197,1,76.4999976654053,2|0,0:0|0:0,0:0:0:0:
464,192,75471,6,0,P|384:196|364:272,1,152.999995330811,2|0,0:0|0:0,0:0:0:0:
176,360,75971,1,0,0:0:0:0:
176,360,76138,2,0,P|168:323|164:280,1,76.4999976654053,8|0,0:0|0:0,0:0:0:0:
220,120,76471,6,0,P|160:144|72:164,1,152.999995330811,4|0,0:0|0:0,0:0:0:0:
48,152,76804,5,8,0:0:0:0:
196,32,76971,2,0,L|292:40,1,68,2|2,0:0|3:2,0:0:0:0:
24,140,77304,5,4,3:0:0:0:
288,184,77471,2,0,L|368:172,1,68,2|8,3:2|3:0,0:0:0:0:
0,128,77804,5,10,0:0:0:0:
0,128,78138,6,0,P|12:232|20:304,1,170,6|10,0:0|0:0,0:0:0:0:
140,368,78638,1,10,0:0:0:0:
240,232,78804,1,10,0:0:0:0:
74,163,78971,1,10,0:0:0:0:
276,228,79138,1,10,3:2:0:0:
320,224,79221,1,0,3:0:0:0:
364,220,79304,1,0,3:0:0:0:
408,216,79388,1,0,3:0:0:0:
452,212,79471,5,2,1:2:0:0:
452,212,79804,2,0,P|480:164|380:96,1,170,6|8,0:0|3:2,0:0:0:0:
224,132,80304,1,0,3:2:0:0:
336,40,80471,1,8,0:0:0:0:
320,224,80638,1,8,3:2:0:0:
320,224,80721,1,8,3:2:0:0:
320,224,80804,6,0,P|324:267|332:344,1,85,6|0,1:2|0:0,0:0:0:0:
452,212,81138,2,0,P|455:170|464:116,1,85,8|0,0:0|0:0,0:0:0:0:
306,112,81471,2,0,P|262:123|218:132,1,85,2|2,0:0|0:0,0:0:0:0:
80,216,81804,1,8,0:0:0:0:
16,100,81971,1,2,0:0:0:0:
80,216,82138,6,0,P|123:228|180:240,1,85,2|0,1:2|0:0,0:0:0:0:
344,301,82471,2,0,P|340:253|312:217,1,85,8|0,0:0|0:0,0:0:0:0:
224,132,82804,1,2,0:0:0:0:
224,132,82971,1,2,0:0:0:0:
248,288,83138,1,8,0:0:0:0:
248,288,83304,1,2,0:0:0:0:
412,192,83471,6,0,L|320:200,1,85,2|0,1:2|0:0,0:0:0:0:
136,92,83804,2,0,L|232:104,1,85,8|0,0:0|0:0,0:0:0:0:
208,276,84138,2,0,P|184:232|192:176,2,85,2|2|8,0:0|0:0|0:0,0:0:0:0:
332,176,84638,6,0,P|356:108|308:8,1,170,2|2,0:0|0:0,0:0:0:0:
135,9,85138,2,0,P|127:65|155:117,1,85,8|0,0:0|0:0,0:0:0:0:
224,264,85471,1,2,0:0:0:0:
304,156,85638,1,2,0:0:0:0:
156,112,85804,1,8,0:0:0:0:
280,160,85971,1,2,0:0:0:0:
100,216,86138,6,0,P|55:222|4:228,1,85,6|0,1:2|0:0,0:0:0:0:
236,296,86471,2,0,P|278:300|320:307,1,85,8|0,0:0|0:0,0:0:0:0:
280,160,86804,2,0,P|264:120|270:79,1,85,2|2,0:0|0:0,0:0:0:0:
416,20,87138,1,8,0:0:0:0:
424,196,87304,6,0,P|408:280|396:384,1,170,0|0,3:0|0:0,0:0:0:0:
248,192,87804,1,8,0:0:0:0:
372,116,87971,2,0,P|411:107|460:104,1,85,0|2,3:0|1:2,0:0:0:0:
216,188,88304,2,0,P|174:181|128:172,1,85,2|8,0:0|0:0,0:0:0:0:
8,68,88638,6,0,P|56:12|160:52,1,170,6|2,1:2|0:0,0:0:0:0:
248,192,89138,2,0,P|238:241|232:296,1,85,8|0,0:0|0:0,0:0:0:0:
376,376,89471,1,8,1:2:0:0:
424,192,89638,1,2,0:0:0:0:
156,232,89804,1,8,0:0:0:0:
324,96,89971,6,0,P|406:87|512:72,1,170,6|8,1:2|0:0,0:0:0:0:
424,192,90471,1,8,3:2:0:0:
236,40,90638,1,8,3:2:0:0:
236,40,90721,1,2,3:2:0:0:
236,40,90804,2,0,P|216:88|240:144,1,85,8|8,3:3|3:3,0:0:0:0:
320,224,91138,2,0,L|308:336,1,85,8|2,3:2|3:2,0:0:0:0:
224,372,91471,5,6,0:0:0:0:
256,192,91554,12,0,96804,0:0:0:0:
