osu file format v14

[General]
AudioFilename: audio.mp3
AudioLeadIn: 0
PreviewTime: 56466
Countdown: 0
SampleSet: Soft
StackLeniency: 0.6
Mode: 0
LetterboxInBreaks: 0
WidescreenStoryboard: 0

[Editor]
DistanceSpacing: 1.4
BeatDivisor: 4
GridSize: 4
TimelineZoom: 1.9

[Metadata]
Title:Hitokoto no Kyori
TitleUnicode:ヒトコトの距離
Artist:*namirin
ArtistUnicode:*なみりん
Creator:Kroytz
Version:Doormat's Extra
Source:
Tags:M3-39 5colors utaite kalibe sharkie gaia haruto haruto_aizawa sotarks doormat
BeatmapID:1415007
BeatmapSetID:609569

[Difficulty]
HPDrainRate:6
CircleSize:4
OverallDifficulty:8.5
ApproachRate:9
SliderMultiplier:1.72
SliderTickRate:1

[Events]
//Background and Video events
0,0,"DoormatBG.jpg",0,0
//Break Periods
//Storyboard Layer 0 (Background)
//Storyboard Layer 1 (Fail)
//Storyboard Layer 2 (Pass)
//Storyboard Layer 3 (Foreground)
//Storyboard Sound Samples

[TimingPoints]
471,333.333333333333,4,2,1,60,1,0
805,333.333333333333,4,2,1,60,1,0
805,-166.666666666667,4,2,1,60,0,0
4471,-166.666666666667,4,2,1,60,0,0
4804,-166.666666666667,4,2,1,60,0,0
7138,-166.666666666667,4,2,1,60,0,0
7471,-166.666666666667,4,2,1,60,0,0
8804,-100,4,2,1,70,0,0
14138,-100,4,2,1,80,0,1
24804,-125,4,2,1,40,0,0
34138,-142.857142857143,4,2,1,50,0,0
34471,-117.647058823529,4,2,1,50,0,0
34804,-117.647058823529,4,2,1,50,0,0
35471,-100,4,2,1,70,0,0
42054,-100,4,2,1,5,0,0
42138,-100,4,2,1,70,0,0
44804,-200,4,2,1,70,0,0
46054,-200,4,2,1,5,0,0
46138,-166.666666666667,4,2,1,70,0,0
51471,-125,4,2,1,70,0,0
52804,-125,4,2,1,70,0,0
54138,-100,4,2,1,70,0,0
56471,-285.714285714286,4,2,1,30,0,0
56804,-100,4,2,1,80,0,1
67388,-100,4,2,1,80,0,0
67471,-100,4,2,1,80,0,1
72804,-125,4,2,1,80,0,0
74138,-125,4,2,1,80,0,0
75471,-125,4,2,1,80,0,0
77804,-166.666666666667,4,2,1,80,0,0
78054,-166.666666666667,4,2,1,5,0,0
78138,-100,4,2,1,80,0,0
80054,-100,4,2,1,5,0,0
80138,-100,4,2,1,80,0,0
80804,-100,4,2,1,80,0,1
91471,-200,4,2,1,80,0,0
96804,-200,4,2,1,5,0,0

[Colours]
Combo1 : 148,214,150
Combo2 : 236,173,241
Combo3 : 217,123,230
Combo4 : 251,138,132

[HitObjects]
180,88,805,6,0,P|231:83|282:80,1,103.199996850586,2|0,0:0|0:0,0:0:0:0:
244,176,1304,2,0,P|192:180|141:183,1,103.199996850586,2|0,0:0|0:0,0:0:0:0:
56,124,1804,1,0,0:0:0:0:
56,124,1971,1,0,0:0:0:0:
141,183,2138,6,0,P|144:234|144:286,1,103.199996850586,2|2,0:0|0:0,0:0:0:0:
243,248,2638,2,0,P|239:196|239:144,1,103.199996850586,2|0,0:0|0:0,0:0:0:0:
291,54,3138,1,0,0:0:0:0:
291,54,3304,1,0,0:0:0:0:
239,144,3471,6,0,L|128:132,1,103.199996850586,2|2,0:0|0:0,0:0:0:0:
68,212,3971,1,2,0:0:0:0:
188,272,4138,2,0,L|299:259,1,103.199996850586,0|0,0:0|0:0,0:0:0:0:
171,28,4804,6,0,P|132:60|118:109,1,103.199996850586,2|2,0:0|0:0,0:0:0:0:
204,168,5304,2,0,P|243:135|257:86,1,103.199996850586,2|0,0:0|0:0,0:0:0:0:
171,28,5804,2,0,L|112:20,1,51.599998425293,0|0,0:0|0:0,0:0:0:0:
256,86,6138,6,0,L|372:76,1,103.199996850586,2|2,0:0|0:0,0:0:0:0:
428,156,6638,1,0,0:0:0:0:
349,224,6804,2,0,L|341:172,1,51.599998425293,2|0,0:0|0:0,0:0:0:0:
444,248,7138,2,0,L|436:299,1,51.599998425293,2|0,0:0|0:0,0:0:0:0:
328,348,7471,6,0,P|300:340|220:332,1,103.199996850586,2|0,0:0|0:0,0:0:0:0:
100,356,7971,1,0,1:2:0:0:
236,196,8138,2,0,L|232:260,1,51.599998425293,8|0,0:0|0:0,0:0:0:0:
92,272,8471,2,0,L|88:220,1,51.599998425293,0|0,0:0|0:0,0:0:0:0:
192,112,8804,6,0,P|248:100|328:188,1,172,4|8,1:2|0:0,0:0:0:0:
376,348,9304,1,8,0:0:0:0:
236,196,9471,1,8,0:0:0:0:
456,204,9638,1,8,0:0:0:0:
324,32,9804,1,8,0:0:0:0:
256,316,9971,1,8,0:0:0:0:
512,124,10138,6,0,P|431:110|364:170,1,172,4|0,1:2|0:0,0:0:0:0:
184,340,10638,2,0,P|265:354|332:294,1,172,4|0,1:2|0:0,0:0:0:0:
116,164,11138,1,4,0:0:0:0:
108,172,11471,6,0,P|168:164|280:152,1,172,6|10,0:0|0:0,0:0:0:0:
464,220,11971,1,10,0:0:0:0:
208,316,12138,1,10,0:0:0:0:
492,384,12304,1,10,0:0:0:0:
328,88,12471,1,10,0:0:0:0:
116,352,12638,1,10,3:2:0:0:
116,352,12721,1,2,3:2:0:0:
116,352,12804,1,4,1:2:0:0:
336,120,13971,5,0,0:0:0:0:
336,120,14054,1,0,0:0:0:0:
336,120,14138,2,0,L|248:108,1,86,6|0,1:2|0:0,0:0:0:0:
118,220,14471,1,8,0:2:0:0:
130,52,14638,1,0,0:0:0:0:
238,276,14804,1,2,0:0:0:0:
250,108,14971,1,2,0:0:0:0:
112,304,15138,1,8,0:0:0:0:
124,136,15305,1,2,0:0:0:0:
294,352,15471,6,0,L|390:328,1,86,2|0,1:2|0:0,0:0:0:0:
484,192,15804,1,8,0:0:0:0:
512,360,15971,1,0,0:0:0:0:
349,163,16138,1,2,0:0:0:0:
377,331,16305,1,2,0:0:0:0:
472,108,16471,1,8,0:0:0:0:
500,276,16638,1,2,0:0:0:0:
300,80,16804,6,0,L|216:100,1,86,2|0,1:2|0:0,0:0:0:0:
40,228,17138,1,8,0:0:0:0:
220,240,17304,1,0,0:0:0:0:
40,80,17471,1,2,0:0:0:0:
132,288,17638,1,2,0:0:0:0:
180,52,17804,1,8,0:0:0:0:
16,200,17971,6,0,L|36:376,1,172,2|2,0:0|0:0,0:0:0:0:
196,160,18471,1,8,0:0:0:0:
172,340,18638,1,0,0:0:0:0:
92,120,18804,5,2,0:0:0:0:
280,232,18971,1,0,0:0:0:0:
26,288,19138,1,8,0:0:0:0:
236,156,19304,1,0,3:0:0:0:
236,156,19388,1,0,3:0:0:0:
235,156,19471,6,0,P|276:143|318:151,1,86,6|0,1:2|0:0,0:0:0:0:
460,268,19804,1,8,0:0:0:0:
452,102,19970,1,0,0:0:0:0:
325,316,20138,1,2,0:0:0:0:
317,150,20304,1,2,0:0:0:0:
464,372,20471,1,8,0:0:0:0:
200,312,20638,6,0,P|284:294|369:284,1,172,2|0,3:2|0:0,0:0:0:0:
512,196,21138,1,8,0:0:0:0:
300,120,21304,2,0,L|306:205,1,86,2|2,3:2|1:2,0:0:0:0:
500,112,21638,2,0,L|493:26,1,86,2|8,0:0|0:0,0:0:0:0:
228,184,21971,6,0,P|292:216|388:148,1,172,6|2,1:2|0:0,0:0:0:0:
184,72,22471,1,8,0:0:0:0:
160,296,22638,1,0,0:0:0:0:
60,76,22804,5,2,1:2:0:0:
300,120,22971,1,2,0:0:0:0:
32,216,23138,1,8,0:0:0:0:
328,260,23304,6,0,P|276:261|139:271,1,172,6|8,1:2|3:2,0:0:0:0:
4,196,23804,1,4,3:0:0:0:
212,92,23971,1,8,3:2:0:0:
212,92,24054,1,8,3:2:0:0:
212,92,24138,1,8,3:0:0:0:
59,18,24304,2,0,L|68:112,1,86,8|4,3:0|3:0,0:0:0:0:
200,0,24638,1,4,3:0:0:0:
286,156,24804,6,0,P|228:190|162:177,1,137.6,4|2,0:0|0:3,0:0:0:0:
212,92,25304,2,0,L|277:71,1,68.8,0|2,0:0|0:3,0:0:0:0:
368,208,25638,1,0,0:0:0:0:
368,208,25804,1,2,0:3:0:0:
286,156,25971,1,0,1:0:0:0:
136,192,26138,6,0,L|156:356,1,137.6,2|2,0:3|0:3,0:0:0:0:
40,246,26638,2,0,P|28:214|28:180,1,68.8,0|2,0:0|0:3,0:0:0:0:
231,137,26971,2,0,P|243:169|244:204,1,68.8,0|2,0:0|0:3,0:0:0:0:
136,192,27304,1,0,1:0:0:0:
172,28,27471,6,0,L|332:40,2,137.6,2|2|2,0:3|0:3|0:3,0:0:0:0:
84,92,28304,1,0,0:0:0:0:
84,92,28471,1,2,0:3:0:0:
168,160,28638,1,0,1:0:0:0:
136,304,28804,6,0,P|67:293|0:291,1,137.6,2|2,0:3|0:3,0:0:0:0:
24,152,29304,2,0,L|31:83,1,68.8,0|2,0:0|0:3,0:0:0:0:
192,140,29638,2,0,L|199:208,1,68.8,0|2,0:0|0:3,0:0:0:0:
296,280,29971,1,0,1:0:0:0:
424,136,30138,6,0,L|286:144,1,137.6,2|2,0:3|0:3,0:0:0:0:
208,316,30638,1,0,0:0:0:0:
368,344,30804,2,0,P|395:282|372:219,1,137.6,2|2,0:3|0:3,0:0:0:0:
264,132,31304,1,0,1:0:0:0:
172,248,31471,6,0,P|175:316|184:384,1,137.6,2|2,0:3|0:3,0:0:0:0:
296,280,31971,2,0,L|300:204,1,68.8,0|2,0:0|0:3,0:0:0:0:
144,156,32304,1,0,0:0:0:0:
144,156,32471,2,0,L|147:224,1,68.8,2|0,0:3|1:0,0:0:0:0:
216,80,32804,6,0,P|176:52|76:76,1,137.6,2|2,0:3|0:3,0:0:0:0:
176,192,33304,2,0,L|276:184,1,68.8,0|2,0:0|0:3,0:0:0:0:
400,136,33638,1,0,0:0:0:0:
248,204,33804,1,2,1:3:0:0:
290,94,33971,1,0,1:0:0:0:
358,246,34138,5,2,3:2:0:0:
290,94,34471,1,8,3:2:0:0:
358,246,34804,1,2,0:0:0:0:
280,328,34971,5,8,0:0:0:0:
249,324,35054,1,0,0:0:0:0:
219,320,35137,1,8,3:2:0:0:
189,317,35221,1,8,3:2:0:0:
159,313,35304,1,8,3:2:0:0:
128,310,35387,1,8,3:2:0:0:
98,306,35471,6,0,P|144:331|242:278,1,172,4|8,0:0|0:0,0:0:0:0:
56,132,35971,2,0,L|44:220,1,86,0|2,0:0|0:0,0:0:0:0:
233,84,36304,1,2,0:0:0:0:
241,280,36471,1,8,0:0:0:0:
139,186,36638,1,0,0:0:0:0:
334,178,36804,6,0,P|377:174|418:162,1,86,2|0,0:0|0:0,0:0:0:0:
256,60,37138,1,8,0:0:0:0:
160,172,37304,2,0,L|172:268,1,86,0|2,0:0|0:0,0:0:0:0:
348,288,37638,2,0,L|358:202,1,86,2|8,0:0|0:0,0:0:0:0:
288,68,37971,1,0,0:0:0:0:
160,172,38138,6,0,P|80:195|14:145,2,172,2|8|2,0:0|0:0|0:0,0:0:0:0:
256,292,38971,1,2,0:0:0:0:
296,116,39138,1,8,0:0:0:0:
392,236,39304,1,0,0:0:0:0:
188,184,39471,6,0,P|136:180|12:184,1,172,2|8,0:0|0:0,0:0:0:0:
120,328,39971,1,0,0:0:0:0:
296,192,40138,2,0,L|288:106,1,86,2|2,0:0|0:0,0:0:0:0:
84,20,40471,2,0,L|76:105,1,86,8|0,0:0|0:0,0:0:0:0:
231,263,40804,6,0,P|310:290|375:240,1,172,2|8,0:0|0:0,0:0:0:0:
284,76,41304,2,0,L|198:87,1,86,0|2,0:0|0:0,0:0:0:0:
64,188,41638,1,2,0:0:0:0:
136,280,41804,2,0,L|221:269,1,86,8|0,0:0|0:0,0:0:0:0:
424,340,42138,6,0,P|374:274|401:196,1,172,2|8,0:0|0:0,0:0:0:0:
360,40,42638,2,0,L|252:28,1,86,0|2,0:0|0:0,0:0:0:0:
88,152,42971,1,2,0:0:0:0:
308,120,43138,1,8,0:0:0:0:
104,44,43304,1,0,0:0:0:0:
156,280,43471,6,0,P|172:232|188:108,1,172,2|8,0:0|0:0,0:0:0:0:
4,256,43971,1,0,0:0:0:0:
20,88,44138,1,2,0:0:0:0:
20,88,44304,1,2,0:0:0:0:
140,320,44471,1,8,0:0:0:0:
136,148,44637,1,0,0:0:0:0:
36,384,44804,5,2,1:2:0:0:
272,328,44971,2,0,L|224:320,1,43,8|0,0:0|1:0,0:0:0:0:
41,223,45304,1,8,3:2:0:0:
62,219,45387,1,8,3:2:0:0:
84,216,45470,5,8,3:2:0:0:
4,148,45638,1,8,3:0:0:0:
40,308,45804,1,0,0:0:0:0:
308,112,46138,6,0,P|300:156|288:232,1,103.199996850586,4|0,0:0|0:0,0:0:0:0:
396,176,46638,1,2,0:0:0:0:
364,48,46804,2,0,P|336:28|256:44,1,103.199996850586,10|0,0:0|0:0,0:0:0:0:
164,112,47304,1,8,0:0:0:0:
308,112,47471,5,2,0:0:0:0:
156,128,47638,2,0,L|44:116,1,103.199996850586,8|2,0:0|0:0,0:0:0:0:
124,228,48138,2,0,L|226:217,1,103.199996850586,8|0,0:0|0:0,0:0:0:0:
320,44,48638,1,8,3:2:0:0:
320,44,48721,1,8,3:2:0:0:
320,44,48804,6,0,P|276:32|216:44,1,103.199996850586,2|0,0:0|0:0,0:0:0:0:
156,136,49304,1,2,0:0:0:0:
251,241,49471,2,0,L|268:140,1,103.199996850586,8|2,0:0|0:0,0:0:0:0:
88,224,49971,6,0,L|96:274,1,51.599998425293,8|2,3:2|3:2,0:0:0:0:
156,136,50304,2,0,L|147:85,1,51.599998425293,8|2,0:0|0:0,0:0:0:0:
48,120,50638,1,2,0:0:0:0:
256,172,50804,2,0,L|306:159,1,51.599998425293,8|2,0:0|0:0,0:0:0:0:
196,299,51138,1,8,0:0:0:0:
171,293,51221,1,8,0:0:0:0:
146,287,51304,1,8,3:2:0:0:
121,281,51388,1,8,3:2:0:0:
96,274,51471,6,0,P|62:268|27:269,1,68.8,6|0,1:2|0:0,0:0:0:0:
187,167,51804,2,0,P|221:172|256:172,1,68.8,10|2,1:2|0:0,0:0:0:0:
52,92,52138,2,0,L|60:188,1,68.8,2|2,1:2|0:0,0:0:0:0:
224,68,52471,2,0,L|216:-28,1,68.8,10|2,1:2|0:0,0:0:0:0:
423,135,52804,6,0,P|390:130|356:136,1,68.8,2|2,1:2|0:0,0:0:0:0:
224,68,53138,2,0,P|218:101|224:135,1,68.8,10|2,1:2|0:0,0:0:0:0:
156,267,53471,2,0,P|189:272|223:266,1,68.8,2|2,1:2|0:0,0:0:0:0:
355,334,53804,2,0,P|360:300|354:266,1,68.8,8|2,1:2|0:0,0:0:0:0:
224,135,54138,6,0,P|150:170|72:126,1,172,6|8,1:2|0:0,0:0:0:0:
300,28,54638,2,0,L|320:208,1,172,6|2,1:2|0:0,0:0:0:0:
152,72,55138,1,8,0:0:0:0:
400,104,55304,1,8,3:2:0:0:
400,104,55388,1,8,3:2:0:0:
400,104,55471,5,12,0:2:0:0:
152,72,55638,1,8,0:0:0:0:
234,291,55804,5,4,3:0:0:0:
241,259,55887,1,4,3:0:0:0:
248,228,55970,1,8,3:0:0:0:
253,196,56054,1,8,3:0:0:0:
256,164,56138,1,8,3:0:0:0:
256,164,56471,6,0,L|216:161,1,30.0999990814209,2|2,0:0|0:0,0:0:0:0:
328,282,56804,6,0,L|500:258,1,172,4|8,0:0|0:0,0:0:0:0:
371,155,57304,2,0,P|311:143|275:155,1,86,0|2,0:0|0:0,0:0:0:0:
96,228,57638,1,2,0:0:0:0:
244,56,57804,1,8,0:0:0:0:
268,236,57971,1,2,0:0:0:0:
24,152,58138,6,0,P|108:140|208:140,1,172,2|8,0:0|0:0,0:0:0:0:
64,332,58638,2,0,P|48:276|64:232,1,86,0|2,0:0|0:0,0:0:0:0:
168,60,58971,1,2,0:0:0:0:
144,280,59138,1,8,0:0:0:0:
24,152,59304,1,2,0:0:0:0:
252,172,59471,6,0,L|456:132,1,172,2|8,0:0|0:0,0:0:0:0:
312,344,59971,2,0,L|224:328,1,86,0|2,0:0|0:0,0:0:0:0:
44,260,60304,1,2,0:0:0:0:
284,192,60471,1,8,0:0:0:0:
100,123,60637,1,2,0:0:0:0:
115,368,60804,6,0,P|129:327|135:284,1,86,2|0,0:0|0:0,0:0:0:0:
100,123,61138,1,8,0:0:0:0:
291,39,61304,2,0,P|321:117|284:192,1,172,0|2,0:0|0:0,0:0:0:0:
100,123,61804,2,0,L|185:110,1,86,8|2,0:0|0:0,0:0:0:0:
356,264,62138,6,0,P|312:236|184:280,1,172,2|8,0:0|0:0,0:0:0:0:
276,344,62638,1,0,0:0:0:0:
472,272,62804,2,0,L|464:186,1,86,2|2,0:0|0:0,0:0:0:0:
256,120,63138,2,0,L|248:205,1,86,8|2,0:0|0:0,0:0:0:0:
352,28,63471,5,2,0:0:0:0:
128,68,63638,1,0,0:0:0:0:
340,240,63804,5,8,0:0:0:0:
236,24,63971,1,0,0:0:0:0:
100,256,64138,5,2,0:0:0:0:
312,120,64304,1,2,0:0:0:0:
28,56,64471,5,8,0:0:0:0:
232,228,64637,1,2,0:0:0:0:
0,384,64804,6,0,L|24:188,1,172,6|8,0:0|0:0,0:0:0:0:
286,145,65304,2,0,P|328:217|302:296,1,172,6|8,0:0|0:0,0:0:0:0:
144,132,65804,1,10,0:0:0:0:
144,132,65971,1,2,0:0:0:0:
64,267,66138,6,0,P|147:244|232:228,1,172,6|8,0:0|0:0,0:0:0:0:
456,136,66638,2,0,P|371:119|288:96,1,172,6|2,0:0|3:2,0:0:0:0:
88,16,67138,5,4,3:0:0:0:
104,53,67221,1,4,3:0:0:0:
81,86,67304,1,8,3:0:0:0:
40,83,67387,1,8,3:0:0:0:
23,46,67471,6,0,L|199:55,1,172,6|8,0:0|0:0,0:0:0:0:
384,204,67971,2,0,L|287:210,1,86,0|2,0:0|0:0,0:0:0:0:
200,324,68304,1,2,0:0:0:0:
424,280,68471,1,8,0:0:0:0:
276,120,68638,1,2,0:0:0:0:
360,352,68804,6,0,P|439:377|512:320,1,172,2|8,0:0|0:0,0:0:0:0:
384,204,69304,2,0,L|298:198,1,86,0|2,0:0|0:0,0:0:0:0:
112,136,69638,1,2,0:0:0:0:
344,320,69804,1,8,0:0:0:0:
316,84,69971,1,2,0:0:0:0:
56,228,70138,6,0,P|141:228|227:215,1,172,2|8,0:0|0:0,0:0:0:0:
84,120,70638,1,0,0:0:0:0:
0,300,70804,2,0,L|16:400,1,86,2|2,0:0|0:0,0:0:0:0:
213,300,71138,2,0,L|226:215,1,86,8|2,0:0|0:0,0:0:0:0:
478,136,71471,6,0,P|506:196|462:292,1,172,6|8,0:0|0:0,0:0:0:0:
226,215,71971,2,0,P|311:209|397:207,1,172,6|2,0:0|0:0,0:0:0:0:
252,356,72471,2,0,P|209:355|166:351,1,86,8|2,0:0|0:0,0:0:0:0:
72,224,72804,6,0,P|116:184|120:96,1,137.6,6|2,0:0|0:0,0:0:0:0:
32,136,73304,1,0,0:0:0:0:
164,268,73471,2,0,L|231:256,1,68.8,8|0,0:0|0:0,0:0:0:0:
272,100,73804,2,0,L|204:88,1,68.8
456,64,74138,5,2,0:0:0:0:
456,64,74304,2,0,L|474:226,1,137.6,8|0,0:0|0:0,0:0:0:0:
272,100,74804,2,0,P|308:84|346:88,1,68.8,10|0,0:0|0:0,0:0:0:0:
272,240,75138,2,0,P|237:240|207:225,1,68.8,2|0,0:0|0:0,0:0:0:0:
76,88,75471,6,0,P|100:150|75:215,1,137.6,2|0,0:0|0:0,0:0:0:0:
3,151,75971,1,0,0:0:0:0:
112,8,76138,2,0,L|200:20,1,68.8,8|0,0:0|0:0,0:0:0:0:
336,112,76471,2,0,L|224:128,1,103.2,4|0,0:0|0:0,0:0:0:0:
204,152,76804,5,8,0:0:0:0:
360,20,76971,1,2,0:0:0:0:
408,220,77138,1,2,3:2:0:0:
192,144,77304,2,0,P|260:136|356:128,1,137.6,4|8,3:0|3:0,0:0:0:0:
216,304,77804,6,0,P|159:302|121:286,1,77.3999976379395,10|0,0:0|0:0,0:0:0:0:
108,272,78138,5,6,0:0:0:0:
108,272,78471,1,10,0:0:0:0:
344,176,78638,1,10,0:0:0:0:
32,140,78804,1,10,0:0:0:0:
344,364,78971,1,10,0:0:0:0:
0,383,79138,1,10,3:2:0:0:
31,376,79221,1,0,3:0:0:0:
63,370,79304,1,0,3:0:0:0:
95,366,79387,1,0,3:0:0:0:
127,364,79471,1,2,1:2:0:0:
400,148,79804,6,0,P|336:142|273:129,1,129,6|0,0:0|0:0,0:0:0:0:
244,104,80138,5,8,3:2:0:0:
272,148,80221,1,0,3:0:0:0:
274,201,80304,1,0,3:2:0:0:
249,248,80387,1,0,3:0:0:0:
203,276,80471,1,8,0:0:0:0:
64,56,80638,1,8,3:2:0:0:
64,56,80721,1,8,3:2:0:0:
64,56,80804,6,0,L|168:36,1,86,6|0,1:2|0:0,0:0:0:0:
348,164,81138,1,8,0:0:0:0:
156,144,81304,1,0,0:0:0:0:
416,28,81471,1,2,0:0:0:0:
224,8,81637,1,2,0:0:0:0:
444,172,81804,1,8,0:0:0:0:
252,152,81970,1,2,0:0:0:0:
504,16,82138,6,0,L|500:116,1,86,2|0,1:2|0:0,0:0:0:0:
268,232,82471,1,8,0:0:0:0:
296,36,82638,1,0,0:0:0:0:
400,296,82804,1,2,0:0:0:0:
428,100,82971,1,2,0:0:0:0:
256,332,83138,1,8,0:0:0:0:
284,136,83305,1,2,0:0:0:0:
416,384,83471,6,0,L|324:372,1,86,2|0,1:2|0:0,0:0:0:0:
104,208,83804,1,8,0:0:0:0:
344,168,83971,1,0,0:0:0:0:
104,352,84138,1,2,0:0:0:0:
220,100,84304,1,2,0:0:0:0:
330,372,84471,1,8,0:0:0:0:
28,272,84638,6,0,P|72:244|192:280,1,172,2|2,0:0|0:0,0:0:0:0:
400,156,85138,1,8,0:0:0:0:
184,120,85304,1,0,0:0:0:0:
360,300,85471,5,2,0:0:0:0:
104,352,85638,1,2,0:0:0:0:
292,138,85804,1,8,0:0:0:0:
36,190,85971,1,2,0:0:0:0:
224,364,86138,6,0,L|227:278,1,86,6|0,1:2|0:0,0:0:0:0:
372,168,86471,1,8,0:0:0:0:
348,348,86638,1,0,0:0:0:0:
224,80,86804,1,2,0:0:0:0:
200,260,86971,1,2,0:0:0:0:
388,52,87138,1,8,0:0:0:0:
496,328,87304,6,0,L|308:316,1,172,0|0,3:0|0:0,0:0:0:0:
224,208,87804,1,8,0:0:0:0:
400,148,87971,2,0,P|408:204|392:240,1,86,0|2,3:0|1:2,0:0:0:0:
208,120,88304,2,0,P|200:64|216:28,1,86,2|8,0:0|0:0,0:0:0:0:
264,264,88638,6,0,P|200:232|104:300,1,172,6|2,1:2|0:0,0:0:0:0:
308,376,89138,1,8,0:0:0:0:
332,152,89305,1,0,0:0:0:0:
432,372,89471,5,8,1:2:0:0:
192,328,89638,1,2,0:0:0:0:
460,232,89805,1,8,0:0:0:0:
164,188,89971,6,0,P|216:187|353:177,1,172,6|8,1:2|0:0,0:0:0:0:
164,52,90471,1,8,3:2:0:0:
32,264,90638,1,8,3:2:0:0:
32,264,90721,1,2,3:2:0:0:
32,264,90804,5,2,3:2:0:0:
32,124,90971,1,2,3:2:0:0:
172,264,91138,1,8,3:2:0:0:
172,124,91304,1,2,3:2:0:0:
8,284,91471,5,6,0:0:0:0:
256,192,91554,12,0,96804,0:0:0:0:
