osu file format v14

[General]
AudioFilename: audio.mp3
AudioLeadIn: 0
PreviewTime: 56466
Countdown: 0
SampleSet: Soft
StackLeniency: 0.5
Mode: 0
LetterboxInBreaks: 0
WidescreenStoryboard: 0

[Editor]
DistanceSpacing: 1
BeatDivisor: 4
GridSize: 4
TimelineZoom: 1.2

[Metadata]
Title:Hitokoto no Kyori
TitleUnicode:ヒトコトの距離
Artist:*namirin
ArtistUnicode:*なみりん
Creator:Kroytz
Version:A Single Word Apart
Source:
Tags:M3-39 5colors utaite kalibe sharkie gaia haruto haruto_aizawa sotarks doormat
BeatmapID:1287292
BeatmapSetID:609569

[Difficulty]
HPDrainRate:6.5
CircleSize:3.5
OverallDifficulty:9
ApproachRate:9.2
SliderMultiplier:1.85
SliderTickRate:1

[Events]
//Background and Video events
0,0,"BG.jpg",0,0
//Break Periods
//Storyboard Layer 0 (Background)
//Storyboard Layer 1 (Fail)
//Storyboard Layer 2 (Pass)
//Storyboard Layer 3 (Foreground)
//Storyboard Sound Samples

[TimingPoints]
471,333.333333333333,4,2,1,60,1,0
805,333.333333333333,4,2,1,60,1,0
805,-133.333333333333,4,2,1,60,0,0
4388,-133.333333333333,4,2,1,5,0,0
4471,-133.333333333333,4,2,1,60,0,0
4721,-133.333333333333,4,2,1,5,0,0
4804,-133.333333333333,4,2,1,60,0,0
7054,-133.333333333333,4,2,1,5,0,0
7138,-133.333333333333,4,2,1,60,0,0
7388,-133.333333333333,4,2,1,5,0,0
7471,-133.333333333333,4,2,1,60,0,0
8804,-83.3333333333333,4,2,1,70,0,0
14138,-83.3333333333333,4,2,1,80,0,1
18221,-83.3333333333333,4,2,1,5,0,1
18304,-83.3333333333333,4,2,1,80,0,1
22221,-83.3333333333333,4,2,1,5,0,1
22304,-83.3333333333333,4,2,1,80,0,1
23554,-83.3333333333333,4,2,1,5,0,1
23638,-83.3333333333333,4,2,1,80,0,1
24804,-142.857142857143,4,2,1,40,0,0
34138,-142.857142857143,4,2,1,50,0,0
34471,-117.647058823529,4,2,1,50,0,0
34721,-117.647058823529,4,2,1,5,0,0
34804,-117.647058823529,4,2,1,50,0,0
35471,-100,4,2,1,70,0,0
42054,-100,4,2,1,5,0,0
42138,-100,4,2,1,70,0,0
45804,-500,4,2,1,70,0,0
46054,-500,4,2,1,5,0,0
46138,-125,4,2,1,70,0,0
51471,-111.111111111111,4,2,1,70,0,0
52804,-105.263157894737,4,2,1,70,0,0
54138,-100,4,2,1,70,0,0
56471,-200,4,2,1,30,0,0
56804,-83.3333333333333,4,2,1,80,0,1
57054,-83.3333333333333,4,2,1,5,0,1
57138,-83.3333333333333,4,2,1,80,0,1
58388,-83.3333333333333,4,2,1,5,0,1
58471,-83.3333333333333,4,2,1,80,0,1
59721,-83.3333333333333,4,2,1,5,0,1
59804,-83.3333333333333,4,2,1,80,0,1
61054,-83.3333333333333,4,2,1,5,0,1
61138,-83.3333333333333,4,2,1,80,0,1
62388,-83.3333333333333,4,2,1,5,0,1
62471,-83.3333333333333,4,2,1,80,0,1
63721,-83.3333333333333,4,2,1,5,0,1
63804,-83.3333333333333,4,2,1,80,0,1
66388,-83.3333333333333,4,2,1,5,0,1
66471,-83.3333333333333,4,2,1,80,0,1
66888,-83.3333333333333,4,2,1,5,0,1
66971,-83.3333333333333,4,2,1,80,0,1
67388,-83.3333333333333,4,2,1,80,0,0
67471,-83.3333333333333,4,2,1,80,0,1
67721,-83.3333333333333,4,2,1,5,0,1
67804,-83.3333333333333,4,2,1,80,0,1
69054,-83.3333333333333,4,2,1,5,0,1
69138,-83.3333333333333,4,2,1,80,0,1
70388,-83.3333333333333,4,2,1,5,0,1
70471,-83.3333333333333,4,2,1,80,0,1
71721,-83.3333333333333,4,2,1,5,0,1
71804,-83.3333333333333,4,2,1,80,0,1
72221,-83.3333333333333,4,2,1,5,0,1
72304,-83.3333333333333,4,2,1,80,0,1
72804,-125,4,2,1,80,0,0
74138,-111.111111111111,4,2,1,80,0,0
75471,-100,4,2,1,80,0,0
77804,-166.666666666667,4,2,1,80,0,0
78054,-125,4,2,1,5,0,0
78138,-83.3333333333333,4,2,1,80,0,0
80054,-83.3333333333333,4,2,1,5,0,0
80138,-83.3333333333333,4,2,1,80,0,0
80721,-83.3333333333333,4,2,1,80,0,0
80804,-83.3333333333333,4,2,1,80,0,1
84888,-83.3333333333333,4,2,1,5,0,1
84971,-83.3333333333333,4,2,1,80,0,1
88888,-83.3333333333333,4,2,1,5,0,1
88971,-83.3333333333333,4,2,1,80,0,1
90221,-83.3333333333333,4,2,1,5,0,1
90304,-83.3333333333333,4,2,1,80,0,1
91471,-200,4,2,1,80,0,0
96804,-200,4,2,1,5,0,0

[Colours]
Combo1 : 148,214,150
Combo2 : 236,173,241
Combo3 : 217,123,230
Combo4 : 251,138,132

[HitObjects]
47,149,805,6,0,P|103:110|169:122,1,138.750005292893,2|0,0:0|0:0,0:0:0:0:
254,184,1304,2,0,P|320:195|377:158,1,138.750005292893,2|0,0:0|0:0,0:0:0:0:
287,33,1804,2,0,L|301:100,1,69.3750026464463
478,193,2138,6,0,L|464:126,2,69.3750026464463,2|2|2,0:0|0:0|0:0,0:0:0:0:
417,278,2638,2,0,L|267:309,1,138.750005292893,2|0,0:0|0:0,0:0:0:0:
193,250,3138,1,0,0:0:0:0:
187,353,3304,1,0,0:0:0:0:
287,203,3471,6,0,P|287:171|271:134,1,69.3750026464463,2|2,0:0|0:0,0:0:0:0:
90,127,3804,2,0,P|89:158|105:195,1,69.3750026464463,2|2,0:0|0:0,0:0:0:0:
307,63,4138,6,0,P|256:58|206:90,1,104.06250396967
354,129,4471,2,0,P|383:87|381:28,1,104.06250396967
273,137,4804,6,0,L|295:221,1,69.3750026464463,2|2,0:0|0:0,0:0:0:0:
417,278,5138,1,2,0:0:0:0:
259,123,5304,2,0,L|297:274,1,138.750005292893,2|0,0:0|0:0,0:0:0:0:
433,345,5804,2,0,L|416:277,1,69.3750026464463
220,308,6138,6,0,P|277:345|343:330,1,138.750005292893,2|2,0:0|0:0,0:0:0:0:
120,191,6804,6,0,L|98:315,1,104.06250396967,2|0,0:0|0:0,0:0:0:0:
25,384,7138,2,0,L|6:281,1,104.06250396967,2|0,0:0|0:0,0:0:0:0:
69,118,7471,6,0,P|134:102|191:139,1,138.750005292893,2|0,0:0|0:0,0:0:0:0:
292,257,7971,1,0,1:2:0:0:
512,117,8138,2,0,P|447:101|390:138,1,138.750005292893,8|0,0:0|0:0,0:0:0:0:
256,356,8804,5,6,1:2:0:0:
256,384,9138,1,8,0:0:0:0:
191,139,9304,1,8,0:0:0:0:
99,372,9471,1,8,0:0:0:0:
308,235,9638,1,8,0:0:0:0:
57,224,9804,1,8,0:0:0:0:
256,384,9971,1,8,0:0:0:0:
264,75,10138,6,0,P|177:44|94:134,1,221.999993225098,4|0,1:2|0:0,0:0:0:0:
402,354,10638,2,0,L|455:139,1,221.999993225098,4|0,1:2|0:0,0:0:0:0:
179,249,11138,2,0,P|226:284|284:283,1,110.999996612549,4|0,0:0|0:0,0:0:0:0:
479,36,11471,5,6,0:0:0:0:
498,17,11804,1,10,0:0:0:0:
256,192,11971,1,10,0:0:0:0:
316,5,12138,1,10,0:0:0:0:
316,378,12305,1,10,0:0:0:0:
97,76,12471,1,10,0:0:0:0:
452,192,12638,2,0,L|378:216,1,55.4999983062745,10|2,3:2|3:2,0:0:0:0:
97,307,12804,1,4,1:2:0:0:
97,307,13971,5,0,0:0:0:0:
97,307,14054,1,0,0:0:0:0:
97,307,14138,6,0,P|149:321|202:307,1,110.999996612549,6|0,1:2|0:0,0:0:0:0:
345,102,14471,1,8,0:2:0:0:
150,221,14638,1,0,0:0:0:0:
351,331,14804,1,2,0:0:0:0:
188,64,14971,1,2,0:0:0:0:
202,306,15138,1,8,0:0:0:0:
405,173,15304,1,2,0:0:0:0:
110,12,15471,6,0,P|95:65|110:117,1,110.999996612549,2|0,1:2|0:0,0:0:0:0:
289,244,15804,1,8,0:0:0:0:
188,64,15971,1,0,0:0:0:0:
97,307,16138,1,2,0:0:0:0:
311,150,16304,1,2,0:0:0:0:
33,232,16471,1,8,0:0:0:0:
299,349,16638,1,2,0:0:0:0:
377,80,16804,5,2,1:2:0:0:
219,178,16971,1,0,0:0:0:0:
383,266,17138,1,8,0:0:0:0:
284,59,17304,1,0,0:0:0:0:
154,297,17471,1,2,0:0:0:0:
473,170,17638,1,2,0:0:0:0:
149,63,17804,1,8,0:0:0:0:
249,368,17971,6,0,P|271:286|238:213,1,166.499994918823,2|0,0:0|0:0,0:0:0:0:
219,178,18304,1,2,0:0:0:0:
154,297,18471,1,8,0:0:0:0:
380,173,18638,1,0,0:0:0:0:
125,142,18804,1,2,0:0:0:0:
249,368,18971,1,0,0:0:0:0:
284,59,19138,1,8,0:0:0:0:
7,215,19304,1,0,3:0:0:0:
7,215,19388,1,0,3:0:0:0:
7,215,19471,6,0,P|24:273|83:308,1,110.999996612549,6|0,1:2|0:0,0:0:0:0:
203,78,19804,1,8,0:0:0:0:
18,124,19971,1,0,0:0:0:0:
249,262,20138,1,2,0:0:0:0:
87,9,20304,1,2,0:0:0:0:
62,302,20471,1,8,0:0:0:0:
329,177,20638,1,2,3:2:0:0:
329,177,20721,1,0,0:0:0:0:
329,177,20804,6,0,P|371:211|384:264,1,110.999996612549,2|0,1:2|0:0,0:0:0:0:
159,162,21138,1,8,0:0:0:0:
429,87,21304,1,2,3:2:0:0:
429,87,21388,1,0,0:0:0:0:
429,87,21471,1,2,1:2:0:0:
316,330,21638,1,2,0:0:0:0:
241,61,21804,1,8,0:0:0:0:
140,330,21971,6,0,P|210:288|288:311,1,166.499994918823,6|0,1:2|0:0,0:0:0:0:
316,330,22304,1,2,0:0:0:0:
159,162,22471,1,8,0:0:0:0:
222,384,22638,1,0,0:0:0:0:
329,177,22804,1,2,1:2:0:0:
65,236,22971,1,2,0:0:0:0:
422,367,23138,1,8,0:0:0:0:
277,34,23304,6,0,P|198:56|164:134,1,166.499994918823,6|0,1:2|0:0,0:0:0:0:
159,162,23638,1,8,3:2:0:0:
48,119,23804,1,4,3:0:0:0:
176,279,23971,1,8,3:2:0:0:
176,279,24054,1,8,3:2:0:0:
176,279,24138,2,0,L|288:297,1,110.999996612549,8|8,3:0|3:0,0:0:0:0:
65,236,24471,2,0,L|47:348,1,110.999996612549,4|4,3:0|3:0,0:0:0:0:
375,344,24804,6,0,P|388:311|383:275,1,64.7499980239869,4|0,0:0|0:0,0:0:0:0:
281,142,25138,2,0,P|268:171|270:203,1,64.7499980239869,2|0,0:3|0:0,0:0:0:0:
429,197,25471,2,0,L|343:183,1,64.7499980239869,2|0,0:3|0:0,0:0:0:0:
189,158,25804,1,2,0:3:0:0:
285,296,25971,1,0,1:0:0:0:
362,92,26138,6,0,L|425:102,1,64.7499980239869,2|0,0:3|0:0,0:0:0:0:
221,70,26471,1,2,0:3:0:0:
221,70,26638,2,0,L|157:59,1,64.7499980239869,0|2,0:0|0:3,0:0:0:0:
362,92,26971,1,0,0:0:0:0:
189,158,27138,1,2,0:3:0:0:
221,70,27304,1,0,1:0:0:0:
48,136,27471,6,0,L|76:211,1,64.7499980239869,2|0,0:3|0:0,0:0:0:0:
125,334,27804,1,2,0:3:0:0:
157,246,27971,1,0,0:0:0:0:
33,352,28138,1,2,0:3:0:0:
216,315,28304,1,0,0:0:0:0:
216,315,28388,1,0,0:0:0:0:
216,315,28471,1,2,0:3:0:0:
66,265,28638,1,0,1:0:0:0:
262,228,28804,6,0,P|293:221|325:227,1,64.7499980239869,2|0,0:3|0:0,0:0:0:0:
248,369,29138,2,0,P|227:345|216:315,1,64.7499980239869,2|0,0:3|0:0,0:0:0:0:
376,313,29471,2,0,P|366:344|346:369,1,64.7499980239869,2|0,0:3|0:0,0:0:0:0:
413,225,29804,1,2,0:3:0:0:
471,298,29971,1,0,1:0:0:0:
447,138,30138,6,0,L|433:59,1,64.7499980239869,2|0,0:3|0:0,0:0:0:0:
326,26,30471,1,2,0:3:0:0:
326,26,30638,2,0,L|337:89,1,64.7499980239869,0|2,0:0|0:3,0:0:0:0:
258,161,30971,1,0,0:0:0:0:
156,129,31138,1,2,0:3:0:0:
235,56,31304,1,0,1:0:0:0:
54,97,31471,6,0,P|55:137|84:174,1,64.7499980239869,2|0,0:3|0:0,0:0:0:0:
179,234,31804,1,2,0:3:0:0:
78,261,31971,2,0,L|-2:283,1,64.7499980239869,0|2,0:0|0:3,0:0:0:0:
207,335,32304,2,0,L|287:312,1,64.7499980239869,0|2,0:0|0:3,0:0:0:0:
106,362,32638,1,0,1:0:0:0:
179,234,32804,6,0,P|178:194|149:157,1,64.7499980239869,2|0,0:3|0:0,0:0:0:0:
54,97,33138,1,2,0:3:0:0:
175,37,33304,2,0,L|247:0,1,64.7499980239869,0|2,0:0|0:3,0:0:0:0:
84,6,33638,1,0,0:0:0:0:
166,172,33804,1,2,1:3:0:0:
333,90,33971,1,0,1:0:0:0:
74,220,34138,5,2,3:2:0:0:
175,37,34304,1,0,3:0:0:0:
207,335,34471,2,0,L|328:301,1,117.937502249479,8|0,3:2|0:0,0:0:0:0:
349,295,34804,5,2,0:0:0:0:
112,360,34971,1,8,0:0:0:0:
426,331,35138,1,8,3:2:0:0:
433,302,35221,1,8,3:2:0:0:
431,273,35304,1,8,3:2:0:0:
419,246,35388,1,8,3:2:0:0:
399,225,35471,6,0,P|383:176|401:129,1,92.5,4|0,0:0|0:0,0:0:0:0:
480,8,35804,1,8,0:0:0:0:
293,29,35971,2,0,L|196:40,1,92.5,0|2,0:0|0:0,0:0:0:0:
221,222,36304,1,2,0:0:0:0:
301,120,36471,1,8,0:0:0:0:
119,140,36638,1,0,0:0:0:0:
138,321,36804,6,0,L|252:308,1,92.5,2|0,0:0|0:0,0:0:0:0:
39,242,37138,1,8,0:0:0:0:
311,348,37304,2,0,P|318:303|302:259,1,92.5,0|2,0:0|0:0,0:0:0:0:
119,140,37638,1,2,0:0:0:0:
229,310,37804,1,8,0:0:0:0:
293,29,37971,1,0,0:0:0:0:
26,107,38138,6,0,P|19:152|35:196,1,92.5,2|0,0:0|0:0,0:0:0:0:
205,82,38471,2,0,P|169:53|123:45,1,92.5,8|0,0:0|0:0,0:0:0:0:
137,249,38804,1,2,0:0:0:0:
295,132,38971,1,2,0:0:0:0:
26,107,39138,1,8,0:0:0:0:
139,352,39304,1,0,0:0:0:0:
139,352,39388,1,0,0:0:0:0:
139,352,39471,6,0,L|242:325,1,92.5,2|0,0:0|0:0,0:0:0:0:
434,227,39804,2,0,L|461:330,1,92.5,8|0,0:0|0:0,0:0:0:0:
295,132,40138,1,2,0:0:0:0:
498,172,40304,1,2,0:0:0:0:
222,243,40471,1,8,0:0:0:0:
368,21,40638,1,0,0:0:0:0:
374,335,40804,6,0,P|350:296|353:250,1,92.5,2|0,0:0|0:0,0:0:0:0:
479,94,41138,1,8,0:0:0:0:
163,124,41304,1,0,0:0:0:0:
163,124,41388,1,0,0:0:0:0:
163,124,41471,1,2,0:0:0:0:
360,153,41638,1,2,0:0:0:0:
44,183,41804,2,0,P|18:120|45:58,1,138.75,8|0,0:0|0:0,0:0:0:0:
164,36,42138,6,0,P|176:80|163:123,1,92.5,2|0,0:0|0:0,0:0:0:0:
35,301,42471,1,8,0:0:0:0:
352,250,42638,1,0,0:0:0:0:
352,250,42721,1,0,0:0:0:0:
352,250,42804,1,2,0:0:0:0:
140,367,42971,1,2,0:0:0:0:
457,316,43138,1,8,0:0:0:0:
255,67,43304,1,0,0:0:0:0:
255,67,43388,1,0,0:0:0:0:
255,66,43471,6,0,P|241:110|253:154,1,92.5,2|0,0:0|0:0,0:0:0:0:
457,315,43804,2,0,P|470:272|458:228,1,92.5,8|0,0:0|0:0,0:0:0:0:
201,270,44138,2,0,L|310:269,1,92.5,2|2,0:0|0:0,0:0:0:0:
512,108,44471,2,0,L|403:109,1,92.5,8|0,0:0|0:0,0:0:0:0:
352,373,44804,5,2,1:2:0:0:
457,227,44971,1,8,0:0:0:0:
173,356,45138,1,0,1:0:0:0:
472,220,45304,1,8,3:2:0:0:
487,213,45388,1,8,3:2:0:0:
502,206,45471,5,8,3:2:0:0:
187,348,45638,1,8,3:0:0:0:
221,4,45804,2,0,L|217:35,1,27.75
275,99,46138,6,0,P|207:119|139:73,1,148,4|0,0:0|0:0,0:0:0:0:
64,4,46638,1,2,0:0:0:0:
43,112,46804,2,0,L|22:271,1,148,10|0,0:0|0:0,0:0:0:0:
106,328,47304,1,8,0:0:0:0:
126,222,47471,5,2,0:0:0:0:
3,364,47638,1,8,0:0:0:0:
209,292,47804,1,2,0:0:0:0:
23,258,47971,1,2,0:0:0:0:
229,186,48138,2,0,L|304:160,1,74,8|0,0:0|0:0,0:0:0:0:
379,280,48471,2,0,L|304:254,1,74,0|8,0:0|3:2,0:0:0:0:
461,242,48721,1,8,3:2:0:0:
461,242,48804,6,0,P|466:313|418:367,1,148,2|0,0:0|0:0,0:0:0:0:
379,280,49304,1,2,0:0:0:0:
416,56,49471,1,8,0:0:0:0:
463,139,49638,1,0,0:0:0:0:
511,58,49804,1,2,0:0:0:0:
254,54,49971,1,8,3:2:0:0:
254,54,50054,1,0,3:3:0:0:
254,54,50138,5,2,3:2:0:0:
379,280,50304,1,8,0:0:0:0:
203,229,50471,1,2,0:0:0:0:
429,104,50638,1,2,0:0:0:0:
266,342,50804,5,8,0:0:0:0:
492,217,50971,1,8,0:0:0:0:
141,116,51138,1,8,0:0:0:0:
266,342,51304,2,0,L|277:307,1,37,8|8,3:2|3:2,0:0:0:0:
316,167,51471,5,6,1:2:0:0:
79,327,51638,1,0,0:0:0:0:
340,152,51804,5,10,1:2:0:0:
20,187,51971,1,2,0:0:0:0:
364,137,52138,5,2,1:2:0:0:
103,312,52304,1,2,0:0:0:0:
256,32,52471,5,10,1:2:0:0:
266,342,52638,1,2,0:0:0:0:
91,78,52804,5,2,1:2:0:0:
373,216,52971,1,2,0:0:0:0:
20,187,53138,5,10,1:2:0:0:
403,219,53304,1,2,0:0:0:0:
103,312,53471,5,2,1:2:0:0:
91,78,53638,1,2,0:0:0:0:
433,306,53804,2,0,P|443:263|432:221,1,87.8749976534844,8|2,1:2|0:0,0:0:0:0:
256,32,54138,5,6,1:2:0:0:
213,197,54304,1,0,0:0:0:0:
512,69,54471,1,8,0:0:0:0:
162,18,54638,5,6,1:2:0:0:
213,197,54804,1,2,0:0:0:0:
343,64,54971,1,2,0:0:0:0:
0,133,55138,5,8,0:0:0:0:
337,235,55304,1,8,3:2:0:0:
380,247,55388,1,8,3:2:0:0:
423,259,55471,5,12,0:2:0:0:
239,92,55638,1,8,0:0:0:0:
186,301,55804,2,0,L|168:371,1,46.25,4|4,3:0|3:0,0:0:0:0:
239,92,55971,2,0,L|256:21,1,46.25,8|8,3:0|3:0,0:0:0:0:
423,259,56138,1,8,3:0:0:0:
37,73,56471,6,0,L|37:129,1,46.25,2|2,0:0|0:0,0:0:0:0:
36,240,56804,6,0,B|105:196|105:196|187:218,1,166.499994918823,4|0,0:0|0:0,0:0:0:0:
176,377,57138,2,0,B|138:364|138:364|121:295,1,110.999996612549,8|0,0:0|0:0,0:0:0:0:
142,98,57471,2,0,L|250:126,1,110.999996612549,2|2,0:0|0:0,0:0:0:0:
429,282,57804,1,8,0:0:0:0:
187,218,57971,1,2,0:0:0:0:
470,367,58138,6,0,P|513:324|501:224,1,166.499994918823,2|0,0:0|0:0,0:0:0:0:
484,197,58471,1,8,0:0:0:0:
276,371,58638,1,0,0:0:0:0:
340,129,58804,1,2,0:0:0:0:
429,282,58971,1,2,0:0:0:0:
187,218,59138,1,8,0:0:0:0:
440,72,59304,1,2,0:0:0:0:
146,133,59471,6,0,P|103:176|115:276,1,166.499994918823,2|0,0:0|0:0,0:0:0:0:
240,139,59804,2,0,P|219:74|179:45,1,110.999996612549,8|0,0:0|0:0,0:0:0:0:
50,343,60138,2,0,P|113:367|161:354,1,110.999996612549,2|2,0:0|0:0,0:0:0:0:
430,269,60471,1,8,0:0:0:0:
187,218,60638,1,2,0:0:0:0:
397,61,60804,6,0,L|351:232,1,166.499994918823,2|0,0:0|0:0,0:0:0:0:
346,254,61138,1,8,0:0:0:0:
497,150,61304,1,0,0:0:0:0:
375,334,61471,2,0,P|321:336|277:304,1,110.999996612549,2|2,0:0|0:0,0:0:0:0:
146,133,61804,1,8,0:0:0:0:
346,254,61971,1,2,0:0:0:0:
58,308,62138,6,0,P|21:235|50:159,1,166.499994918823,2|0,0:0|0:0,0:0:0:0:
222,197,62471,2,0,P|176:228|121:228,1,110.999996612549,8|0,0:0|0:0,0:0:0:0:
305,39,62804,1,2,0:0:0:0:
342,159,62971,1,2,0:0:0:0:
146,133,63138,1,8,0:0:0:0:
428,67,63304,1,2,0:0:0:0:
344,344,63471,6,0,P|306:277|326:188,1,166.499994918823,2|0,0:0|0:0,0:0:0:0:
342,159,63804,1,8,0:0:0:0:
420,257,63971,1,0,0:0:0:0:
197,276,64138,2,0,B|117:281|117:281|81:243,1,110.999996612549,2|2,0:0|0:0,0:0:0:0:
326,49,64471,2,0,B|405:43|405:43|441:81,1,110.999996612549,8|2,0:0|0:0,0:0:0:0:
88,158,64804,6,0,P|2:219|17:323,1,221.999993225098,6|8,0:0|0:0,0:0:0:0:
355,231,65304,2,0,P|441:170|426:65,1,221.999993225098,6|8,0:0|0:0,0:0:0:0:
95,258,65804,1,10,0:0:0:0:
165,40,65971,1,2,0:0:0:0:
341,337,66138,6,0,P|276:299|264:199,1,166.499994918823,6|0,0:0|0:0,0:0:0:0:
264,181,66471,1,8,0:0:0:0:
503,15,66638,2,0,L|325:42,1,166.499994918823,6|0,0:0|0:0,0:0:0:0:
305,45,66971,1,2,3:2:0:0:
95,258,67138,2,0,L|86:203,1,55.4999983062745,4|4,3:0|3:0,0:0:0:0:
271,49,67304,2,0,L|279:103,1,55.4999983062745,8|8,3:0|3:0,0:0:0:0:
172,320,67471,6,0,P|101:358|25:331,1,166.499994918823,6|0,0:0|0:0,0:0:0:0:
6,304,67804,1,8,0:0:0:0:
169,95,67971,1,0,0:0:0:0:
169,95,68054,1,0,0:0:0:0:
169,95,68138,2,0,L|187:218,1,110.999996612549,2|2,0:0|0:0,0:0:0:0:
428,354,68471,2,0,L|411:244,1,110.999996612549,8|2,0:0|0:0,0:0:0:0:
238,20,68804,6,0,P|162:-6|91:31,1,166.499994918823,2|0,0:0|0:0,0:0:0:0:
70,59,69138,1,8,0:0:0:0:
346,145,69304,1,0,0:0:0:0:
346,145,69388,1,0,0:0:0:0:
346,145,69471,2,0,P|400:159|452:142,1,110.999996612549,2|2,0:0|0:0,0:0:0:0:
169,95,69804,2,0,L|150:218,1,110.999996612549,8|2,0:0|0:0,0:0:0:0:
428,354,70138,6,0,L|246:326,1,166.499994918823,2|0,0:0|0:0,0:0:0:0:
146,336,70471,2,0,L|276:355,1,110.999996612549,8|0,0:0|0:0,0:0:0:0:
74,266,70804,2,0,P|47:315|58:379,1,110.999996612549,2|2,0:0|0:0,0:0:0:0:
367,247,71138,2,0,P|372:192|345:144,1,110.999996612549,8|2,0:0|0:0,0:0:0:0:
51,3,71471,6,0,P|27:67|77:147,1,166.499994918823,6|0,0:0|0:0,0:0:0:0:
103,160,71804,1,8,0:0:0:0:
326,32,71971,2,0,L|112:66,1,166.499994918823,6|0,0:0|0:0,0:0:0:0:
129,65,72304,1,2,0:0:0:0:
345,144,72471,2,0,L|470:124,1,110.999996612549,8|2,0:0|0:0,0:0:0:0:
146,336,72804,6,0,B|26:355|26:355|47:316,1,148,6|2,0:0|0:0,0:0:0:0:
38,331,73304,1,0,0:0:0:0:
196,254,73471,2,0,P|240:312|232:384,1,148,8|0,0:0|0:0,0:0:0:0:
232,383,73971,1,0,0:0:0:0:
112,193,74138,6,0,L|202:156,1,83.2499974594117,2|8,0:0|0:0,0:0:0:0:
400,193,74471,2,0,L|323:161,1,83.2499974594117,2|0,0:0|0:0,0:0:0:0:
120,94,74804,2,0,P|88:68|74:29,1,83.2499974594117,10|0,0:0|0:0,0:0:0:0:
392,94,75138,2,0,P|423:68|437:29,1,83.2499974594117,2|0,0:0|0:0,0:0:0:0:
172,299,75471,6,0,P|255:335|338:300,1,185,2|0,0:0|0:0,0:0:0:0:
255,219,75971,1,0,0:0:0:0:
23,365,76138,2,0,L|35:263,1,92.5,8|0,0:0|0:0,0:0:0:0:
56,97,76471,1,4,0:0:0:0:
172,299,76638,1,0,0:0:0:0:
289,98,76804,5,8,0:0:0:0:
56,97,76971,1,2,0:0:0:0:
370,202,77138,1,2,3:2:0:0:
238,219,77304,1,4,3:0:0:0:
289,98,77471,1,2,3:2:0:0:
320,324,77638,1,8,3:0:0:0:
94,355,77804,2,0,L|82:267,1,83.2499974594117,10|0,0:0|0:0,0:0:0:0:
71,191,78138,5,6,0:0:0:0:
68,158,78471,1,10,0:0:0:0:
388,328,78638,1,10,0:0:0:0:
229,3,78804,1,10,0:0:0:0:
166,360,78971,1,10,0:0:0:0:
427,108,79138,2,0,L|368:116,1,55.4999983062745,10|0,3:2|3:0,0:0:0:0:
68,158,79304,2,0,L|126:149,1,55.4999983062745,0|0,3:0|3:0,0:0:0:0:
427,108,79471,5,2,1:2:0:0:
11,88,79804,2,0,P|-21:153|51:247,1,166.499994918823,6|0,0:0|0:0,0:0:0:0:
84,318,80138,2,0,L|137:304,1,55.4999983062745,8|0,3:2|3:0,0:0:0:0:
234,179,80304,2,0,L|248:232,1,55.4999983062745,0|0,3:2|3:0,0:0:0:0:
321,345,80471,1,8,0:0:0:0:
427,108,80638,1,8,3:2:0:0:
427,108,80721,1,8,3:2:0:0:
427,108,80804,6,0,P|374:91|321:106,1,110.999996612549,6|0,1:2|0:0,0:0:0:0:
321,345,81138,2,0,P|373:361|426:346,1,110.999996612549,8|0,0:0|0:0,0:0:0:0:
193,143,81471,1,2,0:0:0:0:
137,304,81638,1,2,0:0:0:0:
295,224,81804,1,8,0:0:0:0:
49,224,81971,1,2,0:0:0:0:
373,278,82138,6,0,P|388:225|373:172,1,110.999996612549,2|0,1:2|0:0,0:0:0:0:
91,22,82471,2,0,P|75:74|90:127,1,110.999996612549,8|0,0:0|0:0,0:0:0:0:
295,224,82804,1,2,0:0:0:0:
169,76,82971,1,2,0:0:0:0:
104,260,83138,1,8,0:0:0:0:
306,87,83304,1,2,0:0:0:0:
260,354,83471,6,0,P|207:369|154:354,1,110.999996612549,2|0,1:2|0:0,0:0:0:0:
21,186,83804,1,8,0:0:0:0:
254,244,83971,1,0,0:0:0:0:
21,341,84138,1,2,0:0:0:0:
280,234,84304,1,2,0:0:0:0:
3,165,84471,1,8,0:0:0:0:
349,159,84638,6,0,P|380:233|349:308,1,166.499994918823,2|0,0:0|0:0,0:0:0:0:
328,334,84971,1,2,0:0:0:0:
482,174,85138,1,8,0:0:0:0:
280,234,85304,1,0,0:0:0:0:
482,293,85471,1,2,0:0:0:0:
433,90,85638,1,2,0:0:0:0:
229,139,85804,1,8,0:0:0:0:
278,343,85971,1,2,0:0:0:0:
264,53,86138,6,0,P|203:49|153:87,1,110.999996612549,6|0,1:2|0:0,0:0:0:0:
48,241,86471,1,8,0:0:0:0:
13,98,86638,1,0,0:0:0:0:
154,342,86804,1,2,0:0:0:0:
189,199,86971,1,2,0:0:0:0:
13,384,87138,1,8,0:0:0:0:
295,300,87304,1,0,3:0:0:0:
295,300,87388,1,0,3:0:0:0:
295,300,87471,6,0,L|408:265,1,110.999996612549,2|0,1:2|0:0,0:0:0:0:
154,342,87804,1,8,0:0:0:0:
224,56,87972,1,0,3:0:0:0:
224,56,88055,1,0,3:0:0:0:
224,56,88138,2,0,L|117:88,1,110.999996612549,2|2,1:2|0:0,0:0:0:0:
365,14,88471,1,8,0:0:0:0:
32,38,88638,6,0,P|21:118|75:178,1,166.499994918823,6|0,1:2|0:0,0:0:0:0:
106,191,88971,1,2,0:0:0:0:
353,116,89138,1,8,0:0:0:0:
197,321,89304,1,0,0:0:0:0:
201,64,89471,1,8,1:2:0:0:
351,276,89638,1,2,0:0:0:0:
106,191,89804,1,8,0:0:0:0:
394,24,89971,6,0,P|447:85|437:165,1,166.499994918823,6|0,1:2|0:0,0:0:0:0:
427,196,90304,1,8,0:0:0:0:
214,159,90471,2,0,L|320:126,1,110.999996612549,8|8,3:2|3:2,0:0:0:0:
352,115,90721,1,2,3:2:0:0:
352,115,90804,1,2,3:2:0:0:
350,226,90971,1,2,3:2:0:0:
285,316,91138,1,8,3:2:0:0:
179,348,91304,1,2,3:2:0:0:
68,332,91471,5,6,0:0:0:0:
256,192,91554,12,0,96804,0:0:0:0:
