osu file format v14

[General]
AudioFilename: audio.mp3
AudioLeadIn: 0
PreviewTime: -1
Countdown: 0
SampleSet: Normal
StackLeniency: 0.7
Mode: 0
LetterboxInBreaks: 0
WidescreenStoryboard: 0

[Editor]
DistanceSpacing: 0.9
BeatDivisor: 4
GridSize: 8
TimelineZoom: 1.6

[Metadata]
Title:HIME HIME
TitleUnicode:HIME HIME
Artist:namirin
ArtistUnicode:namirin
Creator:RealXantoo
Version:H I M E
Source:
Tags:
BeatmapID:1395034
BeatmapSetID:658668

[Difficulty]
HPDrainRate:3.9
CircleSize:3.9
OverallDifficulty:5.9
ApproachRate:8.9
SliderMultiplier:1.4
SliderTickRate:1

[Events]
//Background and Video events
0,0,"HIME.png",0,0
//Break Periods
//Storyboard Layer 0 (Background)
//Storyboard Layer 1 (Fail)
//Storyboard Layer 2 (Pass)
//Storyboard Layer 3 (Foreground)
//Storyboard Sound Samples

[TimingPoints]
1933.74044128285,337.083050847457,4,1,0,100,1,0
3871,-200,4,1,0,100,0,0
4630,-66.6666666666667,4,1,0,100,0,1
28816,-133.333333333333,4,1,0,100,0,0

[HitObjects]
256,192,1765,12,0,2944,0:0:0:0:
256,188,3113,5,0,0:0:0:0:
256,188,3450,1,0,0:0:0:0:
256,188,3619,1,0,0:0:0:0:
360,68,3956,6,0,L|376:128,1,52.5
384,160,4293,1,0,0:0:0:0:
272,136,4461,1,0,0:0:0:0:
88,328,4630,5,0,0:0:0:0:
440,88,4798,1,0,0:0:0:0:
272,344,4967,1,0,0:0:0:0:
272,344,5136,1,0,0:0:0:0:
144,64,5304,5,0,0:0:0:0:
440,256,5473,1,0,0:0:0:0:
440,256,5641,1,0,0:0:0:0:
128,128,5810,6,0,L|0:64,2,105.000004005432
400,168,6315,2,0,L|528:104,1,105.000004005432
328,320,6652,1,0,0:0:0:0:
80,64,6821,1,0,0:0:0:0:
256,336,6989,1,0,0:0:0:0:
176,32,7158,1,0,0:0:0:0:
208,352,7327,1,0,0:0:0:0:
440,48,7495,5,0,0:0:0:0:
440,48,7664,1,0,0:0:0:0:
320,352,7832,1,0,0:0:0:0:
40,136,8001,1,0,0:0:0:0:
40,136,8169,1,0,0:0:0:0:
392,48,8338,6,0,L|456:224,1,157.500006008148
464,240,8675,1,0,0:0:0:0:
104,96,8843,1,0,0:0:0:0:
480,72,9012,1,0,0:0:0:0:
72,296,9181,1,0,0:0:0:0:
464,216,9349,2,0,P|496:160|432:192,1,157.500006008148
464,184,9686,1,0,0:0:0:0:
208,352,9855,1,0,0:0:0:0:
56,72,10023,5,0,0:0:0:0:
56,72,10192,1,0,0:0:0:0:
472,144,10360,1,0,0:0:0:0:
88,352,10529,1,0,0:0:0:0:
328,48,10697,1,0,0:0:0:0:
336,352,10866,2,0,P|264:344|192:304,1,105.000004005432
48,88,11203,1,0,0:0:0:0:
448,288,11372,1,0,0:0:0:0:
128,40,11540,1,0,0:0:0:0:
376,344,11709,1,0,0:0:0:0:
224,16,11877,1,0,0:0:0:0:
288,368,12046,1,0,0:0:0:0:
304,24,12214,6,0,P|376:56|424:104,1,105.000004005432
208,352,12551,1,0,0:0:0:0:
160,32,12720,2,0,P|232:48|280:80,1,105.000004005432
176,360,13057,1,0,0:0:0:0:
416,48,13226,5,0,0:0:0:0:
376,312,13394,1,0,0:0:0:0:
256,40,13563,1,0,0:0:0:0:
136,336,13731,1,0,0:0:0:0:
456,320,13900,5,0,0:0:0:0:
192,280,14068,1,0,0:0:0:0:
464,160,14237,1,0,0:0:0:0:
168,40,14405,1,0,0:0:0:0:
112,56,14490,1,0,0:0:0:0:
87,107,14574,1,0,0:0:0:0:
103,162,14658,1,0,0:0:0:0:
152,192,14742,1,0,0:0:0:0:
209,181,14827,1,0,0:0:0:0:
247,136,14911,1,0,0:0:0:0:
298,136,14995,1,0,0:0:0:0:
348,150,15079,1,0,0:0:0:0:
392,178,15163,1,0,0:0:0:0:
426,217,15248,1,0,0:0:0:0:
455,316,15416,1,0,0:0:0:0:
136,120,15585,6,0,L|96:0,1,105.000004005432
384,168,15922,2,0,L|424:64,1,105.000004005432
112,288,16259,2,0,L|24:176,1,105.000004005432
368,320,16596,1,0,0:0:0:0:
472,192,16765,1,0,0:0:0:0:
392,40,16933,1,0,0:0:0:0:
160,288,17102,1,0,0:0:0:0:
464,136,17271,1,0,0:0:0:0:
88,56,17439,1,0,0:0:0:0:
432,240,17608,1,0,0:0:0:0:
96,288,17776,1,0,0:0:0:0:
360,40,17945,5,0,0:0:0:0:
392,336,18113,1,0,0:0:0:0:
72,64,18282,1,0,0:0:0:0:
72,64,18450,1,0,0:0:0:0:
456,160,18619,5,0,0:0:0:0:
96,312,18787,1,0,0:0:0:0:
344,40,18956,1,0,0:0:0:0:
344,40,19124,1,0,0:0:0:0:
184,352,19293,6,0,P|112:320|88:264,1,105.000004005432
448,72,19630,1,0,0:0:0:0:
256,344,19799,1,0,0:0:0:0:
336,40,19967,2,0,P|416:72|432:88,1,105.000004005432
72,280,20304,1,0,0:0:0:0:
432,120,20473,1,0,0:0:0:0:
80,96,20641,1,0,0:0:0:0:
392,304,20810,1,0,0:0:0:0:
392,304,20978,1,0,0:0:0:0:
256,40,21147,5,0,0:0:0:0:
88,304,21316,1,0,0:0:0:0:
88,304,21484,1,0,0:0:0:0:
280,40,21653,5,0,0:0:0:0:
472,312,21821,1,0,0:0:0:0:
472,312,21990,1,0,0:0:0:0:
112,88,22158,1,0,0:0:0:0:
464,96,22327,1,0,0:0:0:0:
184,328,22495,1,0,0:0:0:0:
440,56,22664,1,0,0:0:0:0:
224,352,22832,1,0,0:0:0:0:
392,24,23001,1,0,0:0:0:0:
280,360,23169,1,0,0:0:0:0:
80,80,23507,6,0,L|184:24,1,105.000004005432
400,320,23844,1,0,0:0:0:0:
88,176,24181,6,0,L|144:64,1,105.000004005432
352,344,24518,1,0,0:0:0:0:
120,56,24686,1,0,0:0:0:0:
408,280,24855,1,0,0:0:0:0:
56,128,25023,1,0,0:0:0:0:
448,200,25192,1,0,0:0:0:0:
32,216,25361,1,0,0:0:0:0:
432,104,25529,5,0,0:0:0:0:
432,104,25613,1,0,0:0:0:0:
432,104,25698,1,0,0:0:0:0:
208,344,25866,1,0,0:0:0:0:
72,64,26035,1,0,0:0:0:0:
72,64,26203,1,0,0:0:0:0:
416,256,26372,5,0,0:0:0:0:
416,256,26456,1,0,0:0:0:0:
416,256,26540,1,0,0:0:0:0:
64,160,26709,1,0,0:0:0:0:
432,40,26877,1,0,0:0:0:0:
432,40,26962,1,0,0:0:0:0:
432,40,27046,1,0,0:0:0:0:
296,352,27214,1,0,0:0:0:0:
104,48,27383,1,0,0:0:0:0:
104,48,27467,1,0,0:0:0:0:
104,48,27552,1,0,0:0:0:0:
392,312,27720,5,0,0:0:0:0:
392,312,27889,1,0,0:0:0:0:
392,312,28057,1,0,0:0:0:0:
32,144,28394,5,0,0:0:0:0:
32,144,28563,1,0,0:0:0:0:
352,48,28900,5,0,0:0:0:0:
352,304,29068,2,0,L|352:344,2,26.2500010013581
248,80,29406,1,0,0:0:0:0:
144,256,29574,2,0,P|176:272|216:272,1,52.5000020027161
112,120,29911,1,0,0:0:0:0:
96,232,30080,1,0,0:0:0:0:
184,304,30248,1,0,0:0:0:0:
184,176,30417,6,0,L|184:128,2,26.2500010013581
304,48,30754,1,0,0:0:0:0:
376,176,30922,1,0,0:0:0:0:
224,144,31091,1,0,0:0:0:0:
376,48,31259,1,0,0:0:0:0:
328,216,31428,1,0,0:0:0:0:
224,48,31597,5,0,0:0:0:0:
392,136,31765,2,0,L|432:136,2,26.2500010013581
176,104,32102,1,0,0:0:0:0:
328,280,32271,1,0,0:0:0:0:
400,192,32439,1,0,0:0:0:0:
360,80,32608,1,0,0:0:0:0:
232,80,32776,1,0,0:0:0:0:
160,192,32945,2,0,L|160:232,2,26.2500010013581
232,128,33282,2,0,L|272:128,2,26.2500010013581
80,128,33619,1,0,0:0:0:0:
232,128,33788,5,0,0:0:0:0:
80,128,33956,1,0,0:0:0:0:
240,216,34125,1,0,0:0:0:0:
72,216,34293,1,0,0:0:0:0:
72,216,34462,1,0,0:0:0:0:
72,216,34630,1,0,0:0:0:0:
416,104,34967,5,0,0:0:0:0:
416,104,35136,1,0,0:0:0:0:
416,104,35304,1,0,0:0:0:0:
240,320,35642,5,0,0:0:0:0:
240,320,35810,1,0,0:0:0:0:
240,320,35979,1,0,0:0:0:0:
144,72,36316,5,0,0:0:0:0:
144,72,36484,1,0,0:0:0:0:
144,72,36653,1,0,0:0:0:0:
256,192,36821,12,0,38675,0:0:0:0:
