osu file format v14

[General]
AudioFilename: audio.mp3
AudioLeadIn: 0
PreviewTime: 149709
Countdown: 0
SampleSet: None
StackLeniency: 0.7
Mode: 0
LetterboxInBreaks: 0
WidescreenStoryboard: 0

[Editor]
DistanceSpacing: 1.3
BeatDivisor: 4
GridSize: 8
TimelineZoom: 1.5

[Metadata]
Title:Daidai Genome
TitleUnicode:橙ゲノム
Artist:*namirin
ArtistUnicode:*なみりん
Creator:Sotarks
Version:Tights
Source:
Tags:linada kyuukai yaleufeu realazy akitoshi corinn davided ascendance
BeatmapID:1483372
BeatmapSetID:700726

[Difficulty]
HPDrainRate:6
CircleSize:3.8
OverallDifficulty:8.7
ApproachRate:8.5
SliderMultiplier:1.52
SliderTickRate:1

[Events]
//Background and Video events
0,0,"pp.jpg",0,0
Video,0,"video.avi"
//Break Periods
2,70265,73145
2,81020,87367
2,114709,122923
2,129131,135367
2,150265,151367
2,180487,185145
//Storyboard Layer 0 (Background)
//Storyboard Layer 1 (Fail)
//Storyboard Layer 2 (Pass)
//Storyboard Layer 3 (Foreground)
//Storyboard Sound Samples

[TimingPoints]
19610,444.444444444444,4,3,22,52,1,0
19610,-98.0392156862745,4,3,22,52,0,0
22721,-81.9672131147541,4,3,22,62,0,0
28498,-81.9672131147541,4,3,22,42,0,0
32054,-98.0392156862745,4,3,22,52,0,0
56043,444.444444444444,4,3,22,72,1,1
56043,-81.9672131147541,4,3,22,72,0,1
56154,-81.9672131147541,4,3,22,72,0,0
73820,-98.0392156862745,4,3,22,52,0,0
97820,-138.888888888889,4,3,22,52,0,0
100487,-75.7575757575758,4,3,22,72,0,1
100598,-75.7575757575758,4,3,22,72,0,0
123598,-75.7575757575758,4,3,22,72,0,0
128042,-75.7575757575758,4,3,22,42,0,0
136042,-108.695652173913,4,3,22,42,0,0
139598,-108.695652173913,4,3,22,32,0,0
143154,-108.695652173913,4,3,22,42,0,0
146709,-161.290322580645,4,3,22,32,0,0
152042,-70.4225352112676,4,3,22,82,0,1
152154,-70.4225352112676,4,3,22,82,0,0
171598,-70.4225352112676,4,3,22,82,0,1
172931,-70.4225352112676,4,3,22,92,0,1
173376,-70.4225352112676,4,3,22,92,0,1
173487,-70.4225352112676,4,3,22,82,0,1
180042,-70.4225352112676,4,3,22,82,0,0
185820,-108.695652173913,4,3,22,52,0,0
187598,-98.0392156862745,4,3,22,62,0,0
191154,-89.2857142857143,4,3,22,62,0,0
200042,-89.2857142857143,4,3,22,72,0,1
203598,-89.2857142857143,4,3,22,72,0,0

[Colours]
Combo1 : 72,130,150
Combo2 : 70,81,106
Combo3 : 118,84,73
Combo4 : 145,80,82
SliderBorder : 230,222,185
SliderTrackOverride : 32,28,28

[HitObjects]
208,238,19610,5,2,1:0:0:0:
299,143,19832,1,2,0:0:0:0:
377,318,20054,1,2,1:0:0:0:
293,236,20276,1,2,0:0:0:0:
382,116,20498,1,2,1:0:0:0:
378,234,20721,1,2,0:0:0:0:
245,77,20943,2,0,P|198:69|145:69,1,77.5200004731445,2|0,1:0|0:0,0:0:0:0:
384,54,21387,5,2,1:0:0:0:
299,143,21609,1,2,0:0:0:0:
478,216,21832,1,2,1:0:0:0:
391,146,22054,1,2,0:0:0:0:
281,277,22276,1,2,1:0:0:0:
398,242,22498,1,2,0:0:0:0:
215,104,22721,2,0,P|151:121|120:152,1,92.7199961800539,14|0,0:0|0:0,0:0:0:0:
196,322,23165,6,0,L|203:217,1,92.7199961800539,6|0,1:0|0:0,0:0:0:0:
47,134,23609,2,0,L|53:226,1,92.7199961800539,10|0,0:0|0:0,0:0:0:0:
215,104,24054,2,0,L|221:11,1,92.7199961800539,2|0,1:0|0:0,0:0:0:0:
339,223,24498,2,0,L|345:315,1,92.7199961800539,10|0,0:0|0:0,0:0:0:0:
381,40,24943,6,0,L|492:25,1,92.7199961800539,2|0,1:0|0:0,0:0:0:0:
306,116,25387,2,0,L|195:101,1,92.7199961800539,10|0,0:0|0:0,0:0:0:0:
339,223,25832,2,0,L|450:208,1,92.7199961800539,2|0,1:0|0:0,0:0:0:0:
260,318,26276,2,0,L|149:303,1,92.7199961800539,10|0,0:0|0:0,0:0:0:0:
152,134,26721,5,6,1:0:0:0:
203,224,26943,1,2,0:0:0:0:
246,49,27165,2,0,L|236:154,1,92.7199961800539,10|0,0:0|0:0,0:0:0:0:
301,304,27609,1,10,0:0:0:0:
295,257,27720,1,8,0:0:0:0:
288,208,27831,1,10,0:0:0:0:
168,305,28054,1,6,1:0:0:0:
168,305,28498,5,2,1:0:0:0:
128,216,28721,1,2,0:0:0:0:
144,328,28943,1,2,1:0:0:0:
192,168,29165,1,2,0:0:0:0:
240,352,29387,1,2,1:0:0:0:
168,152,29609,1,2,0:0:0:0:
64,352,29832,1,2,1:0:0:0:
168,152,30276,5,2,1:0:0:0:
208,241,30499,1,2,0:0:0:0:
192,129,30721,1,2,1:0:0:0:
144,289,30943,1,2,0:0:0:0:
96,105,31165,1,2,1:0:0:0:
168,305,31387,1,2,0:0:0:0:
272,105,31610,1,2,1:0:0:0:
258,257,32054,6,0,P|308:243|349:240,1,77.5200004731445,6|0,1:0|0:0,0:0:0:0:
485,298,32498,1,10,0:0:0:0:
405,189,32721,1,2,0:0:0:0:
340,318,32943,1,2,1:0:0:0:
397,176,33165,1,2,0:0:0:0:
494,307,33387,1,10,0:0:0:0:
388,163,33609,1,2,0:0:0:0:
337,329,33832,6,0,P|276:352|244:354,1,77.5200004731445,2|0,1:0|0:0,0:0:0:0:
110,288,34276,1,10,0:0:0:0:
265,223,34498,1,2,0:0:0:0:
153,155,34721,2,0,P|179:220|196:308,1,155.040000946289,2|10,1:0|0:0,0:0:0:0:
267,199,35387,1,2,0:0:0:0:
339,347,35609,6,0,P|345:295|362:257,1,77.5200004731445,2|0,1:0|0:0,0:0:0:0:
260,120,36054,1,10,0:0:0:0:
275,279,36276,1,2,0:0:0:0:
348,113,36498,1,2,1:0:0:0:
432,269,36721,1,2,0:0:0:0:
314,201,36943,1,10,0:0:0:0:
430,110,37165,1,2,0:0:0:0:
435,349,37387,5,2,1:0:0:0:
392,191,37609,1,2,0:0:0:0:
326,334,37832,1,10,0:0:0:0:
314,201,38054,1,2,0:0:0:0:
223,314,38276,2,0,P|173:302|128:295,1,77.5200004731445,2|0,1:0|0:0,0:0:0:0:
42,199,38721,2,0,P|92:187|137:180,1,77.5200004731445,8|8,0:0|0:0,0:0:0:0:
218,215,39054,1,8,0:0:0:0:
237,226,39165,6,0,P|275:219|312:209,1,77.5200004731445,6|0,1:0|0:0,0:0:0:0:
190,121,39609,1,10,0:0:0:0:
156,277,39832,1,2,0:0:0:0:
320,184,40054,1,2,1:0:0:0:
164,160,40276,1,2,0:0:0:0:
207,313,40498,1,10,0:0:0:0:
308,154,40721,1,2,0:0:0:0:
117,242,40943,6,0,P|78:235|41:225,1,77.5200004731445,2|0,1:0|0:0,0:0:0:0:
202,81,41387,1,10,0:0:0:0:
254,225,41609,1,2,0:0:0:0:
335,49,41832,2,0,P|394:71|459:155,1,155.040000946289,2|10,1:0|0:0,0:0:0:0:
411,306,42498,1,2,0:0:0:0:
300,136,42721,6,0,P|261:142|224:152,1,77.5200004731445,2|0,1:0|0:0,0:0:0:0:
435,218,43165,1,10,0:0:0:0:
273,236,43387,1,2,0:0:0:0:
453,139,43609,2,0,P|415:129|377:122,1,77.5200004731445,2|0,1:0|0:0,0:0:0:0:
481,295,44054,1,10,0:0:0:0:
355,227,44276,1,2,0:0:0:0:
246,346,44498,5,2,1:0:0:0:
280,188,44721,1,2,0:0:0:0:
361,321,44943,1,10,0:0:0:0:
406,155,45165,1,2,0:0:0:0:
481,295,45387,2,0,P|469:267|432:212,1,77.5200004731445,2|0,1:0|0:0,0:0:0:0:
315,84,45832,2,0,P|327:138|327:148,1,38.7600002365723,10|2,0:0|0:0,0:0:0:0:
308,231,46054,1,10,0:0:0:0:
287,263,46165,1,10,0:0:0:0:
258,288,46276,6,0,P|208:277|159:275,1,77.5200004731445,6|0,1:0|0:0,0:0:0:0:
76,192,46721,2,0,P|113:182|151:178,1,77.5200004731445,10|0,0:0|0:0,0:0:0:0:
284,91,47165,2,0,P|246:81|208:77,1,77.5200004731445,2|0,1:0|0:0,0:0:0:0:
23,57,47609,1,10,0:0:0:0:
138,21,47832,1,2,0:0:0:0:
154,190,48054,5,2,1:0:0:0:
100,111,48276,1,2,0:0:0:0:
248,174,48498,1,10,0:0:0:0:
113,278,48721,1,0,0:0:0:0:
186,106,48943,1,0,1:0:0:0:
305,233,49165,1,0,0:0:0:0:
154,190,49387,2,0,P|83:202|59:210,1,77.5200004731445,10|0,0:0|0:0,0:0:0:0:
249,309,49832,5,2,1:0:0:0:
249,309,49943,1,0,0:0:0:0:
249,309,50054,1,0,0:0:0:0:
166,167,50276,1,10,0:0:0:0:
167,264,50498,1,2,0:0:0:0:
262,129,50721,1,2,1:0:0:0:
254,221,50943,1,2,0:0:0:0:
166,66,51165,1,10,0:0:0:0:
166,167,51387,1,2,0:0:0:0:
270,39,51609,5,2,1:0:0:0:
87,81,51832,1,0,0:0:0:0:
262,129,52054,1,8,0:0:0:0:
89,195,52276,1,0,0:0:0:0:
254,221,52498,1,2,1:0:0:0:
163,66,52721,1,2,0:0:0:0:
163,258,52943,1,10,0:0:0:0:
262,129,53165,1,10,0:0:0:0:
300,125,53276,1,8,0:0:0:0:
339,121,53387,6,0,P|400:131|441:150,1,77.5200004731445,2|2,1:0|0:0,0:0:0:0:
470,218,53721,1,0,0:0:0:0:
470,218,53832,2,0,P|471:277|468:309,1,77.5200004731445,10|8,0:0|0:0,0:0:0:0:
402,356,54165,1,8,0:0:0:0:
376,335,54276,2,0,P|327:329|284:329,1,77.5200004731445,0|8,1:0|0:0,0:0:0:0:
216,351,54609,1,8,0:0:0:0:
190,330,54720,2,0,P|141:324|98:324,1,77.5200004731445,0|0,1:0|0:0,0:0:0:0:
251,168,55165,5,2,1:0:0:0:
273,248,55387,1,2,0:0:0:0:
298,328,55609,1,2,0:0:0:0:
298,328,56043,6,0,B|343:314|403:323,1,92.7199961800539,6|0,1:0|0:0,0:0:0:0:
351,96,56487,2,0,P|312:145|298:178,1,92.7199961800539,10|0,0:0|0:0,0:0:0:0:
209,346,56931,2,0,P|188:304|157:269,1,92.7199961800539,2|0,1:0|0:0,0:0:0:0:
22,126,57376,2,0,P|76:133|123:124,1,92.7199961800539,10|0,0:0|0:0,0:0:0:0:
248,234,57820,5,2,0:0:0:0:
185,80,58043,1,2,0:0:0:0:
88,298,58265,1,10,0:0:0:0:
250,148,58487,1,2,0:0:0:0:
250,148,58598,1,0,0:0:0:0:
250,148,58709,2,0,P|300:144|354:143,1,92.7199961800539,2|0,1:0|0:0,0:0:0:0:
181,226,59154,1,8,0:0:0:0:
385,219,59376,1,8,0:0:0:0:
428,236,59487,1,8,0:0:0:0:
470,251,59598,5,6,1:0:0:0:
235,288,59820,1,2,1:0:0:0:
488,153,60042,1,10,0:0:0:0:
275,209,60265,2,0,L|158:195,1,92.7199961800539,2|0,0:0|1:0,0:0:0:0:
358,72,60709,1,2,1:0:0:0:
409,312,60931,1,10,0:0:0:0:
353,159,61154,1,2,0:0:0:0:
334,355,61376,5,2,1:0:0:0:
422,207,61598,1,2,0:0:0:0:
224,181,61820,1,10,0:0:0:0:
311,271,62042,1,2,0:0:0:0:
311,271,62154,1,0,0:0:0:0:
311,271,62265,1,6,1:0:0:0:
221,88,62487,1,0,1:0:0:0:
142,304,62709,2,0,P|128:252|122:239,1,46.3599980900269,0|0,1:0|0:0,0:0:0:0:
111,62,62931,2,0,P|104:84|99:106,1,46.3599980900269,8|8,0:0|0:0,0:0:0:0:
49,197,63154,6,0,L|154:178,1,92.7199961800539,6|8,1:0|0:0,0:0:0:0:
224,219,63487,1,8,0:0:0:0:
224,219,63598,1,10,0:0:0:0:
286,44,63820,1,10,0:0:0:0:
292,80,63931,1,8,0:0:0:0:
298,113,64042,2,0,L|312:234,1,92.7199961800539,6|0,1:0|0:0,0:0:0:0:
388,303,64376,1,0,0:0:0:0:
388,303,64487,2,0,L|398:210,1,92.7199961800539,14|0,0:0|0:0,0:0:0:0:
306,344,64931,5,2,1:0:0:0:
234,165,65154,1,2,0:0:0:0:
162,365,65376,1,10,0:0:0:0:
239,147,65598,1,2,0:0:0:0:
320,352,65820,2,0,P|272:322|228:309,1,92.7199961800539,2|0,1:0|0:0,0:0:0:0:
162,92,66265,2,0,P|210:122|254:135,1,92.7199961800539,12|8,0:0|0:0,0:0:0:0:
330,103,66598,1,8,0:0:0:0:
330,103,66709,5,6,1:0:0:0:
153,181,66931,1,2,1:0:0:0:
450,209,67154,1,10,0:0:0:0:
274,212,67376,1,2,0:0:0:0:
475,190,67598,1,2,1:0:0:0:
213,285,67820,1,2,1:0:0:0:
484,321,68042,1,10,0:0:0:0:
345,135,68265,1,2,0:0:0:0:
361,167,68376,1,0,0:0:0:0:
374,204,68487,6,0,P|381:260|378:315,1,92.7199961800539,6|2,0:0|0:0,0:0:0:0:
323,364,68820,1,0,0:0:0:0:
323,364,68931,1,6,0:0:0:0:
254,146,69154,1,2,0:0:0:0:
178,358,69376,2,0,P|125:332|96:305,1,92.7199961800539,6|0,0:0|0:0,0:0:0:0:
109,143,69820,1,0,0:0:0:0:
61,282,73820,6,0,B|161:266|100:337|239:308,1,155.040000946289,6|10,1:0|0:0,0:0:0:0:
411,230,74487,1,2,0:0:0:0:
189,233,74709,1,2,1:0:0:0:
411,230,74931,1,2,0:0:0:0:
189,233,75154,1,10,0:0:0:0:
298,276,75376,1,2,0:0:0:0:
298,276,75598,6,0,B|287:222|287:222|300:186|300:186|290:101,1,155.040000946289,2|10,1:0|0:0,0:0:0:0:
271,43,76265,1,2,0:0:0:0:
66,139,76487,2,0,P|139:109|236:104,1,155.040000946289,2|10,1:0|0:0,0:0:0:0:
292,124,77154,1,2,0:0:0:0:
168,224,77376,6,0,P|157:285|159:318,1,77.5200004731445,2|0,1:0|0:0,0:0:0:0:
292,124,77820,1,10,0:0:0:0:
321,240,78042,1,2,0:0:0:0:
208,89,78265,1,2,1:0:0:0:
168,224,78487,1,2,0:0:0:0:
296,39,78709,1,10,0:0:0:0:
336,211,78931,1,2,0:0:0:0:
179,42,79154,5,2,1:0:0:0:
139,214,79376,1,2,0:0:0:0:
235,111,79598,1,10,0:0:0:0:
250,211,79820,1,2,0:0:0:0:
321,129,80042,2,0,P|372:123|413:124,1,77.5200004731445,2|0,1:0|0:0,0:0:0:0:
476,167,80487,1,8,0:0:0:0:
413,242,80709,2,0,L|418:273,2,19.3800001182861,8|8|8,0:0|0:0|0:0,0:0:0:0:
193,85,88042,6,0,P|213:149|219:191,1,77.5200004731445,6|0,1:0|0:0,0:0:0:0:
270,301,88487,2,0,P|278:263|291:226,1,77.5200004731445,10|0,0:0|0:0,0:0:0:0:
202,76,88931,2,0,P|222:140|228:182,1,77.5200004731445,2|0,1:0|0:0,0:0:0:0:
278,313,89376,1,10,0:0:0:0:
305,144,89598,1,2,0:0:0:0:
191,314,89820,6,0,P|140:300|104:193,1,155.040000946289,2|10,1:0|0:0,0:0:0:0:
186,72,90487,1,0,0:0:0:0:
201,215,90709,1,0,1:0:0:0:
146,144,90931,1,0,0:0:0:0:
290,201,91154,2,0,P|291:240|246:292,1,77.5200004731445,10|0,0:0|0:0,0:0:0:0:
262,123,91598,5,2,1:0:0:0:
262,123,91709,1,0,0:0:0:0:
262,123,91820,1,0,0:0:0:0:
191,302,92042,1,10,0:0:0:0:
371,244,92265,1,2,0:0:0:0:
201,215,92487,1,2,1:0:0:0:
384,248,92709,1,2,0:0:0:0:
177,309,92931,1,10,0:0:0:0:
399,253,93154,1,2,0:0:0:0:
201,215,93376,6,0,P|134:220|99:228,1,77.5200004731445,2|0,1:0|0:0,0:0:0:0:
318,156,93820,2,0,P|356:157|395:162,1,77.5200004731445,8|0,0:0|0:0,0:0:0:0:
228,131,94265,1,2,1:0:0:0:
289,240,94487,1,2,0:0:0:0:
342,71,94709,1,10,0:0:0:0:
441,238,94931,1,8,0:0:0:0:
435,274,95042,1,8,0:0:0:0:
429,310,95154,5,2,1:0:0:0:
314,157,95376,1,2,1:0:0:0:
242,348,95598,1,10,0:0:0:0:
172,227,95820,1,8,0:0:0:0:
172,227,95931,1,8,0:0:0:0:
172,227,96042,1,0,1:0:0:0:
259,56,96265,6,8,L|258:119,1,38.7600002365723,10|8,0:0|0:0,0:0:0:0:
154,99,96487,2,8,L|165:163,1,38.7600002365723,10|8,0:0|0:0,0:0:0:0:
255,174,96709,2,8,L|254:237,1,38.7600002365723,10|8,0:0|0:0,0:0:0:0:
258,314,96931,5,0,1:0:0:0:
258,314,97042,1,0,1:0:0:0:
258,314,97153,1,10,0:0:0:0:
359,199,97376,1,2,1:0:0:0:
172,227,97598,1,8,0:0:0:0:
134,217,97709,1,8,0:0:0:0:
96,208,97820,6,0,P|82:172|67:137,1,54.7200013359375,4|2,1:0|0:0,0:0:0:0:
178,85,98265,2,0,P|167:110|157:135,1,54.7200013359375,2|2,0:0|0:0,0:0:0:0:
261,245,98709,5,2,1:0:0:0:
241,155,98931,1,2,0:0:0:0:
281,267,99154,1,10,0:0:0:0:
295,76,99376,1,2,0:0:0:0:
243,296,99598,1,2,1:0:0:0:
190,71,99820,1,2,0:0:0:0:
331,334,100042,1,10,0:0:0:0:
331,334,100487,6,0,P|342:274|363:224,1,100.319999693848,6|0,1:0|0:0,0:0:0:0:
290,90,100931,1,10,0:0:0:0:
277,221,101154,1,2,0:0:0:0:
373,84,101376,2,0,P|354:35|352:33,2,50.1599998469238,2|0|0,1:0|0:0|0:0,0:0:0:0:
213,128,101820,2,0,P|207:65|241:21,1,100.319999693848,10|0,0:0|0:0,0:0:0:0:
353,170,102265,5,2,1:0:0:0:
177,210,102487,1,2,0:0:0:0:
290,90,102709,1,10,0:0:0:0:
340,267,102931,1,2,0:0:0:0:
340,267,103042,1,0,0:0:0:0:
340,267,103154,2,0,P|394:290|441:300,1,100.319999693848,2|0,1:0|0:0,0:0:0:0:
276,170,103598,2,0,P|228:194|221:201,1,50.1599998469238,8|0,0:0|0:0,0:0:0:0:
178,363,103820,2,0,P|201:354|222:340,1,50.1599998469238,8|8,0:0|0:0,0:0:0:0:
182,266,104042,5,6,1:0:0:0:
91,103,104265,1,2,1:0:0:0:
58,304,104487,1,10,0:0:0:0:
135,181,104709,1,2,0:0:0:0:
223,341,104931,1,2,1:0:0:0:
303,147,105154,1,2,1:0:0:0:
388,344,105376,1,10,0:0:0:0:
305,230,105598,1,2,0:0:0:0:
216,352,105820,5,2,1:0:0:0:
155,167,106042,1,2,0:0:0:0:
63,296,106265,2,0,P|119:275|172:270,1,100.319999693848,10|0,0:0|0:0,0:0:0:0:
240,276,106598,1,0,0:0:0:0:
240,276,106709,1,6,1:0:0:0:
65,200,106931,1,0,1:0:0:0:
282,198,107154,2,0,P|317:196|345:179,1,50.1599998469238,8|0,0:0|0:0,0:0:0:0:
255,57,107376,2,0,P|234:108|244:134,1,50.1599998469238,8|8,0:0|0:0,0:0:0:0:
408,80,107598,6,0,P|363:104|313:105,1,100.319999693848,6|0,1:0|0:0,0:0:0:0:
135,97,108042,1,10,0:0:0:0:
273,26,108265,1,2,0:0:0:0:
174,167,108487,2,0,P|156:226|150:285,1,100.319999693848,2|0,1:0|0:0,0:0:0:0:
354,215,108931,2,0,P|346:165|330:117,1,100.319999693848,10|0,0:0|0:0,0:0:0:0:
262,298,109376,5,2,1:0:0:0:
431,247,109598,1,2,0:0:0:0:
269,186,109820,1,10,0:0:0:0:
346,335,110042,1,2,0:0:0:0:
330,117,110265,2,0,P|270:94|213:112,1,100.319999693848,2|0,1:0|0:0,0:0:0:0:
111,216,110709,1,8,0:0:0:0:
96,50,110931,1,10,0:0:0:0:
129,80,111042,1,8,0:0:0:0:
149,120,111153,5,6,1:0:0:0:
131,306,111376,1,2,1:0:0:0:
60,136,111598,1,10,0:0:0:0:
214,292,111820,1,2,0:0:0:0:
237,104,112042,1,2,1:0:0:0:
126,317,112265,1,2,1:0:0:0:
242,94,112487,1,10,0:0:0:0:
297,264,112709,1,10,0:0:0:0:
341,250,112820,1,8,0:0:0:0:
382,237,112931,5,6,1:0:0:0:
216,172,113154,1,10,0:0:0:0:
172,158,113265,1,8,0:0:0:0:
131,145,113376,1,6,1:0:0:0:
345,89,113598,1,2,1:0:0:0:
408,315,113820,1,6,1:0:0:0:
307,177,114042,1,2,0:0:0:0:
259,275,114265,1,10,0:0:0:0:
215,235,123598,5,6,1:0:0:0:
251,146,123820,1,2,0:0:0:0:
460,273,124042,1,2,1:0:0:0:
424,184,124265,1,2,0:0:0:0:
291,335,124487,1,2,1:0:0:0:
336,169,124709,1,2,0:0:0:0:
374,303,124931,1,2,1:0:0:0:
374,303,125376,5,6,1:0:0:0:
287,244,125598,1,2,0:0:0:0:
412,142,125820,1,2,1:0:0:0:
325,83,126042,1,2,0:0:0:0:
212,195,126265,1,0,1:0:0:0:
212,195,126376,1,0,0:0:0:0:
212,195,126487,1,0,0:0:0:0:
310,165,126709,1,2,1:0:0:0:
310,165,127154,5,6,1:0:0:0:
265,79,127376,1,2,0:0:0:0:
166,266,127598,1,2,1:0:0:0:
121,180,127820,1,2,0:0:0:0:
96,312,128042,5,2,2:0:0:0:
175,346,128265,1,2,2:0:0:0:
244,296,128487,1,2,2:0:0:0:
234,212,128709,1,2,2:0:0:0:
258,381,128931,5,4,1:0:0:0:
264,104,136042,6,0,P|306:133|316:160,1,69.9199976528321,2|0,1:0|0:0,0:0:0:0:
228,187,136487,2,0,P|186:158|176:131,1,69.9199976528321,10|0,0:0|0:0,0:0:0:0:
256,23,136931,1,2,1:0:0:0:
313,148,137154,1,0,1:0:0:0:
165,65,137376,2,0,P|119:89|106:115,1,69.9199976528321,10|0,0:0|0:0,0:0:0:0:
173,225,137820,6,0,P|219:201|232:175,1,69.9199976528321,2|0,1:0|0:0,0:0:0:0:
72,201,138265,2,0,P|26:225|13:251,1,69.9199976528321,10|0,0:0|0:0,0:0:0:0:
161,319,138709,1,2,1:0:0:0:
110,103,138931,1,0,1:0:0:0:
85,280,139154,1,8,0:0:0:0:
85,280,139598,6,0,L|239:269,1,139.839995305664,2|10,1:0|0:0,0:0:0:0:
448,125,140487,1,2,1:0:0:0:
326,85,140709,1,0,1:0:0:0:
368,283,140931,1,10,0:0:0:0:
368,283,141376,5,2,1:0:0:0:
345,184,141598,1,2,1:0:0:0:
283,361,141820,1,10,0:0:0:0:
283,361,142265,5,2,1:0:0:0:
160,335,142487,1,0,1:0:0:0:
368,283,142709,1,8,0:0:0:0:
368,283,143154,6,0,P|358:221|334:191,1,69.9199976528321,2|0,1:0|0:0,0:0:0:0:
254,113,143598,2,0,P|264:175|288:205,1,69.9199976528321,10|0,0:0|0:0,0:0:0:0:
300,32,144042,1,2,1:0:0:0:
179,59,144265,1,0,1:0:0:0:
351,128,144487,2,0,L|427:176,1,69.9199976528321,10|0,0:0|0:0,0:0:0:0:
203,223,144931,2,0,P|163:212|133:183,1,69.9199976528321,2|0,1:0|0:0,0:0:0:0:
117,30,145376,2,0,P|157:41|187:70,1,69.9199976528321,10|0,0:0|0:0,0:0:0:0:
207,142,145820,1,2,1:0:0:0:
115,115,146042,1,0,1:0:0:0:
83,128,146153,1,0,1:0:0:0:
62,156,146264,1,10,0:0:0:0:
280,48,146709,6,0,P|275:72|281:104,2,47.1199981306153,2|2|2,2:0|2:0|2:0,2:0:0:0:
231,257,147598,1,2,2:0:0:0:
165,45,148042,1,2,2:0:0:0:
315,239,148487,2,0,P|320:262|314:286,2,47.1199981306153,2|2|2,2:0|2:0|2:0,2:0:0:0:
327,66,152042,6,0,B|264:55|288:102|190:74,1,107.919994565796,6|0,1:0|0:0,0:0:0:0:
126,172,152487,2,0,B|189:161|165:208|263:180,1,107.919994565796,10|0,0:0|0:0,0:0:0:0:
329,154,152931,1,2,1:0:0:0:
329,154,153042,1,0,0:0:0:0:
329,154,153154,1,0,0:0:0:0:
119,93,153376,2,0,P|58:126|44:177,1,107.919994565796,10|0,0:0|0:0,0:0:0:0:
145,258,153820,5,2,1:0:0:0:
222,81,154042,1,2,0:0:0:0:
307,254,154265,1,10,0:0:0:0:
160,174,154487,2,0,P|103:186|92:197,1,53.9599972828981,2|0,0:0|0:0,0:0:0:0:
104,333,154709,2,0,P|167:339|210:310,1,107.919994565796,2|0,1:0|0:0,0:0:0:0:
256,136,155154,2,0,P|300:102|319:100,1,53.9599972828981,8|0,0:0|0:0,0:0:0:0:
449,127,155376,1,10,0:0:0:0:
468,164,155487,1,8,0:0:0:0:
472,208,155598,5,6,1:0:0:0:
343,334,155820,1,2,1:0:0:0:
329,175,156042,1,10,0:0:0:0:
421,346,156265,1,2,0:0:0:0:
259,317,156487,1,2,1:0:0:0:
358,97,156709,1,2,1:0:0:0:
421,346,156931,1,10,0:0:0:0:
329,175,157154,1,2,0:0:0:0:
242,350,157376,6,0,L|106:333,1,107.919994565796,2|2,1:0|0:0,0:0:0:0:
68,260,157709,1,2,0:0:0:0:
61,244,157820,2,0,P|50:176|73:121,1,107.919994565796,10|2,0:0|0:0,0:0:0:0:
228,31,158265,1,6,1:0:0:0:
337,231,158487,1,0,1:0:0:0:
163,124,158709,2,0,P|146:189|145:200,1,53.9599972828981,8|0,0:0|0:0,0:0:0:0:
284,300,158931,1,8,0:0:0:0:
334,317,159042,1,8,0:0:0:0:
385,303,159154,6,0,P|419:251|406:185,1,107.919994565796,6|0,1:0|0:0,0:0:0:0:
186,256,159598,2,0,P|113:261|66:211,1,107.919994565796,10|0,0:0|0:0,0:0:0:0:
377,132,160042,2,0,P|450:127|497:177,1,107.919994565796,2|0,1:0|0:0,0:0:0:0:
147,175,160487,2,0,P|113:123|126:57,1,107.919994565796,10|0,0:0|0:0,0:0:0:0:
252,160,160931,5,2,1:0:0:0:
345,47,161154,1,2,0:0:0:0:
416,207,161376,1,10,0:0:0:0:
337,137,161598,1,2,0:0:0:0:
311,317,161820,2,0,P|253:316|205:285,1,107.919994565796,2|0,1:0|0:0,0:0:0:0:
134,108,162265,1,8,0:0:0:0:
266,31,162487,1,10,0:0:0:0:
262,77,162598,1,8,0:0:0:0:
258,121,162709,5,6,1:0:0:0:
53,95,162931,1,2,1:0:0:0:
348,57,163154,1,10,0:0:0:0:
180,180,163376,1,2,0:0:0:0:
428,245,163598,1,2,1:0:0:0:
258,121,163820,1,2,1:0:0:0:
156,313,164042,1,10,0:0:0:0:
190,64,164265,1,2,0:0:0:0:
231,37,164376,1,0,0:0:0:0:
278,34,164487,6,0,P|329:65|343:135,1,107.919994565796,6|10,1:0|0:0,0:0:0:0:
327,261,164820,1,8,0:0:0:0:
323,281,164931,2,0,P|272:250|258:180,1,107.919994565796,6|10,1:0|0:0,0:0:0:0:
422,88,165376,1,6,1:0:0:0:
374,345,165598,1,8,0:0:0:0:
324,365,165709,1,8,0:0:0:0:
273,352,165820,1,6,1:0:0:0:
201,144,166042,1,10,0:0:0:0:
251,124,166154,1,8,0:0:0:0:
302,137,166265,6,0,P|340:160|428:146,1,107.919994565796,6|0,1:0|0:0,0:0:0:0:
252,43,166709,1,10,0:0:0:0:
248,215,166931,1,2,0:0:0:0:
170,69,167154,2,0,P|132:46|44:60,1,107.919994565796,2|0,1:0|0:0,0:0:0:0:
147,237,167598,2,0,P|200:239|247:214,1,107.919994565796,8|0,0:0|0:0,0:0:0:0:
104,126,168042,5,0,1:0:0:0:
114,314,168265,1,0,0:0:0:0:
179,159,168487,1,8,0:0:0:0:
223,309,168709,2,0,P|256:315|293:313,1,53.9599972828981
314,168,168931,1,0,1:0:0:0:
147,237,169154,1,0,0:0:0:0:
361,243,169376,2,0,P|385:225|399:191,1,53.9599972828981,8|0,0:0|0:0,0:0:0:0:
293,84,169598,1,8,0:0:0:0:
249,104,169709,1,8,0:0:0:0:
226,145,169820,5,6,1:0:0:0:
276,315,170042,1,2,1:0:0:0:
379,114,170265,2,0,P|376:50|333:0,1,107.919994565796,10|0,0:0|0:0,0:0:0:0:
151,101,170709,2,0,P|140:147|157:189,1,53.9599972828981,2|0,1:0|0:0,0:0:0:0:
218,253,170931,1,2,1:0:0:0:
293,84,171154,2,0,P|251:40|182:28,1,107.919994565796,10|0,0:0|0:0,0:0:0:0:
83,208,171598,5,6,1:0:0:0:
223,149,171820,1,2,0:0:0:0:
18,141,172042,5,14,0:0:0:0:
45,284,172265,1,2,0:0:0:0:
152,80,172487,5,6,1:0:0:0:
213,267,172709,1,10,0:0:0:0:
360,48,172931,5,14,0:0:0:0:
320,298,173153,1,8,0:0:0:0:
288,342,173265,1,8,0:0:0:0:
233,365,173376,5,6,1:0:0:0:
118,153,173598,1,8,0:0:0:0:
150,109,173710,1,8,0:0:0:0:
205,86,173821,1,6,1:0:0:0:
435,96,174042,1,10,0:0:0:0:
403,140,174154,1,8,0:0:0:0:
348,163,174265,2,0,P|277:170|231:158,1,107.919994565796,6|0,1:0|0:0,0:0:0:0:
34,30,174709,2,0,P|105:23|151:35,1,107.919994565796,10|0,0:0|1:0,0:0:0:0:
196,94,175042,1,0,1:0:0:0:
196,94,175154,5,6,1:0:0:0:
162,323,175376,1,10,0:0:0:0:
319,74,175598,5,6,1:0:0:0:
430,291,175820,1,10,0:0:0:0:
182,182,176042,2,0,P|92:216|65:241,1,107.919994565796,6|0,1:0|0:0,0:0:0:0:
389,215,176487,1,8,0:0:0:0:
211,84,176709,1,10,0:0:0:0:
157,81,176820,1,8,0:0:0:0:
110,106,176931,5,6,1:0:0:0:
207,341,177154,1,2,1:0:0:0:
362,83,177376,5,10,0:0:0:0:
56,177,177598,1,2,0:0:0:0:
300,324,177820,5,2,1:0:0:0:
275,32,178042,1,2,1:0:0:0:
77,323,178265,5,10,0:0:0:0:
383,229,178487,1,2,0:0:0:0:
149,34,178709,6,0,B|173:108|120:76|160:176,1,107.919994565796,2|0,1:0|0:0,0:0:0:0:
296,305,179154,2,0,B|315:244|275:267|294:199,1,107.919994565796,10|8,0:0|0:0,0:0:0:0:
329,128,179487,1,8,0:0:0:0:
329,128,179598,1,6,1:0:0:0:
209,325,179820,1,8,0:0:0:0:
163,336,179931,1,8,0:0:0:0:
118,326,180042,1,6,1:0:0:0:
191,77,185820,6,0,L|199:163,1,69.9199976528321,0|0,1:0|0:0,0:0:0:0:
293,121,186265,2,0,L|286:190,1,69.9199976528321,0|0,1:0|0:0,0:0:0:0:
384,154,186709,1,0,1:0:0:0:
409,312,186931,1,0,0:0:0:0:
281,270,187154,1,0,1:0:0:0:
246,276,187265,1,0,1:0:0:0:
212,283,187376,1,0,1:0:0:0:
178,290,187487,1,0,1:0:0:0:
143,297,187598,5,4,1:0:0:0:
264,186,187820,1,0,0:0:0:0:
299,355,188042,1,8,0:0:0:0:
160,206,188265,2,0,L|64:201,1,77.5200004731445,0|0,0:0|1:0,0:0:0:0:
281,270,188709,5,0,0:0:0:0:
345,107,188931,1,8,0:0:0:0:
437,308,189154,2,0,L|444:209,1,77.5200004731445,0|0,0:0|1:0,0:0:0:0:
259,88,189598,5,0,0:0:0:0:
502,133,189820,1,8,0:0:0:0:
253,178,190042,2,0,L|163:155,1,77.5200004731445,0|0,0:0|1:0,0:0:0:0:
339,20,190487,5,0,0:0:0:0:
360,268,190709,1,8,0:0:0:0:
173,60,190931,1,0,0:0:0:0:
427,212,191154,6,0,P|450:277|433:317,1,85.1200010390625,4|0,1:0|0:0,0:0:0:0:
253,178,191598,2,0,P|252:135|273:99,1,85.1200010390625,8|0,0:0|0:0,0:0:0:0:
286,341,192042,2,0,P|213:349|180:331,1,85.1200010390625,0|0,1:0|0:0,0:0:0:0:
81,138,192487,2,0,P|122:130|163:142,1,85.1200010390625,8|0,0:0|0:0,0:0:0:0:
110,354,192931,6,0,L|100:240,1,85.1200010390625,0|0,1:0|0:0,0:0:0:0:
257,84,193376,2,0,L|249:168,1,85.1200010390625,8|0,0:0|0:0,0:0:0:0:
365,295,193820,2,0,L|357:210,1,85.1200010390625,0|0,1:0|0:0,0:0:0:0:
465,130,194265,2,0,L|457:214,1,85.1200010390625,8|0,0:0|0:0,0:0:0:0:
253,258,194709,6,0,P|194:240|141:238,1,85.1200010390625,4|0,1:0|0:0,0:0:0:0:
345,70,195154,2,0,P|385:55|427:49,1,85.1200010390625,8|0,0:0|0:0,0:0:0:0:
269,134,195598,2,0,P|210:116|157:114,1,85.1200010390625,0|0,1:0|0:0,0:0:0:0:
362,182,196042,2,0,P|421:164|474:162,1,85.1200010390625,8|0,0:0|0:0,0:0:0:0:
291,331,196487,6,0,B|274:279|274:279|238:243,1,85.1200010390625,0|0,1:0|0:0,0:0:0:0:
186,113,196931,2,0,B|164:134|164:134|147:186,1,85.1200010390625,8|0,0:0|0:0,0:0:0:0:
362,182,197376,2,0,B|345:130|345:130|323:108,1,85.1200010390625,0|0,1:0|0:0,0:0:0:0:
147,39,197820,2,0,L|48:34,1,85.1200010390625,8|0,0:0|0:0,0:0:0:0:
39,269,198265,6,0,L|138:264,1,85.1200010390625,4|0,1:0|0:0,0:0:0:0:
271,117,198709,2,0,L|172:112,1,85.1200010390625,8|0,0:0|0:0,0:0:0:0:
333,252,199154,2,0,L|432:247,1,85.1200010390625,0|0,1:0|0:0,0:0:0:0:
512,130,199598,1,8,0:0:0:0:
309,36,199820,1,8,0:0:0:0:
266,33,199931,1,8,0:0:0:0:
223,31,200042,5,4,1:0:0:0:
122,217,200265,1,0,1:0:0:0:
367,155,200487,5,12,0:0:0:0:
147,77,200709,1,0,1:0:0:0:
104,79,200820,1,0,1:0:0:0:
61,81,200931,5,4,1:0:0:0:
165,303,201154,1,0,1:0:0:0:
313,75,201376,5,12,0:0:0:0:
236,347,201598,1,0,1:0:0:0:
148,78,201820,5,12,0:0:0:0:
436,203,202042,1,0,1:0:0:0:
111,229,202265,5,12,0:0:0:0:
391,86,202487,1,8,0:0:0:0:
434,88,202598,1,8,0:0:0:0:
477,90,202709,5,4,1:0:0:0:
318,321,202931,1,0,1:0:0:0:
184,58,203154,5,12,0:0:0:0:
453,217,203376,1,0,1:0:0:0:
74,322,203598,1,12,0:0:0:0:
