osu file format v14

[General]
AudioFilename: audio.mp3
AudioLeadIn: 0
PreviewTime: 149709
Countdown: 0
SampleSet: None
StackLeniency: 0.7
Mode: 2
LetterboxInBreaks: 0
WidescreenStoryboard: 0

[Editor]
DistanceSpacing: 1
BeatDivisor: 4
GridSize: 32
TimelineZoom: 1.5

[Metadata]
Title:Daidai Genome
TitleUnicode:橙ゲノム
Artist:*namirin
ArtistUnicode:*なみりん
Creator:Sotarks
Version:Ascendance's Rain
Source:
Tags:linada kyuukai yaleufeu realazy akitoshi corinn davided ascendance
BeatmapID:1486940
BeatmapSetID:700726

[Difficulty]
HPDrainRate:6
CircleSize:3.8
OverallDifficulty:8.5
ApproachRate:8.5
SliderMultiplier:2.2
SliderTickRate:2

[Events]
//Background and Video events
0,0,"pp.jpg",0,0
Video,0,"video.avi"
//Break Periods
2,70465,73145
2,81131,86923
2,114909,122923
2,129131,135367
//Storyboard Layer 0 (Background)
//Storyboard Layer 1 (Fail)
//Storyboard Layer 2 (Pass)
//Storyboard Layer 3 (Foreground)
//Storyboard Sound Samples

[TimingPoints]
19610,444.444444444444,4,3,22,52,1,0
19610,-100,4,3,22,52,0,0
22721,-100,4,3,22,62,0,0
28498,-100,4,3,22,42,0,0
32054,-100,4,3,22,52,0,0
56043,444.444444444444,4,3,22,72,1,0
56043,-100,4,3,22,72,0,0
73820,-100,4,3,22,52,0,0
97820,-100,4,3,22,52,0,0
100487,-100,4,3,22,72,0,0
123598,-100,4,3,22,72,0,0
128042,-100,4,3,22,42,0,0
136042,-100,4,3,22,42,0,0
139598,-100,4,3,22,32,0,0
143154,-100,4,3,22,42,0,0
146709,-100,4,3,22,32,0,0
152042,-100,4,3,22,82,0,0
172931,-100,4,3,22,92,0,0
173487,-100,4,3,22,82,0,0
185820,-100,4,3,22,52,0,0
187598,-100,4,3,22,62,0,0
191154,-100,4,3,22,62,0,0
200042,-100,4,3,22,72,0,0

[Colours]
Combo1 : 72,130,150
Combo2 : 70,81,106
Combo3 : 118,84,73
Combo4 : 145,80,82
SliderBorder : 230,222,185
SliderTrackOverride : 32,28,28

[HitObjects]
97,309,19610,6,0,L|81:189,1,110,2|2,1:0|0:0,0:0:0:0:
246,225,20054,2,0,L|358:204,1,110,2|2,1:0|0:0,0:0:0:0:
178,157,20498,2,0,L|198:281,1,110,2|2,1:0|0:0,0:0:0:0:
368,243,20943,2,0,L|394:371,1,110,2|0,1:0|0:0,0:0:0:0:
64,296,21387,6,0,L|190:280,1,110,2|2,1:0|0:0,0:0:0:0:
323,321,21832,2,0,L|329:195,1,110,2|2,1:0|0:0,0:0:0:0:
190,120,22276,2,0,L|305:102,1,110,2|2,1:0|0:0,0:0:0:0:
475,30,22721,2,0,L|285:19,1,165,14|0,0:0|0:0,0:0:0:0:
94,27,23165,6,0,P|26:102|88:187,1,220,6|10,1:0|0:0,0:0:0:0:
219,297,23832,2,0,L|224:180,1,110,0|2,0:0|1:0,0:0:0:0:
69,285,24276,1,0,0:0:0:0:
219,143,24498,2,0,L|89:151,1,110,10|0,0:0|0:0,0:0:0:0:
397,288,24943,6,0,L|409:167,1,110,2|0,1:0|0:0,0:0:0:0:
243,227,25387,2,0,L|121:239,1,110,10|0,0:0|0:0,0:0:0:0:
266,318,25832,2,0,L|387:310,1,110,2|0,1:0|0:0,0:0:0:0:
210,231,26276,2,0,L|73:244,1,110,10|0,0:0|0:0,0:0:0:0:
432,267,26721,6,0,P|469:171|370:96,1,220,6|10,1:0|0:0,0:0:0:0:
237,101,27387,1,0,0:0:0:0:
372,105,27609,2,0,L|457:105,1,55,10|8,0:0|0:0,0:0:0:0:
249,187,27832,2,0,L|187:187,1,55,10|0,0:0|0:0,0:0:0:0:
412,220,28054,1,6,1:0:0:0:
193,349,28498,6,0,L|180:218,1,110,2|2,1:0|0:0,0:0:0:0:
321,265,28943,2,0,L|444:240,1,110,2|2,1:0|0:0,0:0:0:0:
228,169,29387,1,2,1:0:0:0:
357,179,29609,1,2,0:0:0:0:
183,47,29832,1,2,1:0:0:0:
319,349,30276,6,0,L|332:218,1,110,2|2,1:0|0:0,0:0:0:0:
191,265,30721,2,0,L|68:240,1,110,2|2,1:0|0:0,0:0:0:0:
284,169,31165,1,2,1:0:0:0:
155,179,31387,1,2,0:0:0:0:
329,47,31610,1,2,1:0:0:0:
82,45,32054,6,0,P|12:117|94:209,1,220,6|10,1:0|0:0,0:0:0:0:
217,289,32721,2,0,L|231:171,1,110,2|2,0:0|1:0,0:0:0:0:
67,166,33165,2,0,L|197:155,1,110,2|10,0:0|0:0,0:0:0:0:
332,141,33609,1,2,0:0:0:0:
22,17,33832,6,0,L|252:32,1,220,2|10,1:0|0:0,0:0:0:0:
92,142,34498,2,0,L|81:26,1,110,2|2,0:0|1:0,0:0:0:0:
281,223,35165,2,0,L|164:244,1,110,10|2,0:0|0:0,0:0:0:0:
459,339,35609,6,0,P|501:253|412:160,1,220,2|10,1:0|0:0,0:0:0:0:
289,240,36276,2,0,L|276:117,1,110,2|2,0:0|1:0,0:0:0:0:
141,202,36721,2,0,L|20:213,2,110,2|10|2,0:0|0:0|0:0,0:0:0:0:
437,327,37387,6,0,L|445:206,1,110,2|2,1:0|0:0,0:0:0:0:
288,267,37832,2,0,L|171:253,1,110,10|2,0:0|0:0,0:0:0:0:
310,129,38276,2,0,L|57:154,1,220,2|8,1:0|0:0,0:0:0:0:
278,243,38943,2,0,L|292:164,1,55,8|8,0:0|0:0,0:0:0:0:
49,341,39165,6,0,P|21:252|126:169,1,220,6|10,1:0|0:0,0:0:0:0:
247,235,39832,2,0,L|267:106,1,110,2|2,0:0|1:0,0:0:0:0:
125,54,40276,1,2,0:0:0:0:
272,101,40498,2,0,L|400:88,1,110,10|2,0:0|0:0,0:0:0:0:
40,345,40943,6,0,P|25:245|126:177,1,220,2|10,1:0|0:0,0:0:0:0:
221,178,41609,1,2,0:0:0:0:
402,193,41832,1,2,1:0:0:0:
250,271,42276,1,10,0:0:0:0:
407,272,42498,1,2,0:0:0:0:
107,351,42721,6,0,P|75:265|164:178,1,220,2|10,1:0|0:0,0:0:0:0:
295,186,43387,1,2,0:0:0:0:
128,88,43609,2,0,L|366:85,1,220,2|10,1:0|0:0,0:0:0:0:
215,19,44276,1,2,0:0:0:0:
372,142,44498,6,0,L|385:268,1,110,2|2,1:0|0:0,0:0:0:0:
243,222,44943,2,0,L|121:236,1,110,10|2,0:0|0:0,0:0:0:0:
449,345,45387,2,0,L|307:330,2,110,2|0|10,1:0|0:0|0:0,0:0:0:0:
267,376,46054,2,0,L|248:306,1,55,10|10,0:0|0:0,0:0:0:0:
447,258,46276,6,0,P|459:172|365:126,1,165,6|0,1:0|0:0,0:0:0:0:
197,197,46721,2,0,P|170:123|233:55,1,165,10|0,0:0|0:0,0:0:0:0:
406,38,47165,2,0,L|216:25,1,165,2|0,1:0|0:0,0:0:0:0:
182,66,47609,2,0,L|60:55,1,110,10|2,0:0|0:0,0:0:0:0:
374,166,48054,6,0,L|122:182,2,220,2|10|0,1:0|0:0|1:0,0:0:0:0:
232,299,49165,2,0,L|220:181,1,110,0|10,0:0|0:0,0:0:0:0:
381,205,49609,2,0,L|441:193,1,55,0|0,0:0|0:0,0:0:0:0:
162,355,49832,6,0,P|122:261|205:180,1,220,2|10,1:0|0:0,0:0:0:0:
337,276,50498,2,0,L|355:137,1,110,2|2,0:0|1:0,0:0:0:0:
164,94,50943,2,0,L|277:87,1,110,2|10,0:0|0:0,0:0:0:0:
431,136,51387,2,0,L|438:65,1,55,2|0,0:0|0:0,0:0:0:0:
218,215,51609,6,0,L|-13:221,2,220,2|8|2,1:0|0:0|1:0,0:0:0:0:
382,206,52721,1,2,0:0:0:0:
210,213,52943,2,0,L|140:214,1,55,10|0,0:0|0:0,0:0:0:0:
366,285,53165,2,0,L|426:284,1,55,10|8,0:0|0:0,0:0:0:0:
109,327,53387,6,0,L|32:327,2,55,2|0|2,1:0|0:0|0:0,0:0:0:0:
446,328,53832,1,10,0:0:0:0:
270,358,54054,2,0,L|260:291,1,55,8|8,0:0|0:0,0:0:0:0:
443,208,54276,2,0,L|318:198,2,110,0|8|0,1:0|0:0|1:0,0:0:0:0:
240,264,54943,2,0,L|231:187,1,55,0|0,0:0|0:0,0:0:0:0:
405,114,55165,6,0,L|346:103,1,55,2|0,1:0|0:0,0:0:0:0:
150,106,55387,2,0,L|91:97,1,55,2|0,0:0|0:0,0:0:0:0:
401,25,55609,1,2,0:0:0:0:
168,329,56043,6,0,P|130:260|194:191,1,165,6|0,1:0|0:0,0:0:0:0:
417,191,56487,2,0,P|459:122|385:64,1,165,10|0,0:0|0:0,0:0:0:0:
136,17,56931,2,0,P|86:68|141:139,1,165,2|0,1:0|0:0,0:0:0:0:
304,249,57376,2,0,L|424:241,1,110,10|0,0:0|0:0,0:0:0:0:
360,249,57709,1,0,0:0:0:0:
72,217,57820,6,0,L|56:89,1,110,2|2,0:0|0:0,0:0:0:0:
224,265,58265,2,0,L|104:289,1,110,10|2,0:0|0:0,0:0:0:0:
400,33,58709,2,0,P|450:87|373:155,1,165,2|0,1:0|0:0,0:0:0:0:
104,241,59154,1,8,0:0:0:0:
208,169,59376,2,0,L|216:97,1,55,8|8,0:0|0:0,0:0:0:0:
24,49,59598,6,0,L|136:65,2,110,6|2|10,1:0|1:0|0:0,0:0:0:0:
376,297,60265,2,0,P|427:205|326:125,1,220,2|2,0:0|1:0,0:0:0:0:
168,65,60931,2,0,L|32:65,1,110,10|2,0:0|0:0,0:0:0:0:
440,57,61376,5,2,1:0:0:0:
146,140,61598,1,2,0:0:0:0:
143,194,61709,1,0,0:0:0:0:
202,220,61820,1,10,0:0:0:0:
368,297,62042,1,2,0:0:0:0:
32,201,62265,6,0,L|24:65,1,110,6|0,1:0|1:0,0:0:0:0:
255,145,62709,2,0,L|264:211,1,55,0|0,1:0|0:0,0:0:0:0:
180,221,62931,2,0,L|190:314,1,55,8|8,0:0|0:0,0:0:0:0:
376,337,63154,5,6,1:0:0:0:
480,249,63376,2,0,L|464:185,1,55,8|8,0:0|0:0,0:0:0:0:
224,169,63598,1,10,0:0:0:0:
128,89,63820,2,0,L|144:25,1,55,10|8,0:0|0:0,0:0:0:0:
432,33,64042,1,6,1:0:0:0:
296,57,64265,2,0,L|184:41,2,110,0|14|0,0:0|0:0|0:0,0:0:0:0:
96,256,64931,6,0,L|80:136,1,110,2|2,1:0|0:0,0:0:0:0:
254,323,65376,2,0,L|110:339,1,110,10|2,0:0|0:0,0:0:0:0:
448,256,65820,2,0,P|512:192|488:96,1,165,2|0,1:0|0:0,0:0:0:0:
208,57,66265,2,0,L|136:57,1,55,12|0,0:0|0:0,0:0:0:0:
336,145,66487,2,0,L|392:145,1,55,8|8,0:0|0:0,0:0:0:0:
128,321,66709,6,0,L|112:201,1,110,6|2,1:0|1:0,0:0:0:0:
240,153,67154,1,10,0:0:0:0:
88,97,67376,2,0,L|80:33,2,55,2|0|2,0:0|0:0|1:0,0:0:0:0:
240,153,67820,2,0,L|120:145,2,110,2|10|2,1:0|0:0|0:0,0:0:0:0:
296,161,68376,1,0,0:0:0:0:
64,345,68487,6,0,L|48:209,1,110,6|2,0:0|0:0,0:0:0:0:
104,193,68820,1,0,0:0:0:0:
416,201,68931,2,0,L|432:73,1,110,6|2,0:0|0:0,0:0:0:0:
376,57,69265,1,0,0:0:0:0:
128,65,69376,1,6,0:0:0:0:
264,97,69598,1,0,0:0:0:0:
392,129,69820,1,0,0:0:0:0:
91,197,70265,5,0,0:0:0:0:
72,321,73820,6,0,P|23:238|105:157,1,220,6|10,1:0|0:0,0:0:0:0:
232,159,74487,1,2,0:0:0:0:
104,33,74709,2,0,L|224:33,1,110,2|2,1:0|0:0,0:0:0:0:
352,33,75154,1,10,0:0:0:0:
136,33,75376,1,2,0:0:0:0:
352,33,75598,5,2,1:0:0:0:
248,113,75820,1,0,0:0:0:0:
400,161,76042,2,0,L|392:289,1,110,10|2,0:0|0:0,0:0:0:0:
336,305,76376,1,0,0:0:0:0:
56,329,76487,1,2,1:0:0:0:
176,257,76709,2,0,L|176:145,1,110,0|10,0:0|0:0,0:0:0:0:
64,81,77154,1,2,0:0:0:0:
408,281,77376,6,0,P|472:201|392:113,1,220,2|10,1:0|0:0,0:0:0:0:
296,113,78042,1,2,0:0:0:0:
408,33,78265,2,0,L|272:33,1,110,2|2,1:0|0:0,0:0:0:0:
152,33,78709,1,10,0:0:0:0:
296,113,78931,2,0,L|288:185,1,55,2|0,0:0|0:0,0:0:0:0:
64,217,79154,6,0,L|104:321,1,110,2|2,1:0|0:0,0:0:0:0:
272,241,79598,2,0,L|312:361,1,110,10|2,0:0|0:0,0:0:0:0:
144,185,80042,2,0,L|328:169,1,165,2|0,1:0|0:0,0:0:0:0:
48,129,80487,1,8,0:0:0:0:
176,129,80709,2,0,L|232:129,2,55,8|8|0,0:0|0:0|0:0,0:0:0:0:
64,41,87598,5,0,0:0:0:0:
18,88,87709,1,0,0:0:0:0:
15,142,87820,1,0,0:0:0:0:
56,192,87931,1,0,0:0:0:0:
312,289,88042,6,0,L|488:265,1,165,6|0,1:0|0:0,0:0:0:0:
240,225,88487,2,0,L|72:201,1,165,10|0,0:0|0:0,0:0:0:0:
312,289,88931,2,0,L|488:265,1,165,2|0,1:0|0:0,0:0:0:0:
176,193,89376,2,0,L|152:65,1,110,10|2,0:0|0:0,0:0:0:0:
328,249,89820,6,0,L|72:273,2,220,2|10|0,1:0|0:0|1:0,0:0:0:0:
456,233,90931,1,0,0:0:0:0:
248,177,91154,2,0,L|128:177,1,110,10|0,0:0|0:0,0:0:0:0:
432,153,91598,6,0,P|488:225|416:329,1,220,2|10,1:0|0:0,0:0:0:0:
256,337,92265,1,2,0:0:0:0:
112,233,92487,2,0,L|256:233,1,110,2|2,1:0|0:0,0:0:0:0:
40,145,92931,2,0,L|176:145,1,110,10|2,0:0|0:0,0:0:0:0:
432,89,93376,6,0,L|200:89,1,220,2|8,1:0|0:0,0:0:0:0:
320,89,94042,1,0,0:0:0:0:
32,177,94265,2,0,L|144:177,2,110,2|2|10,1:0|0:0|0:0,0:0:0:0:
208,257,94931,2,0,L|264:257,1,55,8|8,0:0|0:0,0:0:0:0:
72,193,95154,6,0,L|48:81,1,110,2|2,1:0|1:0,0:0:0:0:
104,41,95487,1,0,0:0:0:0:
408,89,95598,2,0,L|416:209,1,110,10|8,0:0|0:0,0:0:0:0:
360,241,95931,1,8,0:0:0:0:
144,193,96042,6,0,L|120:137,1,55,0|0,1:0|0:0,0:0:0:0:
312,337,96265,2,0,L|328:281,1,55,10|8,0:0|0:0,0:0:0:0:
144,193,96487,2,0,L|120:137,1,55,10|8,0:0|0:0,0:0:0:0:
312,337,96709,2,0,L|336:273,1,55,10|8,0:0|0:0,0:0:0:0:
96,265,96931,6,0,L|56:201,2,55,0|0|10,1:0|1:0|0:0,0:0:0:0:
288,129,97376,2,0,L|136:129,1,110,2|8,1:0|0:0,0:0:0:0:
232,129,97709,1,8,0:0:0:0:
464,73,97820,2,0,L|328:73,1,110,4|2,1:0|0:0,0:0:0:0:
232,177,98265,2,0,L|376:177,1,110,2|2,0:0|0:0,0:0:0:0:
152,329,98709,6,0,L|144:209,1,110,2|2,1:0|0:0,0:0:0:0:
288,193,99154,1,10,0:0:0:0:
336,169,99265,1,0,0:0:0:0:
357,119,99376,1,2,0:0:0:0:
340,68,99487,1,0,0:0:0:0:
293,41,99598,1,2,1:0:0:0:
128,33,99820,1,2,0:0:0:0:
448,41,100042,1,10,0:0:0:0:
208,345,100487,6,0,P|168:273|224:169,1,165,6|0,1:0|0:0,0:0:0:0:
432,201,100931,2,0,L|448:81,1,110,10|2,0:0|0:0,0:0:0:0:
128,57,101376,2,0,P|56:121|160:193,1,220,2|10,1:0|0:0,0:0:0:0:
384,321,102265,6,0,L|256:321,1,110,2|2,1:0|0:0,0:0:0:0:
448,249,102709,2,0,L|320:249,1,110,10|2,0:0|0:0,0:0:0:0:
56,257,103154,2,0,P|24:177|96:65,1,220,2|8,1:0|0:0,0:0:0:0:
240,49,103820,2,0,L|320:57,1,55,8|8,0:0|0:0,0:0:0:0:
104,177,104042,6,0,L|224:185,2,110,6|2|10,1:0|1:0|0:0,0:0:0:0:
288,241,104709,1,2,0:0:0:0:
144,313,104931,2,0,L|256:329,1,110,2|2,1:0|1:0,0:0:0:0:
432,289,105376,2,0,L|456:161,1,110,10|2,0:0|0:0,0:0:0:0:
104,209,105820,6,0,L|88:81,1,110,2|2,1:0|0:0,0:0:0:0:
288,41,106265,2,0,L|264:161,1,110,10|0,0:0|0:0,0:0:0:0:
96,265,106709,1,6,1:0:0:0:
264,289,106931,1,0,1:0:0:0:
408,321,107154,2,0,L|432:257,1,55,8|0,0:0|0:0,0:0:0:0:
240,177,107376,2,0,L|224:105,1,55,8|8,0:0|0:0,0:0:0:0:
416,33,107598,6,0,P|472:105|432:193,1,165,6|0,1:0|0:0,0:0:0:0:
240,305,108042,2,0,L|112:289,1,110,10|2,0:0|0:0,0:0:0:0:
320,249,108487,2,0,P|376:185|320:73,1,220,2|10,1:0|0:0,0:0:0:0:
128,57,109154,1,0,0:0:0:0:
432,353,109376,6,0,L|448:225,1,110,2|2,1:0|0:0,0:0:0:0:
96,57,109820,2,0,L|112:177,1,110,10|2,0:0|0:0,0:0:0:0:
448,49,110265,2,0,L|248:65,1,165,2|0,1:0|0:0,0:0:0:0:
40,81,110709,1,8,0:0:0:0:
224,177,110931,2,0,L|208:249,1,55,10|8,0:0|0:0,0:0:0:0:
8,345,111154,6,0,L|128:353,2,110,6|2|10,1:0|1:0|0:0,0:0:0:0:
184,321,111820,1,2,0:0:0:0:
472,345,112042,2,0,L|352:353,2,110,2|2|10,1:0|1:0|0:0,0:0:0:0:
264,305,112709,2,0,L|200:297,1,55,10|8,0:0|0:0,0:0:0:0:
384,217,112931,5,6,1:0:0:0:
480,153,113154,2,0,L|464:73,1,55,10|8,0:0|0:0,0:0:0:0:
224,97,113376,1,6,1:0:0:0:
344,41,113598,2,0,L|216:41,2,110,2|6|2,1:0|1:0|0:0,0:0:0:0:
8,121,114265,1,10,0:0:0:0:
267,188,114709,5,0,0:0:0:0:
440,345,123598,6,0,L|448:225,1,110,6|2,1:0|0:0,0:0:0:0:
280,233,124042,2,0,L|272:81,1,110,2|2,1:0|0:0,0:0:0:0:
446,49,124487,2,0,L|321:74,2,110,2|2|2,1:0|0:0|1:0,0:0:0:0:
56,337,125376,6,0,L|48:217,1,110,6|2,1:0|0:0,0:0:0:0:
232,201,125820,2,0,L|248:81,1,110,2|2,1:0|0:0,0:0:0:0:
64,33,126265,2,0,L|183:63,2,110,0|0|2,1:0|0:0|1:0,0:0:0:0:
296,241,127154,6,0,L|176:257,1,110,6|2,1:0|0:0,0:0:0:0:
368,169,127598,2,0,L|384:49,1,110,2|2,1:0|0:0,0:0:0:0:
216,33,128042,1,2,2:0:0:0:
123,81,128264,1,2,2:0:0:0:
119,186,128486,1,2,2:0:0:0:
209,241,128708,1,2,2:0:0:0:
409,216,128931,5,4,1:0:0:0:
96,337,136042,6,0,P|40:257|128:153,1,220,2|10,1:0|0:0,0:0:0:0:
288,25,136931,2,0,P|352:113|264:193,1,220,2|10,1:0|0:0,0:0:0:0:
120,353,137820,2,0,L|112:121,1,220,2|10,1:0|0:0,0:0:0:0:
352,25,138709,2,0,L|336:257,1,220,2|8,1:0|0:0,0:0:0:0:
56,313,139598,5,2,1:0:0:0:
192,289,139820,1,0,0:0:0:0:
56,225,140042,1,10,0:0:0:0:
336,209,140487,2,0,P|392:161|320:33,1,220,2|10,1:0|0:0,0:0:0:0:
448,129,141376,5,2,1:0:0:0:
312,134,141598,1,2,1:0:0:0:
448,129,141820,1,10,0:0:0:0:
160,49,142265,2,0,L|192:297,1,220,2|8,1:0|0:0,0:0:0:0:
416,353,143154,6,0,P|456:289|400:153,1,220,2|10,1:0|0:0,0:0:0:0:
232,33,144042,2,0,P|184:105|256:233,1,220,2|10,1:0|0:0,0:0:0:0:
488,321,144931,2,0,L|256:337,1,220,2|10,1:0|0:0,0:0:0:0:
8,105,145820,2,0,L|232:129,1,220,2|10,1:0|0:0,0:0:0:0:
432,169,146709,6,0,L|290:208,2,110,2|2|2,2:0|2:0|2:0,0:0:0:0:
258,108,147598,2,0,L|26:84,1,220,2|2,2:0|2:0,0:0:0:0:
400,121,148487,2,0,L|271:85,2,110,2|2|2,2:0|2:0|2:0,0:0:0:0:
208,177,149820,2,0,L|224:313,1,110,0|0,0:0|0:0,0:0:0:0:
344,361,150265,6,0,P|408:305|320:209,1,220,0|0,0:0|0:0,0:0:0:0:
208,209,150931,1,0,0:0:0:0:
336,129,151154,2,0,L|208:129,2,110,0|0|0,0:0|0:0|0:0,0:0:0:0:
448,129,151820,1,0,0:0:0:0:
88,49,152042,6,0,P|32:97|88:225,1,220,6|10,1:0|0:0,0:0:0:0:
192,241,152709,1,0,0:0:0:0:
328,209,152931,2,0,L|352:97,1,110,2|0,1:0|0:0,0:0:0:0:
202,114,153376,2,0,B|126:152|126:152|34:146,1,165,10|0,0:0|0:0,0:0:0:0:
264,287,153820,6,0,L|389:282,1,110,2|2,1:0|0:0,0:0:0:0:
232,201,154265,2,0,L|264:65,1,110,10|2,0:0|0:0,0:0:0:0:
312,65,154598,1,0,0:0:0:0:
112,321,154709,1,2,1:0:0:0:
70,286,154820,1,0,0:0:0:0:
56,233,154931,1,0,0:0:0:0:
73,182,155042,1,0,0:0:0:0:
116,150,155153,1,8,0:0:0:0:
280,145,155376,2,0,L|344:145,1,55,10|8,0:0|0:0,0:0:0:0:
104,65,155598,6,0,L|232:65,2,110,6|2|10,1:0|1:0|0:0,0:0:0:0:
0,65,156265,1,2,0:0:0:0:
376,161,156487,2,0,L|240:161,2,110,2|2|10,1:0|1:0|0:0,0:0:0:0:
472,161,157154,1,2,0:0:0:0:
152,321,157376,6,0,L|266:321,1,110,2|2,1:0|0:0,0:0:0:0:
320,317,157709,1,2,0:0:0:0:
53,66,157820,2,0,L|-16:39,1,55,10|0,0:0|0:0,0:0:0:0:
317,44,158042,2,0,L|373:35,1,55,2|0,0:0|0:0,0:0:0:0:
128,345,158265,5,6,1:0:0:0:
91,305,158376,1,0,0:0:0:0:
93,251,158487,1,0,1:0:0:0:
132,214,158598,1,0,0:0:0:0:
336,145,158709,2,0,L|400:137,1,55,8|0,0:0|0:0,0:0:0:0:
88,105,158931,2,0,L|72:41,1,55,8|8,0:0|0:0,0:0:0:0:
360,361,159154,6,0,P|416:273|344:201,1,220,6|10,1:0|0:0,0:0:0:0:
232,201,159820,1,0,0:0:0:0:
384,113,160042,2,0,L|256:113,1,110,2|0,1:0|0:0,0:0:0:0:
120,33,160487,2,0,L|296:33,1,165,10|0,0:0|0:0,0:0:0:0:
48,329,160931,6,0,L|24:193,1,110,2|2,1:0|0:0,0:0:0:0:
192,193,161376,2,0,L|208:73,1,110,10|2,0:0|0:0,0:0:0:0:
152,49,161709,1,0,0:0:0:0:
392,313,161820,1,2,1:0:0:0:
434,279,161931,1,0,0:0:0:0:
449,227,162042,1,0,0:0:0:0:
430,177,162153,1,0,0:0:0:0:
385,147,162264,1,8,0:0:0:0:
200,145,162487,2,0,L|216:73,1,55,10|8,0:0|0:0,0:0:0:0:
456,65,162709,6,0,L|432:193,1,110,6|2,1:0|1:0,0:0:0:0:
48,177,163154,1,10,0:0:0:0:
152,313,163376,2,0,L|216:313,1,55,2|0,0:0|0:0,0:0:0:0:
416,217,163598,2,0,L|400:81,1,110,2|2,1:0|1:0,0:0:0:0:
80,41,164042,1,10,0:0:0:0:
240,145,164265,2,0,L|176:145,1,55,2|0,0:0|0:0,0:0:0:0:
8,225,164487,6,0,L|144:225,2,110,6|10|6,1:0|0:0|1:0,0:0:0:0:
144,273,165154,1,10,0:0:0:0:
448,257,165376,2,0,L|464:129,1,110,6|8,1:0|0:0,0:0:0:0:
408,113,165709,1,8,0:0:0:0:
200,57,165820,2,0,L|72:57,1,110,6|10,1:0|0:0,0:0:0:0:
144,57,166154,1,8,0:0:0:0:
400,321,166265,6,0,P|464:273|368:177,1,220,6|10,1:0|0:0,0:0:0:0:
272,161,166931,1,2,0:0:0:0:
416,81,167154,2,0,L|168:81,1,220,2|8,1:0|0:0,0:0:0:0:
336,81,167820,1,0,0:0:0:0:
192,153,168042,6,0,L|312:153,1,110,0|0,1:0|0:0,0:0:0:0:
136,233,168487,2,0,L|248:233,1,110,8|0,0:0|0:0,0:0:0:0:
304,265,168820,1,0,0:0:0:0:
56,273,168931,1,0,1:0:0:0:
10,230,169042,1,0,0:0:0:0:
7,176,169153,1,0,0:0:0:0:
48,131,169264,1,0,0:0:0:0:
248,73,169376,2,0,L|320:73,1,55,8|0,0:0|0:0,0:0:0:0:
248,73,169598,2,0,L|184:73,1,55,8|8,0:0|0:0,0:0:0:0:
440,137,169820,6,0,L|432:257,1,110,6|2,1:0|1:0,0:0:0:0:
328,305,170265,1,10,0:0:0:0:
192,249,170487,2,0,L|184:185,1,55,0|0,0:0|0:0,0:0:0:0:
240,153,170709,1,2,1:0:0:0:
80,137,170931,2,0,L|64:25,1,110,2|10,1:0|0:0,0:0:0:0:
200,17,171376,1,0,0:0:0:0:
344,81,171598,6,0,L|320:193,1,110,6|2,1:0|0:0,0:0:0:0:
176,225,172042,2,0,L|192:353,1,110,14|2,0:0|0:0,0:0:0:0:
248,361,172376,1,0,0:0:0:0:
64,225,172487,2,0,L|48:113,1,110,6|10,1:0|0:0,0:0:0:0:
416,33,172931,1,14,0:0:0:0:
462,79,173042,1,0,0:0:0:0:
458,133,173153,1,8,0:0:0:0:
404,171,173264,1,8,0:0:0:0:
128,329,173376,6,0,L|120:209,1,110,6|8,1:0|0:0,0:0:0:0:
168,193,173709,1,8,0:0:0:0:
404,171,173820,2,0,L|416:57,1,110,6|10,1:0|0:0,0:0:0:0:
360,25,174154,1,8,0:0:0:0:
144,57,174265,6,0,P|96:113|160:185,1,165,6|0,1:0|0:0,0:0:0:0:
368,209,174709,2,0,L|360:329,1,110,10|0,0:0|1:0,0:0:0:0:
304,353,175042,1,0,1:0:0:0:
16,257,175154,5,6,1:0:0:0:
157,263,175376,2,0,L|217:263,2,55,10|0|6,0:0|0:0|1:0,0:0:0:0:
16,257,175820,1,10,0:0:0:0:
335,90,176042,2,0,L|223:91,1,110,6|0,1:0|0:0,0:0:0:0:
88,97,176487,1,8,0:0:0:0:
240,209,176709,2,0,L|256:129,1,55,10|8,0:0|0:0,0:0:0:0:
40,289,176931,6,0,L|152:297,2,110,6|2|10,1:0|1:0|0:0,0:0:0:0:
176,241,177598,1,2,0:0:0:0:
464,201,177820,2,0,L|472:73,1,110,2|2,1:0|1:0,0:0:0:0:
319,30,178265,1,10,0:0:0:0:
164,77,178487,2,0,L|172:141,1,55,2|0,0:0|0:0,0:0:0:0:
440,185,178709,6,0,L|432:313,1,110,2|0,1:0|0:0,0:0:0:0:
312,329,179154,1,10,0:0:0:0:
176,345,179376,1,8,0:0:0:0:
312,329,179598,1,6,1:0:0:0:
10,248,179820,2,0,L|2:128,1,110,8|6,0:0|1:0,0:0:0:0:
510,83,180487,5,0,0:0:0:0:
