osu file format v14

[General]
AudioFilename: audio.mp3
AudioLeadIn: 0
PreviewTime: 149709
Countdown: 0
SampleSet: None
StackLeniency: 0.7
Mode: 0
LetterboxInBreaks: 0
WidescreenStoryboard: 1

[Editor]
DistanceSpacing: 1
BeatDivisor: 4
GridSize: 8
TimelineZoom: 1.5

[Metadata]
Title:Daidai Genome
TitleUnicode:橙ゲノム
Artist:*namirin
ArtistUnicode:*なみりん
Creator:Sotarks
Version:Akitoshi's Normal
Source:
Tags:linada kyuukai yaleufeu realazy akitoshi corinn davided ascendance
BeatmapID:1486189
BeatmapSetID:700726

[Difficulty]
HPDrainRate:4
CircleSize:3
OverallDifficulty:4
ApproachRate:5
SliderMultiplier:1.1
SliderTickRate:1

[Events]
//Background and Video events
0,0,"pp.jpg",0,0
Video,0,"video.avi"
//Break Periods
2,70465,72620
2,81131,86842
2,114909,122398
2,128931,134842
2,146709,150265
2,180687,184620
//Storyboard Layer 0 (Background)
//Storyboard Layer 1 (Fail)
//Storyboard Layer 2 (Pass)
//Storyboard Layer 3 (Foreground)
//Storyboard Sound Samples

[TimingPoints]
19610,444.444444444444,4,3,22,52,1,0
19610,-100,4,3,22,52,0,0
22721,-100,4,3,22,62,0,0
28498,-100,4,3,22,42,0,0
32054,-100,4,3,22,52,0,0
56043,444.444444444444,4,3,22,72,1,1
56043,-100,4,3,22,72,0,1
70265,-100,4,3,22,72,0,0
73820,-100,4,3,22,52,0,0
97820,-100,4,3,22,52,0,0
100487,-100,4,3,22,72,0,1
114709,-100,4,3,22,72,0,0
123598,-100,4,3,22,72,0,0
128042,-100,4,3,22,42,0,0
136042,-100,4,3,22,42,0,0
139598,-100,4,3,22,32,0,0
143154,-100,4,3,22,42,0,0
146709,-100,4,3,22,32,0,0
152042,-100,4,3,22,82,0,1
180487,-100,4,3,22,82,0,0
185820,-100,4,3,22,52,0,0
187598,-100,4,3,22,62,0,0
191154,-100,4,3,22,62,0,0
200042,-100,4,3,22,72,0,0

[Colours]
Combo1 : 72,130,150
Combo2 : 70,81,106
Combo3 : 118,84,73
Combo4 : 145,80,82
SliderBorder : 230,222,185
SliderTrackOverride : 32,28,28

[HitObjects]
155,186,19610,6,0,P|97:170|37:185,2,110,2|2|2,1:0|1:0|1:0,0:0:0:0:
242,253,20943,1,2,1:0:0:0:
336,196,21387,2,0,P|394:212|454:197,2,110,2|2|2,1:0|1:0|1:0,0:0:0:0:
257,117,22721,1,14,0:0:0:0:
183,35,23165,6,0,L|54:39,1,110,6|10,1:0|0:0,0:0:0:0:
8,128,24054,1,2,1:0:0:0:
56,226,24498,1,10,0:0:0:0:
163,204,24943,2,0,P|221:205|278:240,1,110,2|10,1:0|0:0,0:0:0:0:
352,297,25832,1,2,1:0:0:0:
458,269,26276,1,10,0:0:0:0:
506,170,26721,6,0,P|506:113|477:63,1,110,6|10,1:0|0:0,0:0:0:0:
376,35,27609,2,0,L|304:33,1,55,10|10,0:0|0:0,0:0:0:0:
266,29,28054,1,6,1:0:0:0:
182,100,28498,6,0,P|137:74|73:74,2,110,2|2|2,1:0|1:0|1:0,0:0:0:0:
249,187,29832,2,0,L|310:182,1,55,2|0,1:0|0:0,0:0:0:0:
357,172,30276,2,0,P|402:146|466:146,2,110,2|2|2,1:0|1:0|1:0,0:0:0:0:
309,271,31609,1,2,1:0:0:0:
222,338,32054,6,0,P|173:345|102:322,1,110,6|10,1:0|0:0,0:0:0:0:
47,242,32943,2,0,L|51:180,1,55,2|2,1:0|0:0,0:0:0:0:
93,152,33387,2,0,L|89:90,1,55,10|2,0:0|0:0,0:0:0:0:
85,42,33832,2,0,P|143:30|209:54,1,110,2|10,1:0|0:0,0:0:0:0:
239,80,34498,1,2,0:0:0:0:
239,80,34721,2,0,P|297:68|363:92,1,110,2|10,1:0|0:0,0:0:0:0:
427,153,35609,6,0,L|419:269,1,110,2|10,1:0|0:0,0:0:0:0:
339,338,36498,2,0,L|277:332,1,55,2|2,1:0|0:0,0:0:0:0:
239,300,36943,2,0,L|177:306,1,55,10|2,0:0|0:0,0:0:0:0:
129,309,37387,2,0,P|115:257|126:193,1,110,2|10,1:0|0:0,0:0:0:0:
189,114,38276,1,2,1:0:0:0:
281,173,38721,2,0,L|357:176,1,55,8|8,0:0|0:0,0:0:0:0:
390,173,39165,6,0,P|401:115|385:46,1,110,6|10,1:0|0:0,0:0:0:0:
289,26,40054,2,0,L|213:29,1,55,2|2,1:0|0:0,0:0:0:0:
191,62,40498,2,0,L|115:59,1,55,10|2,0:0|0:0,0:0:0:0:
80,60,40943,2,0,P|69:118|85:187,1,110,2|10,1:0|0:0,0:0:0:0:
108,219,41609,1,2,0:0:0:0:
108,219,41832,2,0,P|166:208|235:224,1,110,2|10,1:0|0:0,0:0:0:0:
288,298,42721,6,0,L|419:291,1,110,2|10,1:0|0:0,0:0:0:0:
457,295,43387,1,2,0:0:0:0:
457,295,43609,2,0,P|473:239|457:174,1,110,2|10,1:0|0:0,0:0:0:0:
372,128,44498,2,0,L|381:8,2,110,2|10|2,1:0|0:0|1:0,0:0:0:0:
290,201,45832,2,0,L|218:203,1,55,10|10,0:0|0:0,0:0:0:0:
189,171,46276,6,0,P|147:156|67:174,1,110,6|10,1:0|0:0,0:0:0:0:
6,244,47165,1,2,1:0:0:0:
74,329,47609,2,0,L|153:322,1,55,10|2,0:0|0:0,0:0:0:0:
175,294,48054,2,0,P|228:284|280:300,1,110,2|10,1:0|0:0,0:0:0:0:
373,359,48943,1,0,1:0:0:0:
466,301,49387,1,10,0:0:0:0:
472,191,49832,6,0,P|423:168|357:172,1,110,2|10,1:0|0:0,0:0:0:0:
261,198,50721,2,0,L|196:194,1,55,2|2,1:0|0:0,0:0:0:0:
158,166,51165,2,0,L|93:170,1,55,10|2,0:0|0:0,0:0:0:0:
49,179,51609,2,0,P|35:129|52:67,1,110,2|8,1:0|0:0,0:0:0:0:
87,34,52276,1,0,0:0:0:0:
87,34,52498,2,0,P|133:56|197:50,1,110,2|10,1:0|0:0,0:0:0:0:
247,39,53165,1,10,0:0:0:0:
247,39,53387,6,0,L|241:169,1,110,2|10,1:0|0:0,0:0:0:0:
239,258,54276,1,0,1:0:0:0:
331,318,54721,1,0,1:0:0:0:
439,300,55165,1,2,1:0:0:0:
230,349,56043,6,0,P|172:360|105:344,1,110,6|10,1:0|0:0,0:0:0:0:
29,292,56931,1,2,1:0:0:0:
5,184,57376,1,10,0:0:0:0:
50,84,57820,2,0,L|116:82,1,55,2|2,0:0|0:0,0:0:0:0:
154,57,58265,2,0,L|220:59,1,55,10|2,0:0|0:0,0:0:0:0:
263,63,58709,1,2,1:0:0:0:
348,132,59154,1,8,0:0:0:0:
386,234,59598,6,0,L|446:229,2,55,6|2|10,1:0|1:0|0:0,0:0:0:0:
309,312,60487,2,0,L|246:303,2,55,0|2|10,1:0|1:0|0:0,0:0:0:0:
417,332,61376,2,0,P|443:278|430:206,1,110,2|10,1:0|0:0,0:0:0:0:
411,188,62042,1,2,0:0:0:0:
411,188,62265,2,0,L|413:122,1,55,6|0,1:0|1:0,0:0:0:0:
448,91,62709,2,0,L|446:25,1,55,0|8,1:0|0:0,0:0:0:0:
394,17,63154,6,0,P|346:34|279:27,1,110,6|10,1:0|0:0,0:0:0:0:
238,22,63820,1,10,0:0:0:0:
238,22,64042,2,0,L|247:152,1,110,6|14,1:0|0:0,0:0:0:0:
249,241,64931,2,0,L|183:248,1,55,2|2,1:0|0:0,0:0:0:0:
147,276,65376,2,0,L|81:269,1,55,10|2,0:0|0:0,0:0:0:0:
38,259,65820,1,2,1:0:0:0:
2,154,66265,1,12,0:0:0:0:
78,75,66709,6,0,L|144:82,1,55,6|2,1:0|1:0,0:0:0:0:
187,89,67154,1,10,0:0:0:0:
278,149,67598,2,0,L|344:142,1,55,2|2,1:0|1:0,0:0:0:0:
379,114,68042,2,0,L|445:121,1,55,10|2,0:0|0:0,0:0:0:0:
488,127,68487,2,0,P|502:69|487:8,2,110,6|6|6,0:0|0:0|0:0,0:0:0:0:
419,213,69820,1,0,0:0:0:0:
332,143,70265,5,0,0:0:0:0:
193,98,73820,6,0,P|242:91|313:114,1,110,6|10,1:0|0:0,0:0:0:0:
400,151,74709,2,0,L|396:213,1,55,2|2,1:0|0:0,0:0:0:0:
360,247,75153,2,0,L|364:309,1,55,10|2,0:0|0:0,0:0:0:0:
362,357,75598,2,0,P|304:369|238:345,1,110,2|10,1:0|0:0,0:0:0:0:
212,332,76264,1,2,0:0:0:0:
212,332,76487,2,0,P|154:344|88:320,1,110,2|10,1:0|0:0,0:0:0:0:
30,251,77375,6,0,B|15:193|15:193|38:135,1,110,2|10,1:0|0:0,0:0:0:0:
101,59,78264,2,0,L|163:65,1,55,2|2,1:0|0:0,0:0:0:0:
201,97,78709,2,0,L|263:91,1,55,10|2,0:0|0:0,0:0:0:0:
311,88,79153,2,0,L|308:206,1,110,2|10,1:0|0:0,0:0:0:0:
300,307,80042,1,2,1:0:0:0:
398,258,80487,2,0,L|467:262,1,55,8|8,0:0|0:0,0:0:0:0:
498,291,80931,5,0,0:0:0:0:
256,192,88042,6,0,P|185:178|131:194,2,110,6|10|2,1:0|0:0|1:0,0:0:0:0:
355,240,89376,2,0,L|419:235,1,55,10|2,0:0|0:0,0:0:0:0:
464,229,89820,2,0,P|472:173|457:113,1,110,2|10,1:0|0:0,0:0:0:0:
395,32,90709,1,0,1:0:0:0:
285,18,91154,1,10,0:0:0:0:
189,71,91598,6,0,P|135:83|75:68,1,110,2|10,1:0|0:0,0:0:0:0:
35,56,92265,1,2,0:0:0:0:
35,56,92487,2,0,P|47:110|32:170,1,110,2|10,1:0|0:0,0:0:0:0:
3,267,93376,1,2,1:0:0:0:
86,338,93820,1,8,0:0:0:0:
189,300,94265,2,0,L|255:306,1,55,2|2,1:0|0:0,0:0:0:0:
290,334,94709,2,0,L|356:328,1,55,10|8,0:0|0:0,0:0:0:0:
392,300,95154,6,0,L|458:306,2,55,2|2|10,1:0|1:0|0:0,0:0:0:0:
306,230,96042,2,0,P|293:174|309:114,1,110,0|10,1:0|0:0,0:0:0:0:
289,14,96931,2,0,L|223:21,1,55,0|0,1:0|0:0,0:0:0:0:
191,54,97376,2,0,L|125:47,1,55,2|0,1:2|0:0,0:0:0:0:
88,74,97820,1,4,1:0:0:0:
219,250,98709,6,0,P|270:234|343:242,2,110,2|10|2,1:0|0:0|1:0,0:0:0:0:
114,284,100042,1,10,0:0:0:0:
32,209,100487,6,0,P|20:153|44:84,1,110,6|10,1:0|0:0,0:0:0:0:
71,64,101154,1,2,0:0:0:0:
71,64,101376,2,0,P|127:76|196:52,1,110,2|10,1:0|0:0,0:0:0:0:
281,28,102265,2,0,L|287:96,1,55,2|2,1:0|0:0,0:0:0:0:
324,121,102709,2,0,L|318:189,1,55,10|2,0:0|0:0,0:0:0:0:
312,230,103154,1,2,1:0:0:0:
361,327,103598,1,8,0:0:0:0:
461,281,104042,6,0,L|468:219,2,55,6|2|10,1:0|1:0|0:0,0:0:0:0:
361,327,104931,2,0,L|367:381,2,55,2|2|10,1:0|1:0|0:0,0:0:0:0:
312,230,105820,2,0,P|255:227|206:249,1,110,2|10,1:0|0:0,0:0:0:0:
161,274,106487,1,0,0:0:0:0:
161,274,106709,2,0,L|153:200,1,55,6|0,1:0|1:0,0:0:0:0:
116,180,107154,2,0,L|124:106,1,55,8|8,0:0|0:0,0:0:0:0:
132,71,107598,6,0,P|177:53|249:59,1,110,6|10,1:0|0:0,0:0:0:0:
285,92,108265,1,2,0:0:0:0:
285,92,108487,2,0,L|270:227,1,110,2|10,1:0|0:0,0:0:0:0:
261,310,109376,2,0,P|291:316|333:311,1,55,2|2,1:0|0:0,0:0:0:0:
362,287,109820,2,0,P|392:281|434:286,1,55,10|2,0:0|0:0,0:0:0:0:
469,297,110265,1,2,1:0:0:0:
507,194,110709,1,8,0:0:0:0:
440,106,111154,6,0,L|373:102,1,55,6|2,1:0|1:0,0:0:0:0:
330,100,111598,1,10,0:0:0:0:
230,54,112042,2,0,L|163:58,1,55,2|2,1:0|1:0,0:0:0:0:
131,91,112487,2,0,L|64:87,1,55,10|10,0:0|0:0,0:0:0:0:
21,85,112931,2,0,P|6:141|18:212,2,110,6|6|6,1:0|1:0|1:0,0:0:0:0:
131,91,114265,1,10,0:0:0:0:
240,101,114709,5,0,0:0:0:0:
256,192,123598,6,0,P|215:177|141:184,2,110,6|2|2,1:0|1:0|1:0,0:0:0:0:
338,265,124931,1,2,1:0:0:0:
438,219,125376,2,0,P|453:178|446:104,2,110,6|2|0,1:0|1:0|1:0,0:0:0:0:
338,265,126709,1,2,1:0:0:0:
231,291,127154,6,0,L|114:281,1,110,6|2,1:0|1:0,0:0:0:0:
39,208,128042,1,2,2:0:0:0:
256,192,136042,6,0,L|385:187,1,110,2|10,1:0|0:0,0:0:0:0:
469,151,136931,2,0,P|470:122|463:91,1,55,2|0,1:0|1:0,0:0:0:0:
446,44,137376,1,10,0:0:0:0:
339,18,137820,2,0,L|210:23,1,110,2|10,1:0|0:0,0:0:0:0:
126,59,138709,2,0,P|125:88|132:119,1,55,2|0,1:0|1:0,0:0:0:0:
149,166,139154,1,8,0:0:0:0:
209,258,139598,6,0,P|195:308|214:374,1,110,2|10,1:0|0:0,0:0:0:0:
305,312,140487,2,0,L|382:315,2,55,2|0|10,1:0|1:0|0:0,0:0:0:0:
294,202,141376,2,0,L|419:207,1,110,2|10,1:0|0:0,0:0:0:0:
457,110,142265,2,0,L|511:112,2,55,2|0|8,1:0|1:0|0:0,0:0:0:0:
373,37,143154,6,0,P|313:27|252:48,1,110,2|10,1:0|0:0,0:0:0:0:
216,137,144042,2,0,L|224:214,1,55,2|0,1:0|1:0,0:0:0:0:
229,246,144487,1,10,0:0:0:0:
185,346,144931,2,0,P|131:356|78:343,1,110,2|10,1:0|0:0,0:0:0:0:
28,246,145819,2,0,L|33:191,1,55,2|0,1:0|1:0,0:0:0:0:
41,137,146264,1,10,0:0:0:0:
256,192,152042,6,0,P|197:180|140:196,1,110,6|10,1:0|0:0,0:0:0:0:
50,240,152931,1,2,1:0:0:0:
1,140,153376,1,10,0:0:0:0:
65,50,153820,2,0,L|130:47,1,55,2|2,1:0|0:0,0:0:0:0:
170,24,154265,2,0,L|235:27,1,55,2|2,0:0|0:0,0:0:0:0:
275,50,154709,1,2,1:0:0:0:
345,134,155154,1,8,0:0:0:0:
287,227,155598,6,0,L|212:230,2,55,6|2|10,1:0|1:0|0:0,0:0:0:0:
375,292,156487,2,0,L|450:295,2,55,2|2|10,1:0|1:0|0:0,0:0:0:0:
286,357,157376,2,0,P|222:363|171:338,1,110,2|10,1:0|0:0,0:0:0:0:
101,269,158265,2,0,L|106:208,1,55,6|0,1:0|1:0,0:0:0:0:
142,173,158709,2,0,L|137:112,1,55,8|8,0:0|0:0,0:0:0:0:
114,68,159154,6,0,P|169:47|232:60,2,110,6|10|2,1:0|0:0|1:0,0:0:0:0:
29,138,160487,1,10,0:0:0:0:
105,214,160931,2,0,L|178:208,1,55,2|2,1:0|0:0,0:0:0:0:
207,180,161376,2,0,L|280:186,1,55,10|2,0:0|0:0,0:0:0:0:
307,214,161820,1,2,1:0:0:0:
409,174,162265,1,8,0:0:0:0:
457,75,162709,6,0,L|463:15,2,55,6|2|10,1:0|1:0|0:0,0:0:0:0:
409,174,163598,2,0,L|415:234,2,55,2|2|10,1:0|1:0|0:0,0:0:0:0:
348,81,164487,2,0,P|292:64|226:80,1,110,6|6,1:0|1:0,0:0:0:0:
197,104,165154,1,10,0:0:0:0:
197,104,165376,2,0,P|141:87|75:103,1,110,6|6,1:0|1:0,0:0:0:0:
49,129,166042,1,10,0:0:0:0:
49,129,166265,6,0,L|56:244,1,110,6|10,1:0|0:0,0:0:0:0:
117,329,167154,1,2,1:0:0:0:
224,351,167598,1,8,0:0:0:0:
326,311,168042,2,0,P|379:335|446:333,2,110,0|8|0,1:0|0:0|1:0,0:0:0:0:
262,220,169376,2,0,L|266:152,1,55,8|8,0:0|0:0,0:0:0:0:
298,121,169820,6,0,L|294:53,2,55,6|2|10,1:0|1:0|0:0,0:0:0:0:
393,175,170709,2,0,L|389:243,2,55,2|2|10,1:0|1:0|0:0,0:0:0:0:
409,66,171598,1,6,1:0:0:0:
311,15,172042,1,14,0:0:0:0:
222,80,172487,2,0,L|161:76,1,55,6|10,1:0|0:0,0:0:0:0:
120,48,172931,2,0,L|59:52,1,55,14|8,0:0|0:0,0:0:0:0:
10,61,173376,6,0,P|0:114|14:188,1,110,6|6,1:0|1:0,0:0:0:0:
39,220,174042,1,10,0:0:0:0:
39,220,174265,2,0,P|92:210|166:224,1,110,6|10,1:0|0:0,0:0:0:0:
252,250,175154,2,0,L|256:186,1,55,6|10,1:0|0:0,0:0:0:0:
297,159,175598,2,0,L|293:95,1,55,6|10,1:0|0:0,0:0:0:0:
287,49,176042,1,6,1:0:0:0:
392,17,176487,1,8,0:0:0:0:
473,90,176931,6,0,L|469:154,1,55,6|2,1:0|1:0,0:0:0:0:
462,199,177376,1,10,0:0:0:0:
382,274,177820,2,0,L|318:270,1,55,2|2,1:0|1:0,0:0:0:0:
280,240,178265,2,0,L|216:244,1,55,10|2,0:0|0:0,0:0:0:0:
176,268,178709,2,0,P|116:284|60:266,2,110,2|10|6,1:0|0:0|1:0,0:0:0:0:
120,173,180042,1,6,1:0:0:0:
66,76,180487,5,0,0:0:0:0:
460,158,185820,6,0,P|417:144|335:157,1,110,0|0,1:0|1:0,0:0:0:0:
260,208,186709,2,0,L|192:202,1,55,0|0,1:0|0:0,0:0:0:0:
159,171,187154,2,0,L|91:177,1,55,0|0,1:0|1:0,0:0:0:0:
50,189,187598,6,0,P|43:247|57:299,2,110,4|8|0,1:0|0:0|1:0,0:0:0:0:
86,85,188931,1,8,0:0:0:0:
190,121,189376,2,0,P|248:128|300:114,2,110,0|8|0,1:0|0:0|1:0,0:0:0:0:
86,85,190709,1,8,0:0:0:0:
22,175,191154,6,0,L|32:297,1,110,4|8,1:0|0:0,0:0:0:0:
131,328,192042,2,0,L|139:218,1,110,0|8,1:0|0:0,0:0:0:0:
190,121,192931,2,0,P|258:112|318:137,1,110,0|8,1:0|0:0,0:0:0:0:
365,210,193820,2,0,P|374:278|349:338,1,110,0|8,1:0|0:0,0:0:0:0:
258,354,194709,6,0,L|130:361,2,110,4|8|0,1:0|0:0|1:0,0:0:0:0:
362,316,196042,1,8,0:0:0:0:
430,229,196487,2,0,P|440:173|421:111,1,110,0|8,1:0|0:0,0:0:0:0:
362,33,197376,1,0,1:0:0:0:
254,10,197820,1,8,0:0:0:0:
163,72,198265,6,0,L|170:206,1,110,4|8,1:0|0:0,0:0:0:0:
183,290,199154,1,0,1:0:0:0:
93,354,199598,1,8,0:0:0:0:
3,290,200042,1,0,1:0:0:0:
256,192,200265,12,12,203598,0:0:0:0:
