osu file format v14

[General]
AudioFilename: audio.mp3
AudioLeadIn: 0
PreviewTime: 149709
Countdown: 0
SampleSet: None
StackLeniency: 0.7
Mode: 0
LetterboxInBreaks: 0
WidescreenStoryboard: 1

[Editor]
Bookmarks: 70265,73820,80931,88042,114709,123598,128931,136042,148931,152042,180487,185820,203598
DistanceSpacing: 1.3
BeatDivisor: 4
GridSize: 4
TimelineZoom: 1.7

[Metadata]
Title:Daidai Genome
TitleUnicode:橙ゲノム
Artist:*namirin
ArtistUnicode:*なみりん
Creator:Sotarks
Version:DavidEd's Hard
Source:
Tags:linada kyuukai yaleufeu realazy akitoshi corinn davided ascendance
BeatmapID:1491266
BeatmapSetID:700726

[Difficulty]
HPDrainRate:6
CircleSize:3.5
OverallDifficulty:6
ApproachRate:7.4
SliderMultiplier:1.52
SliderTickRate:1

[Events]
//Background and Video events
0,0,"pp.jpg",0,0
Video,0,"video.avi"
//Break Periods
2,70265,72981
2,81131,87203
2,114709,122759
2,129131,135203
2,150265,151203
2,180487,184981
//Storyboard Layer 0 (Background)
//Storyboard Layer 1 (Fail)
//Storyboard Layer 2 (Pass)
//Storyboard Layer 3 (Foreground)
//Storyboard Sound Samples

[TimingPoints]
19610,444.444444444444,4,3,22,52,1,0
19610,-133.333333333333,4,3,22,52,0,0
22721,-100,4,3,22,62,0,0
28498,-133.333333333333,4,3,22,42,0,0
31943,-133.333333333333,4,3,22,5,0,0
32054,-117.647058823529,4,3,22,52,0,0
56043,444.444444444444,4,3,22,72,1,1
56043,-100,4,3,22,72,0,1
63487,-100,4,3,22,5,0,1
63598,-100,4,3,22,72,0,1
63931,-100,4,3,22,5,0,1
64042,-100,4,3,22,72,0,1
70265,-100,4,3,22,72,0,0
73820,-117.647058823529,4,3,22,52,0,0
100487,-100,4,3,22,72,0,1
114709,-100,4,3,22,72,0,0
123598,-117.647058823529,4,3,22,72,0,0
128042,-100,4,3,22,42,0,0
136042,-117.647058823529,4,3,22,42,0,0
139598,-117.647058823529,4,3,22,32,0,0
143154,-117.647058823529,4,3,22,42,0,0
146709,-117.647058823529,4,3,22,32,0,0
152042,-100,4,3,22,82,0,1
180487,-100,4,3,22,82,0,0
185820,-117.647058823529,4,3,22,52,0,0
187598,-100,4,3,22,62,0,0
191154,-100,4,3,22,62,0,0
200042,-100,4,3,22,72,0,0

[Colours]
Combo1 : 72,130,150
Combo2 : 70,81,106
Combo3 : 118,84,73
Combo4 : 145,80,82
SliderBorder : 230,222,185
SliderTrackOverride : 32,28,28

[HitObjects]
164,148,19165,6,0,P|200:152|240:144,1,76
352,52,19610,6,0,B|368:112|336:112|356:164,1,114.000004348755,2|2,1:0|1:0,0:0:0:0:
355,163,20498,2,0,B|442:158|442:158|424:188,1,114.000004348755,2|2,1:0|1:0,0:0:0:0:
384,252,21165,1,0,0:0:0:0:
340,324,21387,6,0,B|264:316|264:316|228:324,1,114.000004348755,2|2,1:0|1:0,0:0:0:0:
227,324,22276,2,0,P|216:300|216:268,1,57.0000021743775,2|2,1:0|0:0,0:0:0:0:
256,112,22721,1,14,0:0:0:0:
256,112,23165,6,0,B|194:118|194:118|164:105|164:105|102:113,1,152,6|10,1:0|0:0,0:0:0:0:
68,204,23832,1,0,0:0:0:0:
32,296,24054,2,0,P|68:304|116:292,1,76,2|0,1:0|0:0,0:0:0:0:
188,244,24498,2,0,L|199:326,1,76,10|0,0:0|0:0,0:0:0:0:
344,336,24943,6,0,B|324:184,1,152,2|10,1:0|0:0,0:0:0:0:
309,87,25609,1,0,0:0:0:0:
324,185,25832,2,0,P|361:191|401:179,1,76,2|0,1:0|0:0,0:0:0:0:
478,124,26276,2,0,P|438:92|398:88,1,76,10|0,0:0|0:0,0:0:0:0:
260,68,26721,6,0,B|257:124|257:124|238:152|238:152|234:214,1,152,6|10,1:0|0:0,0:0:0:0:
234,213,27609,1,10,0:0:0:0:
328,184,27832,1,10,0:0:0:0:
420,152,28054,1,6,1:0:0:0:
420,152,28498,6,0,P|420:120|436:88,2,57.0000021743775,2|2|2,1:0|0:0|1:0,0:0:0:0:
460,228,29165,1,2,0:0:0:0:
400,288,29387,2,0,L|336:285,1,57.0000021743775,2|2,1:0|0:0,0:0:0:0:
264,248,29832,1,2,1:0:0:0:
264,248,30276,6,0,P|253:274|254:302,2,57.0000021743775,2|2|2,1:0|0:0|1:0,0:0:0:0:
320,184,30943,1,2,0:0:0:0:
384,128,31165,2,0,L|378:64,1,57.0000021743775,2|2,1:0|0:0,0:0:0:0:
284,24,31609,2,0,L|292:115,1,85.5000032615663,2|0,1:0|0:0,0:0:0:0:
300,140,32054,6,0,B|240:164|240:116|172:140,1,129.200002464294,6|10,1:0|0:0,0:0:0:0:
128,208,32721,1,2,0:0:0:0:
80,276,32943,2,0,L|16:272,2,64.6000012321472,2|2|10,1:0|0:0|0:0,0:0:0:0:
140,336,33609,1,2,0:0:0:0:
284,292,33832,6,0,B|368:280|368:280|416:296,1,129.200002464294,2|10,1:0|0:0,0:0:0:0:
488,260,34498,1,2,0:0:0:0:
420,208,34721,2,0,B|400:164|416:116|416:116|376:128,1,129.200002464294,2|10,1:0|0:0,0:0:0:0:
304,156,35387,1,2,0:0:0:0:
196,64,35609,6,0,B|200:116|200:116|190:133|190:133|194:189,1,129.200002464294,2|10,1:0|0:0,0:0:0:0:
204,276,36276,1,2,0:0:0:0:
268,332,36498,1,2,1:0:0:0:
204,276,36721,1,2,0:0:0:0:
152,344,36943,2,0,P|120:360|88:360,1,64.6000012321472,10|2,0:0|0:0,0:0:0:0:
32,248,37387,6,0,P|61:235|93:235,1,64.6000012321472,2|2,0:0|0:0,0:0:0:0:
146,172,37832,1,10,0:0:0:0:
194,108,38054,1,2,0:0:0:0:
242,44,38276,2,0,L|393:51,1,129.200002464294,2|8,1:0|0:0,0:0:0:0:
460,184,38943,5,8,0:0:0:0:
460,184,39054,1,8,0:0:0:0:
460,184,39165,2,0,B|480:236|460:280|460:280|428:264,1,129.200002464294,6|10,1:0|0:0,0:0:0:0:
356,228,39832,1,2,0:0:0:0:
280,268,40054,2,0,P|264:304|264:328,2,64.6000012321472,2|2|10,1:0|0:0|0:0,0:0:0:0:
356,228,40721,1,2,0:0:0:0:
224,188,40943,6,0,B|184:176|184:176|96:188,1,129.200002464294,2|10,1:0|0:0,0:0:0:0:
44,124,41609,1,2,0:0:0:0:
96,56,41832,2,8,B|182:67|182:67|222:55,1,129.200002464294,2|10,1:0|0:0,0:0:0:0:
300,24,42498,1,2,0:0:0:0:
376,144,42721,6,0,B|400:208|352:208|380:272,1,129.200002464294,2|10,1:0|0:0,0:0:0:0:
440,328,43387,1,2,0:0:0:0:
356,352,43609,2,0,P|296:368|232:352,1,129.200002464294,2|10,1:0|0:0,0:0:0:0:
172,292,44276,1,2,0:0:0:0:
116,352,44498,5,2,1:0:0:0:
172,292,44721,1,2,0:0:0:0:
112,232,44943,2,0,L|28:236,1,64.6000012321472,10|2,0:0|0:0,0:0:0:0:
172,292,45387,2,0,L|307:299,1,129.200002464294,2|10,1:0|0:0,0:0:0:0:
432,244,46054,1,10,0:0:0:0:
438,229,46165,1,10,0:0:0:0:
441,213,46276,6,0,L|434:148,1,64.6000012321472,6|0,1:0|0:0,0:0:0:0:
459,67,46721,2,0,P|428:63|396:71,1,64.6000012321472,10|0,0:0|0:0,0:0:0:0:
316,88,47165,2,0,P|330:121|358:146,1,64.6000012321472,2|0,1:0|0:0,0:0:0:0:
434,148,47609,1,10,0:0:0:0:
396,71,47832,1,2,0:0:0:0:
304,211,48054,6,0,B|240:235|240:187|168:215,1,129.200002464294,2|10,1:0|0:0,0:0:0:0:
177,211,48943,2,0,P|164:248|164:280,1,64.6000012321472,0|0,1:0|0:0,0:0:0:0:
216,340,49387,2,0,B|243:335|243:335|279:342,1,64.6000012321472,10|0,0:0|0:0,0:0:0:0:
376,260,49832,6,0,B|331:273|331:273|242:256,1,129.200002464294,2|10,1:0|0:0,0:0:0:0:
177,211,50498,1,2,0:0:0:0:
254,172,50721,1,2,1:0:0:0:
250,257,50943,1,2,0:0:0:0:
173,296,51165,2,0,L|105:292,1,64.6000012321472,10|2,0:0|0:0,0:0:0:0:
36,176,51609,6,0,L|167:169,1,129.200002464294,2|8,1:0|0:0,0:0:0:0:
165,169,52498,2,0,P|165:137|189:93,2,64.6000012321472,2|2|10,1:0|0:0|0:0,0:0:0:0:
256,268,53165,1,10,0:0:0:0:
256,268,53276,1,8,0:0:0:0:
256,268,53387,6,0,L|335:263,1,64.6000012321472,2|2,1:0|0:0,0:0:0:0:
380,204,53832,1,10,0:0:0:0:
440,144,54054,2,0,L|479:146,2,32.3000006160736,8|8|0,0:0|0:0|1:0,0:0:0:0:
380,88,54498,1,8,0:0:0:0:
365,81,54609,1,8,0:0:0:0:
349,79,54721,2,0,L|265:83,1,64.6000012321472,0|0,1:0|0:0,0:0:0:0:
200,188,55165,1,2,1:0:0:0:
284,192,55387,1,2,0:0:0:0:
367,196,55609,1,2,0:0:0:0:
367,196,56043,6,0,B|395:272|339:272|379:352,1,152,6|10,1:0|0:0,0:0:0:0:
464,300,56709,1,0,0:0:0:0:
375,344,56931,2,0,L|276:338,1,76,2|0,1:0|0:0,0:0:0:0:
224,276,57376,2,0,P|214:240|221:200,1,76,10|0,0:0|0:0,0:0:0:0:
295,139,57820,5,2,0:0:0:0:
312,236,58043,1,2,0:0:0:0:
220,202,58265,1,10,0:0:0:0:
128,236,58487,1,2,0:0:0:0:
145,139,58709,2,0,B|161:87|145:35|145:35|181:75,1,152,2|8,1:0|0:0,0:0:0:0:
288,160,59376,5,8,0:0:0:0:
288,160,59487,1,8,0:0:0:0:
288,160,59598,2,0,L|367:155,2,76,6|2|10,1:0|1:0|0:0,0:0:0:0:
208,220,60265,2,0,B|136:244|136:196|60:220,1,152,2|2,0:0|1:0,0:0:0:0:
100,308,60931,1,10,0:0:0:0:
192,340,61154,1,2,0:0:0:0:
284,308,61376,6,0,P|296:272|296:232,1,76,2|2,1:0|0:0,0:0:0:0:
268,140,61820,1,10,0:0:0:0:
200,211,62042,1,2,0:0:0:0:
296,234,62265,2,0,L|447:226,1,152,6|8,1:0|0:0,0:0:0:0:
364,99,62931,5,8,0:0:0:0:
364,99,63042,1,8,0:0:0:0:
364,99,63154,2,0,P|311:113|243:97,1,114,6|8,1:0|0:0,0:0:0:0:
220,84,63598,2,0,P|235:135|220:204,1,114,10|8,0:0|0:0,0:0:0:0:
211,228,64042,2,0,P|248:219|285:228,1,76,6|0,1:0|0:0,0:0:0:0:
384,244,64487,2,0,P|371:286|345:311,1,76,14|0,0:0|0:0,0:0:0:0:
284,227,64931,5,2,1:0:0:0:
349,149,65154,1,2,0:0:0:0:
284,72,65376,2,0,P|246:64|206:72,1,76,10|2,0:0|0:0,0:0:0:0:
152,152,65820,2,0,B|124:224|180:224|152:304,1,152,2|12,1:0|0:0,0:0:0:0:
32,228,66487,5,8,0:0:0:0:
32,228,66598,1,8,0:0:0:0:
32,228,66709,2,0,P|23:196|30:152,1,76,6|2,1:0|1:0,0:0:0:0:
88,76,67154,1,10,0:0:0:0:
152,152,67376,1,2,0:0:0:0:
216,228,67598,2,0,L|295:223,2,76,2|2|10,1:0|1:0|0:0,0:0:0:0:
104,308,68265,6,0,L|52:305,2,38,2|0|6,0:0|0:0|0:0,0:0:0:0:
188,356,68709,1,2,0:0:0:0:
188,356,68820,1,0,0:0:0:0:
188,356,68931,2,0,L|275:351,1,76,6|2,0:0|0:0,0:0:0:0:
344,292,69376,2,0,P|320:228|256:256,1,152,6|0,0:0|0:0,0:0:0:0:
192,164,73820,6,0,B|256:188|256:136|336:172,1,129.200002464294,6|10,1:0|0:0,0:0:0:0:
376,224,74487,1,2,0:0:0:0:
320,288,74709,2,0,P|316:320|324:356,2,64.6000012321472,2|2|10,1:0|0:0|0:0,0:0:0:0:
376,224,75376,1,2,0:0:0:0:
272,144,75598,6,0,L|124:151,1,129.200002464294,2|10,1:0|0:0,0:0:0:0:
64,124,76265,1,2,0:0:0:0:
80,208,76487,2,0,B|96:256|84:300|84:300|128:288,1,129.200002464294,2|10,1:0|0:0,0:0:0:0:
200,268,77154,1,2,0:0:0:0:
316,328,77376,6,0,P|383:334|433:291,1,129.200002464294,2|10,1:0|0:0,0:0:0:0:
357,253,78042,1,2,0:0:0:0:
284,212,78265,2,0,P|277:183|283:147,1,64.6000012321472,2|2,1:0|0:0,0:0:0:0:
304,68,78709,1,10,0:0:0:0:
364,128,78931,1,2,0:0:0:0:
282,148,79154,2,0,L|217:144,1,64.6000012321472,2|2,1:0|0:0,0:0:0:0:
148,100,79598,2,0,P|136:136|140:176,1,64.6000012321472,10|2,0:0|0:0,0:0:0:0:
192,224,80042,2,0,B|216:288|176:288|196:352,1,129.200002464294,2|8,1:0|0:0,0:0:0:0:
276,320,80709,5,8,0:0:0:0:
291,316,80820,1,8,0:0:0:0:
307,315,80931,1,0,0:0:0:0:
275,319,88042,6,0,P|263:290|263:258,1,64.6000012321472,6|0,1:0|0:0,0:0:0:0:
244,175,88487,2,0,P|276:174|306:185,1,64.6000012321472,10|0,0:0|0:0,0:0:0:0:
388,208,88931,2,0,P|374:235|346:258,1,64.6000012321472,2|0,1:0|0:0,0:0:0:0:
263,257,89376,1,10,0:0:0:0:
306,185,89598,1,2,0:0:0:0:
390,327,89820,6,0,P|423:333|456:326,1,64.6000012321472,2|0,1:0|0:0,0:0:0:0:
420,248,90265,2,0,B|396:184|440:184|412:116,1,129.200002464294,10|0,0:0|1:0,0:0:0:0:
414,121,91154,2,0,P|381:127|347:121,1,64.6000012321472,10|0,0:0|0:0,0:0:0:0:
236,48,91598,6,0,B|233:103|233:103|224:123|224:123|221:179,1,129.200002464294,2|10,1:0|0:0,0:0:0:0:
248,256,92265,1,2,0:0:0:0:
165,239,92487,1,2,1:0:0:0:
221,175,92709,1,2,0:0:0:0:
304,192,92931,2,0,P|340:198|376:192,1,64.6000012321472,10|2,0:0|0:0,0:0:0:0:
488,136,93376,6,0,P|472:188|488:276,1,129.200002464294,2|8,1:0|0:0,0:0:0:0:
481,261,94265,2,0,P|449:253|417:257,1,64.6000012321472,2|2,1:0|0:0,0:0:0:0:
348,304,94709,1,10,0:0:0:0:
278,257,94931,1,8,0:0:0:0:
271,242,95042,1,8,0:0:0:0:
268,226,95154,6,0,L|273:142,1,64.6000012321472,2|2,1:0|1:0,0:0:0:0:
376,64,95598,2,0,L|381:147,1,64.6000012321472,10|8,0:0|0:0,0:0:0:0:
388,212,96042,1,0,1:0:0:0:
456,163,96265,1,10,0:0:0:0:
380,128,96487,1,10,0:0:0:0:
312,177,96709,1,10,0:0:0:0:
397,295,96931,6,0,L|399:343,2,32.3000006160736,0|0|10,1:0|1:0|0:0,0:0:0:0:
456,163,97376,2,0,P|463:137|459:99,1,64.6000012321472,2|8,1:0|0:0,0:0:0:0:
380,128,97820,2,0,P|344:136|306:130,1,64.6000012321472,4|2,1:0|0:0,0:0:0:0:
248,88,98265,1,2,0:0:0:0:
204,160,98487,1,2,0:0:0:0:
160,232,98709,6,0,P|192:244|222:243,1,64.6000012321472,2|0,1:0|0:0,0:0:0:0:
292,196,99154,2,0,L|304:160,2,32.3000006160736,2|0|0,1:0|0:0|0:0,0:0:0:0:
249,329,99598,1,2,1:0:0:0:
332,322,99820,1,0,0:0:0:0:
416,316,100042,1,2,1:0:0:0:
416,316,100487,6,0,B|440:240|388:240|416:152,1,152,6|10,1:0|0:0,0:0:0:0:
424,68,101154,1,2,0:0:0:0:
483,148,101376,2,0,P|448:163|410:166,1,76,2|0,1:0|0:0,0:0:0:0:
320,124,101820,2,0,L|315:211,1,76,10|0,0:0|0:0,0:0:0:0:
258,280,102265,5,2,1:0:0:0:
355,288,102487,1,2,0:0:0:0:
315,199,102709,1,10,0:0:0:0:
258,280,102931,1,2,0:0:0:0:
201,361,103154,2,0,P|120:360|72:312,1,152,2|8,1:0|0:0,0:0:0:0:
156,196,103820,5,8,0:0:0:0:
156,196,103931,1,8,0:0:0:0:
156,196,104042,2,0,L|160:272,2,76,6|2|10,1:0|1:0|0:0,0:0:0:0:
108,108,104709,1,2,0:0:0:0:
108,108,104931,2,0,P|143:96|181:99,1,76,2|2,1:0|1:0,0:0:0:0:
252,168,105376,1,10,0:0:0:0:
156,196,105598,1,2,0:0:0:0:
181,99,105820,6,0,P|210:77|248:69,1,76,2|2,1:0|0:0,0:0:0:0:
336,116,106265,1,10,0:0:0:0:
252,168,106487,1,0,0:0:0:0:
336,216,106709,2,0,B|411:237|411:189|484:217,1,152,6|8,1:0|0:0,0:0:0:0:
384,332,107376,5,8,0:0:0:0:
366,339,107487,1,8,0:0:0:0:
347,341,107598,2,0,B|238:330|238:330|183:343,1,152,6|10,1:0|0:0,0:0:0:0:
107,300,108265,1,2,0:0:0:0:
184,247,108487,2,0,P|188:210|180:173,1,76,2|0,1:0|0:0,0:0:0:0:
120,96,108931,2,0,P|160:76|196:76,1,76,10|0,0:0|0:0,0:0:0:0:
268,136,109376,5,2,1:0:0:0:
179,172,109598,1,2,0:0:0:0:
190,75,109820,1,10,0:0:0:0:
268,136,110042,1,2,0:0:0:0:
346,197,110265,2,0,B|497:189,1,152,2|8,1:0|0:0,0:0:0:0:
412,76,110931,5,10,0:0:0:0:
394,67,111042,1,8,0:0:0:0:
376,62,111154,2,0,L|288:66,1,76,6|2,1:0|1:0,0:0:0:0:
220,120,111598,1,10,0:0:0:0:
304,176,111820,1,2,0:0:0:0:
220,228,112042,2,0,L|64:219,1,152,2|10,1:0|0:0,0:0:0:0:
148,92,112709,6,0,L|144:52,2,38,10|8|6,0:0|0:0|1:0,0:0:0:0:
236,136,113154,1,10,0:0:0:0:
253,143,113265,1,8,0:0:0:0:
272,144,113376,2,0,L|367:135,1,76,6|2,1:0|1:0,0:0:0:0:
424,76,113820,2,0,P|477:117|419:172,1,152,6|10,1:0|0:0,0:0:0:0:
308,124,123598,6,0,L|395:119,2,64.6000012321472,6|2|2,1:0|0:0|1:0,0:0:0:0:
256,192,124265,1,2,0:0:0:0:
204,256,124487,2,0,L|139:252,1,64.6000012321472,2|2,1:0|0:0,0:0:0:0:
69,206,124931,1,2,1:0:0:0:
69,206,125376,6,0,P|57:235|57:267,2,64.6000012321472,6|2|2,3:0|0:0|1:0,0:0:0:0:
139,252,126042,1,2,0:0:0:0:
213,294,126265,2,0,P|223:263|221:231,1,64.6000012321472,2|2,1:0|0:0,0:0:0:0:
162,172,126709,1,2,1:0:0:0:
162,172,127154,6,0,B|155:149|155:149|162:108,2,64.6000012321472,6|2|2,3:0|3:0|1:0,3:0:0:0:
221,231,127820,1,2,0:0:0:0:
337,151,128042,1,2,2:0:0:0:
361,236,128265,1,2,2:0:0:0:
290,283,128487,1,2,2:0:0:0:
221,231,128709,1,2,2:0:0:0:
251,146,128931,5,0,0:0:0:0:
160,132,136042,5,2,1:0:0:0:
324,104,136487,1,10,0:0:0:0:
352,268,136931,1,2,1:0:0:0:
270,282,137154,1,0,1:0:0:0:
188,296,137376,2,0,P|188:264|212:224,1,64.6000012321472,10|0,0:0|0:0,0:0:0:0:
343,171,137820,6,0,L|351:270,1,96.9000018482209,2|0,1:0|0:0,0:0:0:0:
344,300,138265,2,0,P|377:291|412:297,1,64.6000012321472,10|0,0:0|0:0,0:0:0:0:
484,324,138709,1,2,1:0:0:0:
472,241,138932,1,0,1:0:0:0:
461,159,139154,1,8,0:0:0:0:
461,159,139598,5,2,1:0:0:0:
392,208,139820,1,0,0:0:0:0:
324,160,140042,1,10,0:0:0:0:
203,277,140487,1,2,1:0:0:0:
82,160,140931,1,10,0:0:0:0:
198,40,141376,5,2,1:0:0:0:
267,87,141598,1,2,1:0:0:0:
334,38,141820,1,10,0:0:0:0:
449,154,142265,2,8,P|468:220|449:284,1,129.200002464294,2|8,1:0|0:0,0:0:0:0:
453,277,143154,6,0,P|409:264|357:276,1,96.9000018482209,2|0,1:0|0:0,0:0:0:0:
332,256,143598,2,0,P|341:209|327:163,1,96.9000018482209,10|0,0:0|0:0,0:0:0:0:
304,144,144042,2,0,L|239:146,1,64.6000012321472,2|0,1:0|1:0,0:0:0:0:
168,193,144487,2,0,P|154:151|166:101,1,96.9000018482209,10|0,0:0|0:0,0:0:0:0:
180,72,144931,2,0,P|136:85|84:73,1,96.9000018482209,2|0,1:0|0:0,0:0:0:0:
60,60,145376,2,0,L|56:127,1,64.6000012321472,10|0,0:0|0:0,0:0:0:0:
84,204,145820,1,2,1:0:0:0:
116,280,146042,1,0,1:0:0:0:
121,294,146153,1,0,1:0:0:0:
127,309,146264,1,10,0:0:0:0:
236,184,146709,6,0,P|203:177|173:183,1,64.6000012321472,2|2,2:0|2:0,0:0:0:0:
204,260,147154,2,0,P|237:266|267:259,1,64.6000012321472,2|0,2:0|0:0,0:0:0:0:
336,212,147598,1,2,2:0:0:0:
312,48,148042,1,2,2:0:0:0:
182,151,148487,1,2,2:0:0:0:
264,139,148709,1,2,2:0:0:0:
346,127,148931,1,2,2:0:0:0:
376,108,152042,6,0,B|302:141|302:85|222:113,1,152,6|10,1:0|0:0,0:0:0:0:
150,173,152709,1,0,0:0:0:0:
242,209,152931,2,0,P|254:249|250:285,1,76,2|0,1:0|0:0,0:0:0:0:
178,349,153376,2,0,L|58:345,1,114,10|0,0:0|0:0,0:0:0:0:
32,324,153820,6,0,P|16:284|16:244,1,76,2|2,1:0|0:0,0:0:0:0:
82,173,154265,1,2,0:0:0:0:
130,261,154487,1,2,0:0:0:0:
178,349,154709,2,0,P|256:366|324:349,1,152,2|8,1:0|0:0,0:0:0:0:
404,224,155376,5,10,0:0:0:0:
403,205,155487,1,8,0:0:0:0:
402,186,155598,2,0,P|366:178|326:186,1,76,6|2,1:0|1:0,0:0:0:0:
252,244,156042,1,10,0:0:0:0:
239,149,156265,1,2,0:0:0:0:
226,54,156487,1,2,1:0:0:0:
314,90,156709,1,2,1:0:0:0:
239,149,156931,2,0,P|196:164|160:164,1,76,10|2,0:0|0:0,0:0:0:0:
72,136,157376,5,2,1:0:0:0:
94,230,157598,1,2,0:0:0:0:
98,248,157709,1,2,0:0:0:0:
100,267,157820,2,0,P|94:308|103:347,1,76,10|2,0:0|0:0,0:0:0:0:
192,304,158265,2,0,B|266:279|265:335|339:303,1,152,6|8,1:0|0:0,0:0:0:0:
420,184,158931,5,8,0:0:0:0:
404,172,159042,1,8,0:0:0:0:
385,167,159154,2,0,P|348:171|310:167,1,76,6|0,1:0|0:0,0:0:0:0:
216,144,159598,2,0,P|232:108|260:84,1,76,10|0,0:0|0:0,0:0:0:0:
309,166,160042,2,0,L|315:285,1,114,2|0,1:0|0:0,0:0:0:0:
324,316,160487,2,0,P|284:332|244:328,1,76,10|0,0:0|0:0,0:0:0:0:
176,264,160931,5,2,1:0:0:0:
271,235,161154,1,2,0:0:0:0:
368,208,161376,2,0,P|374:171|363:130,1,76,10|2,0:0|0:0,0:0:0:0:
284,80,161820,2,0,L|128:88,1,152,2|8,1:0|0:0,0:0:0:0:
56,208,162487,5,10,0:0:0:0:
52,226,162598,1,8,0:0:0:0:
56,245,162709,2,0,P|68:288|68:324,1,76,6|2,1:0|1:0,0:0:0:0:
152,372,163154,1,10,0:0:0:0:
236,320,163376,1,2,0:0:0:0:
208,224,163598,2,0,P|200:188|208:144,1,76,2|2,1:0|1:0,0:0:0:0:
260,64,164042,1,10,0:0:0:0:
364,148,164265,6,0,L|419:145,2,38,2|0|6,0:0|0:0|1:0,0:0:0:0:
332,240,164709,1,10,0:0:0:0:
326,257,164820,1,8,0:0:0:0:
321,276,164931,2,0,L|245:279,1,76,6|10,1:0|0:0,0:0:0:0:
156,320,165376,2,0,P|147:284|154:244,1,76,6|8,1:0|0:0,0:0:0:0:
208,164,165820,1,6,1:0:0:0:
108,76,166042,1,10,0:0:0:0:
89,72,166153,1,8,0:0:0:0:
70,75,166265,6,0,P|52:108|52:152,1,76,6|0,1:0|0:0,0:0:0:0:
52,244,166709,1,10,0:0:0:0:
136,192,166931,1,2,0:0:0:0:
224,240,167154,2,0,B|298:263|296:207|370:238,1,152,2|8,1:0|0:0,0:0:0:0:
371,238,168042,6,0,P|362:201|369:163,1,76,0|0,1:0|0:0,0:0:0:0:
428,84,168487,2,0,P|392:64|352:64,1,76,8|0,0:0|0:0,0:0:0:0:
279,124,168931,2,0,P|207:143|133:126,1,152,0|8,1:0|0:0,0:0:0:0:
27,55,169598,1,8,0:0:0:0:
33,72,169709,1,8,0:0:0:0:
35,90,169820,6,0,P|29:128|37:165,1,76,6|2,1:0|1:0,0:0:0:0:
64,260,170265,2,0,P|97:245|124:212,1,76,10|0,0:0|0:0,0:0:0:0:
172,128,170709,1,2,1:0:0:0:
223,215,170931,1,2,1:0:0:0:
274,302,171154,2,0,L|349:297,1,76,10|0,0:0|0:0,0:0:0:0:
440,256,171598,6,0,P|449:296|439:340,2,76,6|2|14,1:0|0:0|0:0,0:0:0:0:
372,184,172265,1,2,0:0:0:0:
308,260,172487,2,0,P|272:272|212:264,1,76,6|10,1:0|0:0,0:0:0:0:
148,224,172931,1,14,0:0:0:0:
244,140,173154,1,8,0:0:0:0:
255,154,173265,1,8,0:0:0:0:
261,172,173376,5,6,1:0:0:0:
308,260,173598,2,0,L|304:308,2,38,8|8|6,0:0|0:0|1:0,0:0:0:0:
392,208,174042,1,10,0:0:0:0:
410,203,174153,1,8,0:0:0:0:
428,207,174265,2,0,P|464:217|503:213,1,76,6|0,1:0|0:0,0:0:0:0:
472,120,174709,1,10,0:0:0:0:
440,28,174931,1,0,1:0:0:0:
421,33,175042,1,0,1:0:0:0:
406,43,175154,6,0,P|366:55|322:47,1,76,6|10,1:0|0:0,0:0:0:0:
252,108,175598,1,6,1:0:0:0:
332,168,175820,1,10,0:0:0:0:
252,224,176042,2,0,B|180:252|180:192|88:232,1,152,6|8,1:0|0:0,0:0:0:0:
216,140,176709,5,10,0:0:0:0:
216,140,176931,2,0,P|222:103|211:62,1,76,6|2,1:0|1:0,0:0:0:0:
124,108,177376,1,10,0:0:0:0:
140,204,177598,1,2,0:0:0:0:
232,236,177820,2,0,B|266:227|266:227|305:236,1,76,2|2,1:0|1:0,0:0:0:0:
400,268,178265,2,0,P|405:227|396:192,1,76,10|2,0:0|0:0,0:0:0:0:
312,140,178709,5,2,1:0:0:0:
305,236,178931,1,0,0:0:0:0:
298,332,179154,1,10,0:0:0:0:
212,280,179376,2,0,L|172:282,2,38,8|8|6,0:0|0:0|1:0,0:0:0:0:
305,236,179820,1,8,0:0:0:0:
323,236,179931,1,8,0:0:0:0:
342,237,180042,1,6,1:0:0:0:
256,192,185820,6,0,P|287:199|318:193,1,64.6000012321472,0|0,1:0|0:0,0:0:0:0:
402,185,186265,2,0,P|386:144|359:120,1,64.6000012321472,0|0,1:0|0:0,0:0:0:0:
289,116,186709,1,0,1:0:0:0:
256,192,186931,1,0,0:0:0:0:
223,268,187154,1,0,1:0:0:0:
217,283,187265,1,0,1:0:0:0:
211,298,187376,1,0,1:0:0:0:
205,313,187487,1,0,1:0:0:0:
199,328,187598,6,0,P|160:336|120:328,1,76,4|0,1:0|0:0,0:0:0:0:
48,268,188042,1,8,0:0:0:0:
120,200,188265,2,0,B|136:148|120:96|120:96|164:128,1,152
240,176,188931,1,8,0:0:0:0:
322,123,189154,2,0,B|360:96|360:96|344:148|360:200,1,152,0|0,0:0|0:0,0:0:0:0:
436,264,189820,1,8,0:0:0:0:
344,300,190042,2,0,B|268:328|268:268|184:308,1,152,0|0,0:0|0:0,0:0:0:0:
116,244,190709,1,8,0:0:0:0:
195,302,190931,1,0,0:0:0:0:
308,220,191154,6,0,P|328:148|300:72,1,152,4|8,1:0|0:0,0:0:0:0:
303,77,192042,2,0,P|231:99|158:78,1,152,0|8,1:0|0:0,0:0:0:0:
159,78,192931,2,0,P|139:150|163:221,1,152,0|8,1:0|0:0,0:0:0:0:
163,221,193820,2,0,P|234:198|306:220,1,152,0|8,1:0|0:0,0:0:0:0:
305,219,194709,6,0,P|297:183|306:146,1,76,4|0,1:0|0:0,0:0:0:0:
320,48,195154,2,0,P|356:60|384:86,1,76,8|0,0:0|0:0,0:0:0:0:
463,150,195598,2,0,B|435:186|388:188|388:188|399:223|387:253,1,152,0|8,1:0|0:0,0:0:0:0:
387,251,196487,6,0,P|347:239|303:247,1,76,0|0,1:0|0:0,0:0:0:0:
228,292,196931,2,0,P|188:304|144:296,1,76,8|0,0:0|0:0,0:0:0:0:
86,226,197376,1,0,1:0:0:0:
183,204,197598,1,0,0:0:0:0:
280,182,197820,2,0,P|288:147|276:103,1,76,8|0,0:0|0:0,0:0:0:0:
236,18,198265,5,4,1:0:0:0:
178,99,198487,1,0,0:0:0:0:
278,108,198709,2,0,L|365:103,1,76,8|0,0:0|0:0,0:0:0:0:
453,95,199154,5,0,1:0:0:0:
395,14,199376,1,0,0:0:0:0:
353,104,199598,1,8,0:0:0:0:
411,185,199820,1,8,0:0:0:0:
417,202,199931,1,8,0:0:0:0:
420,221,200042,6,0,P|416:264|420:296,1,76,0|0,1:0|1:0,0:0:0:0:
344,360,200487,1,12,0:0:0:0:
256,316,200709,1,0,1:0:0:0:
238,309,200820,1,0,1:0:0:0:
219,307,200931,2,0,P|180:316|131:307,1,76,4|0,1:0|1:0,0:0:0:0:
64,252,201376,1,12,0:0:0:0:
144,192,201598,1,0,1:0:0:0:
60,136,201820,6,0,L|20:140,2,38,12|0|0,0:0|0:0|1:0,0:0:0:0:
144,84,202265,1,12,0:0:0:0:
228,136,202487,1,8,0:0:0:0:
244,144,202598,1,8,0:0:0:0:
263,147,202709,2,0,P|300:144|337:151,1,76,4|0,1:0|1:0,0:0:0:0:
433,178,203154,2,0,P|409:222|377:242,1,76,12|0,0:0|1:0,0:0:0:0:
296,268,203598,5,12,0:0:0:0:
