osu file format v14

[General]
AudioFilename: audio.mp3
AudioLeadIn: 0
PreviewTime: 49353
Countdown: 0
SampleSet: Soft
StackLeniency: 0.3
Mode: 0
LetterboxInBreaks: 0
WidescreenStoryboard: 0

[Editor]
Bookmarks: 77195
DistanceSpacing: 1.4
BeatDivisor: 4
GridSize: 4
TimelineZoom: 1

[Metadata]
Title:Patchwork Staccato
TitleUnicode:ツギハギスタッカート
Artist:nameless x toa
ArtistUnicode:nameless×とあ
Creator:victorfernando
Version:Sandrew's Hard
Source:初音ミク -Project DIVA- X
Tags:Japanese Pop とあ toa Tsugihagi nameless patchwork staccato victorfernando Sandrew Marianna Bariton MkGuh tv edit 212
BeatmapID:1408339
BeatmapSetID:663385

[Difficulty]
HPDrainRate:5
CircleSize:4
OverallDifficulty:6
ApproachRate:7
SliderMultiplier:1.4
SliderTickRate:1

[Events]
//Background and Video events
Video,-350,"patchwork.avi"
0,0,"bgbg (1).jpg",0,0
//Break Periods
//Storyboard Layer 0 (Background)
//Storyboard Layer 1 (Fail)
//Storyboard Layer 2 (Pass)
//Storyboard Layer 3 (Foreground)
//Storyboard Sound Samples

[TimingPoints]
2532,431.654676258993,4,2,1,50,1,0
2532,-125,4,2,1,50,0,0
16344,-100,4,2,1,60,0,0
19366,-100,4,2,2,60,0,0
30157,-125,4,2,2,50,0,0
46452,-125,4,2,2,50,0,0
49366,-100,4,2,2,50,0,0
50014,431.654676258993,4,2,1,50,1,0
50014,-100,4,2,2,60,0,1
62747,-100,4,2,2,60,0,0
63826,-100,4,2,2,60,0,1
77208,-100,4,2,2,60,0,0
79366,-100,4,2,2,60,0,0

[Colours]
Combo1 : 255,174,174
Combo2 : 255,255,125
Combo3 : 173,255,91
Combo4 : 180,236,252
SliderBorder : 240,240,255
SliderTrackOverride : 40,50,70

[HitObjects]
79,65,2532,6,0,P|137:59|184:88,1,112,2|0,0:0|0:0,0:0:0:0:
120,140,3179,1,0,0:0:0:0:
52,190,3395,2,0,P|45:218|49:250,1,56,2|0,0:0|0:0,0:0:0:0:
176,334,4042,5,0,0:0:0:0:
244,284,4258,2,0,P|251:256|247:224,1,56,2|0,0:0|0:0,0:0:0:0:
120,140,4906,5,0,0:0:0:0:
184,80,5121,2,0,L|248:84,1,56,2|8,0:0|0:0,0:0:0:0:
312,52,5553,2,0,L|368:48,1,56,10|2,0:0|0:0,0:0:0:0:
434,98,5985,6,0,P|451:152|434:204,1,112,2|0,0:0|0:0,0:0:0:0:
373,151,6632,1,0,0:0:0:0:
294,146,6848,2,0,P|266:139|234:143,1,56,2|0,0:0|0:0,0:0:0:0:
159,277,7496,5,0,0:0:0:0:
238,282,7712,2,0,P|266:289|298:285,1,56,2|0,0:0|0:0,0:0:0:0:
373,151,8359,5,0,0:0:0:0:
439,192,8575,2,0,P|448:225|448:262,1,56,2|8,0:0|0:0,0:0:0:0:
488,324,9006,2,0,P|444:332|412:320,1,56,8|2,0:0|0:0,0:0:0:0:
360,288,9438,1,2,0:0:0:0:
260,206,10085,5,0,0:0:0:0:
265,127,10301,2,0,P|272:99|268:67,1,56,2|0,0:0|0:0,0:0:0:0:
115,39,10949,5,0,0:0:0:0:
110,118,11165,2,0,P|103:146|107:178,1,56,2|0,0:0|0:0,0:0:0:0:
259,205,11812,5,0,0:0:0:0:
243,281,12028,2,0,P|209:292|171:296,1,56,2|8,0:0|0:0,0:0:0:0:
112,335,12460,2,0,P|77:338|39:332,1,56,10|0,0:0|0:0,0:0:0:0:
83,262,12891,6,0,P|60:235|46:202,1,56,2|0,0:0|0:0,0:0:0:0:
131,192,13323,2,0,P|121:159|124:122,1,56,2|0,0:0|0:0,0:0:0:0:
113,59,13755,1,2,0:0:0:0:
50,216,14186,5,2,0:0:0:0:
131,192,14402,1,2,0:0:0:0:
211,167,14618,2,0,P|247:157|274:136,1,56,2|2,0:0|0:0,0:0:0:0:
235,73,15049,2,0,P|199:83|172:104,2,56,2|2|2,0:0|0:0|0:0,0:0:0:0:
310,89,15697,5,4,0:3:0:0:
211,167,15913,2,0,L|208:240,1,56,8|4,0:0|3:0,0:0:0:0:
305,228,16344,6,0,L|309:80,1,140,4|10,0:1|0:0,0:0:0:0:
384,50,16992,2,0,L|469:46,2,70,2|2|8,0:0|0:0|0:0,0:0:0:0:
310,89,17639,2,0,P|332:121|371:138,1,70,10|10,0:0|0:0,0:0:0:0:
441,153,18071,6,0,P|448:224|433:301,1,140,10|10,0:0|0:0,0:0:0:0:
360,254,18719,1,2,0:0:0:0:
360,254,18934,2,0,P|352:288|358:323,1,70,2|8,0:0|0:2,0:0:0:0:
433,359,19366,2,0,P|441:325|436:290,1,70,10|4,0:0|0:3,0:0:0:0:
360,254,19798,6,0,L|220:258,1,140,4|8,0:0|0:0,0:0:0:0:
171,326,20445,2,0,P|138:333|100:326,2,70,0|0|4,0:0|0:0|0:3,0:0:0:0:
136,246,21093,1,10,0:0:0:0:
136,246,21308,1,0,0:0:0:0:
52,233,21524,6,0,P|45:162|60:85,1,140,4|10,3:0|0:0,0:0:0:0:
133,132,22172,1,0,0:0:0:0:
133,132,22387,2,0,P|141:98|135:63,1,70,0|8,0:0|0:0,0:0:0:0:
60,27,22819,2,0,P|52:61|57:96,1,70,10|8,0:0|0:0,0:0:0:0:
133,132,23251,6,0,L|273:128,1,140,6|8,0:0|0:0,0:0:0:0:
326,63,23898,2,0,P|359:56|397:63,2,70,2|2|4,0:0|0:0|0:3,0:0:0:0:
362,139,24546,2,0,P|369:184|359:218,1,70,8|4,0:0|3:0,0:0:0:0:
312,274,24978,6,0,P|241:283|163:271,1,140,4|8,3:0|0:0,0:0:0:0:
207,197,25625,1,2,0:0:0:0:
207,197,25841,2,0,P|242:201|276:196,1,70,2|8,0:0|0:0,0:0:0:0:
312,274,26273,2,0,P|305:308|314:344,1,70,10|8,0:0|0:0,0:0:0:0:
388,306,26704,5,8,0:0:0:0:
465,338,26920,1,2,0:0:0:0:
465,338,27136,2,0,P|472:304|463:268,1,70,8|0,0:0|0:0,0:0:0:0:
486,189,27567,2,0,L|496:106,1,70,2|8,0:0|0:0,0:0:0:0:
411,134,27999,2,0,L|408:48,1,70,8|2,0:0|0:0,0:0:0:0:
324,67,28431,5,8,0:0:0:0:
301,151,28647,1,2,0:0:0:0:
301,151,28862,2,0,P|263:155|208:142,1,70,8|0,0:0|0:0,0:0:0:0:
135,68,29294,2,0,P|169:63|204:68,1,70,4|8,3:0|0:0,0:0:0:0:
231,150,29726,1,8,0:0:0:0:
231,150,30157,6,0,L|230:272,1,112,2|2,0:0|0:0,0:0:0:0:
191,331,30805,1,0,0:0:0:0:
191,331,31021,2,0,B|136:344|136:344|64:328,1,112,2|2,0:0|0:0,0:0:0:0:
47,259,31668,1,0,0:0:0:0:
47,259,31884,6,0,P|36:202|49:133,1,112,2|2,0:0|0:0,0:0:0:0:
187,86,32747,2,0,P|198:143|185:212,1,112,2|2,0:0|0:0,0:0:0:0:
43,149,33611,5,2,0:0:0:0:
190,195,34042,1,2,0:0:0:0:
50,122,34474,1,2,0:0:0:0:
183,222,34906,1,2,0:0:0:0:
187,86,35337,6,0,L|252:92,1,56,2|0,0:0|0:0,0:0:0:0:
304,39,35769,2,0,L|368:32,1,56,2|0,0:0|0:0,0:0:0:0:
435,64,36201,2,0,B|432:106|432:106|441:125|441:125|436:174,1,112,2|2,0:0|0:0,0:0:0:0:
277,162,37064,6,0,L|278:284,1,112,2|2,0:0|0:0,0:0:0:0:
317,343,37712,1,0,0:0:0:0:
317,343,37928,2,0,P|372:352|444:336,1,112,2|2,0:0|0:0,0:0:0:0:
461,271,38575,1,0,0:0:0:0:
461,271,38791,6,0,P|472:214|459:145,1,112,2|2,0:0|0:0,0:0:0:0:
321,98,39654,2,0,P|310:155|323:224,1,112,2|2,0:0|0:0,0:0:0:0:
465,161,40518,5,2,0:0:0:0:
318,207,40949,1,2,0:0:0:0:
458,134,41381,1,2,0:0:0:0:
325,234,41813,1,2,0:0:0:0:
321,98,42244,6,0,B|309:72|309:72|268:88|219:75,1,112,2|2,0:0|0:0,0:0:0:0:
403,135,43107,2,0,P|434:139|467:129,2,56,2|0|2,0:0|0:0|0:0,0:0:0:0:
246,130,43970,6,0,P|215:126|182:136,2,56,2|0|0,0:0|0:0|0:0,0:0:0:0:
321,98,44618,1,2,0:0:0:0:
323,254,45049,2,0,P|325:284|317:317,1,56,0|0,0:0|0:0,0:0:0:0:
244,333,45481,6,0,P|191:342|110:325,1,112,2|0,0:0|0:0,0:0:0:0:
64,296,46129,1,0,0:0:0:0:
64,296,46344,1,2,0:0:0:0:
256,192,46452,12,0,48071,0:0:0:0:
359,133,49366,5,8,0:0:0:0:
359,133,49582,2,0,B|351:97|351:97|364:56,1,70,2|8,0:0|0:0,0:0:0:0:
445,148,50014,6,0,P|468:210|467:297,1,140,2|8,0:0|0:1,0:0:0:0:
412,345,50661,1,8,0:0:0:0:
412,345,50877,2,0,P|389:283|390:196,1,140,2|8,0:0|0:1,0:0:0:0:
359,133,51524,2,0,L|206:125,1,140,10|8,0:0|0:0,0:0:0:0:
165,60,52172,2,0,P|128:43|79:40,1,70,8|0,0:1|0:0,0:0:0:0:
70,117,52603,1,2,0:2:0:0:
70,117,52819,1,10,0:2:0:0:
70,117,53035,2,0,P|107:134|156:137,1,70,8|2,0:1|0:2,0:0:0:0:
219,125,53467,6,0,P|228:195|219:283,1,140,10|8,0:0|0:1,0:0:0:0:
178,335,54114,1,8,0:0:0:0:
178,335,54330,2,0,P|108:343|38:338,1,140,10|8,0:0|0:1,0:0:0:0:
83,267,54978,2,0,P|152:258|222:263,1,140,8|8,0:0|0:0,0:0:0:0:
289,313,55625,2,0,P|302:280|302:222,1,70,8|2,0:1|0:0,0:0:0:0:
255,186,56057,1,2,0:0:0:0:
260,102,56272,1,10,0:0:0:0:
260,102,56488,1,8,0:1:0:0:
83,267,56920,6,0,P|60:205|61:118,1,140,10|8,0:0|0:1,0:0:0:0:
116,70,57567,1,8,0:0:0:0:
116,70,57783,2,0,P|139:132|138:219,1,140,10|8,0:0|0:1,0:0:0:0:
169,282,58430,2,0,L|322:290,1,140,10|8,0:0|0:0,0:0:0:0:
363,355,59078,2,0,P|400:372|449:375,1,70,8|0,0:1|0:0,0:0:0:0:
458,298,59509,1,2,0:0:0:0:
458,298,59725,1,10,0:0:0:0:
458,298,59941,2,0,P|421:281|372:278,1,70,8|2,0:1|0:0,0:0:0:0:
308,289,60373,6,0,P|299:219|308:131,1,140,10|8,0:0|0:1,0:0:0:0:
349,79,61020,1,10,0:0:0:0:
349,79,61236,2,0,P|418:70|488:75,1,140,8|8,0:0|0:1,0:0:0:0:
460,155,61884,1,10,0:0:0:0:
460,155,62100,2,0,P|425:152|390:156,1,70,8|2,0:0|0:0,0:0:0:0:
349,79,62532,2,0,P|317:64|283:57,1,70,8|10,0:1|0:0,0:0:0:0:
227,123,62963,1,0,0:0:0:0:
199,44,63179,1,0,0:0:0:0:
199,44,63395,1,10,0:1:0:0:
66,147,63826,6,0,P|43:209|44:296,1,140,10|8,0:0|0:1,0:0:0:0:
99,344,64473,1,8,0:0:0:0:
99,344,64689,2,0,P|122:282|121:195,1,140,10|8,0:0|0:1,0:0:0:0:
132,116,65337,2,0,P|200:120|276:96,1,140,10|8,0:0|0:0,0:0:0:0:
347,60,65985,2,0,P|384:43|433:40,1,70,8|8,0:1|0:0,0:0:0:0:
442,117,66416,1,2,0:0:0:0:
442,117,66632,1,10,0:0:0:0:
442,117,66848,2,0,P|405:134|356:137,1,70,8|2,0:1|0:0,0:0:0:0:
288,120,67280,6,0,P|279:190|288:278,1,140,10|8,0:0|0:1,0:0:0:0:
332,334,67927,1,8,0:0:0:0:
332,334,68143,2,0,P|402:342|472:337,1,140,10|8,0:0|0:1,0:0:0:0:
423,262,68791,2,0,P|354:253|284:258,1,140,10|10,0:0|0:0,0:0:0:0:
216,312,69438,2,0,P|203:279|203:221,1,70,8|10,0:1|0:0,0:0:0:0:
255,185,69870,1,0,0:0:0:0:
250,101,70086,1,10,0:0:0:0:
250,101,70301,2,0,P|279:73|319:66,1,70,8|2,0:1|0:0,0:0:0:0:
384,99,70733,6,0,P|369:163|382:249,1,140,10|8,0:0|0:1,0:0:0:0:
444,289,71380,1,8,0:0:0:0:
444,289,71596,2,0,P|458:224|445:138,1,140,10|8,0:0|0:1,0:0:0:0:
384,99,72243,2,0,L|233:100,1,140,10|8,0:0|0:0,0:0:0:0:
176,48,72891,2,0,P|142:37|107:37,1,70,8|8,0:1|0:0,0:0:0:0:
97,119,73322,1,2,0:0:0:0:
97,119,73539,1,10,0:0:0:0:
97,119,73755,2,0,P|130:129|165:129,1,70,8|2,0:1|0:0,0:0:0:0:
244,99,74186,6,0,P|253:169|244:257,1,140,10|8,0:0|0:1,0:0:0:0:
203,309,74833,1,8,0:0:0:0:
203,309,75049,2,0,P|134:318|64:313,1,140,8|8,0:0|0:1,0:0:0:0:
92,233,75697,1,10,0:0:0:0:
92,233,75913,2,0,P|127:236|162:232,1,70,8|2,0:0|0:0,0:0:0:0:
203,309,76345,2,0,P|235:324|269:331,1,70,8|10,0:1|0:0,0:0:0:0:
364,312,76776,5,10,0:0:0:0:
364,312,76884,1,0,0:0:0:0:
364,312,76992,1,2,0:0:0:0:
404,224,77208,1,8,0:1:0:0:
256,192,77639,12,0,79366,0:0:0:0:
