osu file format v14

[General]
AudioFilename: audio.mp3
AudioLeadIn: 0
PreviewTime: 128177
Countdown: 0
SampleSet: Soft
StackLeniency: 0.7
Mode: 3
LetterboxInBreaks: 0
SpecialStyle: 0
WidescreenStoryboard: 0

[Editor]
DistanceSpacing: 0.7
BeatDivisor: 8
GridSize: 4
TimelineZoom: 1

[Metadata]
Title:Tsuyuake no
TitleUnicode:梅雨明けの
Artist:nameless
ArtistUnicode:nameless
Creator:Remuring
Version:Rainy
Source:
Tags:
BeatmapID:1646292
BeatmapSetID:784077

[Difficulty]
HPDrainRate:10
CircleSize:7
OverallDifficulty:10
ApproachRate:5
SliderMultiplier:1.4
SliderTickRate:1

[Events]
//Background and Video events
0,0,"stretched-1920-1080-838001.jpg",0,0
//Break Periods
//Storyboard Layer 0 (Background)
//Storyboard Layer 1 (Fail)
//Storyboard Layer 2 (Pass)
//Storyboard Layer 3 (Foreground)
//Storyboard Sound Samples

[TimingPoints]
3377,800,4,2,1,50,1,0
126577,-33.3333333333333,4,2,1,50,0,0
127577,-1000,4,2,1,50,0,0
128177,-100,4,2,1,50,0,0
153777,-125,4,2,1,50,0,0
154577,-142.857142857143,4,2,1,50,0,0
155377,-166.666666666667,4,2,1,50,0,0
156277,-200,4,2,1,50,0,0
157077,-250,4,2,1,50,0,0
157977,-333.333333333333,4,2,1,50,0,0

[HitObjects]
36,192,3377,128,0,4977:0:0:0:0:
182,192,3377,1,0,0:0:0:0:
475,192,4977,128,0,6577:0:0:0:0:
329,192,4977,1,0,0:0:0:0:
36,192,6577,128,0,8577:0:0:0:0:
182,192,6577,1,0,0:0:0:0:
329,192,7377,128,0,7777:0:0:0:0:
182,192,7777,128,0,7977:0:0:0:0:
329,192,7977,128,0,8177:0:0:0:0:
182,192,8177,128,0,8377:0:0:0:0:
329,192,8377,128,0,9777:0:0:0:0:
109,192,8577,128,0,8977:0:0:0:0:
182,192,8977,128,0,9377:0:0:0:0:
256,192,9377,128,0,9777:0:0:0:0:
36,192,9777,1,0,0:0:0:0:
475,192,9777,128,0,12177:0:0:0:0:
329,192,12177,128,0,12977:0:0:0:0:
182,192,12177,1,0,0:0:0:0:
182,192,12977,128,0,14177:0:0:0:0:
475,192,12977,1,0,0:0:0:0:
402,192,14177,128,0,14577:0:0:0:0:
256,192,14577,1,0,0:0:0:0:
182,192,14777,1,0,0:0:0:0:
182,192,15177,1,0,0:0:0:0:
109,192,15577,1,0,0:0:0:0:
36,192,16177,128,0,17777:0:0:0:0:
182,192,16177,128,0,16577:0:0:0:0:
329,192,16577,128,0,16777:0:0:0:0:
256,192,16777,128,0,17377:0:0:0:0:
182,192,17377,128,0,17777:0:0:0:0:
475,192,17777,128,0,19377:0:0:0:0:
329,192,17777,128,0,18177:0:0:0:0:
256,192,18177,128,0,18577:0:0:0:0:
182,192,18577,128,0,18977:0:0:0:0:
109,192,18977,128,0,19377:0:0:0:0:
182,192,19377,128,0,20977:0:0:0:0:
36,192,19377,1,0,0:0:0:0:
109,192,21377,128,0,21777:0:0:0:0:
182,192,21777,128,0,22177:0:0:0:0:
256,192,22177,128,0,22577:0:0:0:0:
475,192,22177,128,0,22577:0:0:0:0:
329,192,22577,128,0,24977:0:0:0:0:
36,192,22577,128,0,22977:0:0:0:0:
182,192,22977,128,0,23177:0:0:0:0:
109,192,23177,128,0,23977:0:0:0:0:
182,192,24577,128,0,24977:0:0:0:0:
475,192,24977,128,0,25777:0:0:0:0:
36,192,24977,128,0,25377:0:0:0:0:
182,192,25377,128,0,25577:0:0:0:0:
256,192,25577,128,0,25777:0:0:0:0:
36,192,25777,128,0,27377:0:0:0:0:
329,192,25777,128,0,26977:0:0:0:0:
256,192,27377,1,0,0:0:0:0:
36,192,28977,128,0,30177:0:0:0:0:
329,192,28977,128,0,29377:0:0:0:0:
256,192,29377,128,0,29577:0:0:0:0:
182,192,29577,128,0,30177:0:0:0:0:
402,192,30177,128,0,30577:0:0:0:0:
475,192,30577,128,0,31777:0:0:0:0:
109,192,30577,128,0,30977:0:0:0:0:
182,192,30977,128,0,31377:0:0:0:0:
256,192,31377,128,0,31777:0:0:0:0:
329,192,31777,128,0,32177:0:0:0:0:
402,192,32177,128,0,33377:0:0:0:0:
36,192,32177,1,0,0:0:0:0:
182,192,33377,1,0,0:0:0:0:
256,192,33777,1,0,0:0:0:0:
329,192,33977,1,0,0:0:0:0:
36,192,34177,128,0,34577:0:0:0:0:
329,192,34377,1,0,0:0:0:0:
109,192,34577,128,0,34977:0:0:0:0:
402,192,34777,1,0,0:0:0:0:
182,192,34977,128,0,35377:0:0:0:0:
475,192,35377,128,0,36577:0:0:0:0:
329,192,35377,128,0,35777:0:0:0:0:
256,192,35777,128,0,36177:0:0:0:0:
402,192,36577,1,0,0:0:0:0:
182,192,36577,128,0,36977:0:0:0:0:
329,192,36777,1,0,0:0:0:0:
109,192,36977,128,0,37377:0:0:0:0:
36,192,37377,128,0,38577:0:0:0:0:
329,192,37377,128,0,37777:0:0:0:0:
256,192,37777,128,0,38177:0:0:0:0:
182,192,38177,128,0,39377:0:0:0:0:
402,192,38177,128,0,38577:0:0:0:0:
475,192,38577,128,0,38977:0:0:0:0:
329,192,38577,1,0,0:0:0:0:
402,192,38977,128,0,39377:0:0:0:0:
329,192,39377,128,0,39777:0:0:0:0:
256,192,39777,128,0,40177:0:0:0:0:
402,192,40177,128,0,40577:0:0:0:0:
329,192,40577,128,0,40977:0:0:0:0:
256,192,40977,128,0,41377:0:0:0:0:
182,192,41377,128,0,41777:0:0:0:0:
329,192,41777,128,0,42177:0:0:0:0:
36,192,41777,128,0,42177:0:0:0:0:
402,192,42177,128,0,42377:0:0:0:0:
109,192,42177,128,0,42577:0:0:0:0:
256,192,42377,128,0,42977:0:0:0:0:
182,192,42577,128,0,42977:0:0:0:0:
329,192,42977,128,0,43377:0:0:0:0:
475,192,43377,128,0,43777:0:0:0:0:
182,192,43377,128,0,43777:0:0:0:0:
256,192,43777,128,0,44177:0:0:0:0:
109,192,43777,128,0,44177:0:0:0:0:
402,192,44177,128,0,44577:0:0:0:0:
36,192,44177,128,0,44577:0:0:0:0:
182,192,44577,128,0,44977:0:0:0:0:
36,192,44977,128,0,45777:0:0:0:0:
329,192,44977,128,0,45377:0:0:0:0:
475,192,45377,128,0,46177:0:0:0:0:
182,192,45777,128,0,46177:0:0:0:0:
36,192,46177,128,0,46577:0:0:0:0:
109,192,46577,128,0,48177:0:0:0:0:
402,192,46577,1,0,0:0:0:0:
475,192,48177,128,0,48577:0:0:0:0:
36,192,48177,128,0,48577:0:0:0:0:
402,192,48577,128,0,48977:0:0:0:0:
182,192,48577,128,0,48777:0:0:0:0:
109,192,48777,128,0,49377:0:0:0:0:
329,192,48977,128,0,49377:0:0:0:0:
256,192,49377,128,0,49777:0:0:0:0:
182,192,49777,128,0,50577:0:0:0:0:
475,192,50577,128,0,51377:0:0:0:0:
36,192,50577,128,0,50977:0:0:0:0:
109,192,50977,128,0,51377:0:0:0:0:
182,192,51377,128,0,52177:0:0:0:0:
402,192,51377,128,0,52177:0:0:0:0:
329,192,52177,128,0,52577:0:0:0:0:
256,192,52577,128,0,52977:0:0:0:0:
182,192,52977,128,0,53777:0:0:0:0:
475,192,52977,1,0,0:0:0:0:
36,192,53777,128,0,54577:0:0:0:0:
475,192,54577,128,0,54977:0:0:0:0:
256,192,54577,128,0,54977:0:0:0:0:
402,192,54977,128,0,55377:0:0:0:0:
182,192,54977,128,0,55177:0:0:0:0:
109,192,55177,128,0,55777:0:0:0:0:
329,192,55377,128,0,55777:0:0:0:0:
182,192,55777,128,0,56177:0:0:0:0:
475,192,55777,1,0,0:0:0:0:
36,192,56177,128,0,56977:0:0:0:0:
402,192,56177,1,0,0:0:0:0:
182,192,56577,128,0,56977:0:0:0:0:
329,192,56577,1,0,0:0:0:0:
109,192,56977,128,0,57777:0:0:0:0:
402,192,56977,1,0,0:0:0:0:
256,192,57377,128,0,57777:0:0:0:0:
475,192,57777,128,0,58577:0:0:0:0:
36,192,57777,1,0,0:0:0:0:
329,192,58177,128,0,58577:0:0:0:0:
182,192,58177,1,0,0:0:0:0:
36,192,58577,128,0,59377:0:0:0:0:
182,192,58977,128,0,59377:0:0:0:0:
402,192,58977,1,0,0:0:0:0:
329,192,59177,128,0,60177:0:0:0:0:
402,192,59377,128,0,60177:0:0:0:0:
475,192,59377,1,0,0:0:0:0:
36,192,60977,128,0,61777:0:0:0:0:
475,192,60977,128,0,61377:0:0:0:0:
329,192,61377,128,0,61577:0:0:0:0:
402,192,61577,128,0,62577:0:0:0:0:
182,192,61777,128,0,62577:0:0:0:0:
329,192,62577,128,0,62977:0:0:0:0:
475,192,62977,128,0,63377:0:0:0:0:
182,192,62977,1,0,0:0:0:0:
329,192,63377,128,0,63777:0:0:0:0:
109,192,63377,1,0,0:0:0:0:
182,192,63777,128,0,64177:0:0:0:0:
36,192,63777,1,0,0:0:0:0:
36,192,64177,128,0,64977:0:0:0:0:
475,192,64177,1,0,0:0:0:0:
182,192,64977,128,0,65777:0:0:0:0:
475,192,65777,1,0,0:0:0:0:
402,192,65827,1,0,0:0:0:0:
402,192,67377,1,0,0:0:0:0:
329,192,67427,1,0,0:0:0:0:
329,192,68977,1,0,0:0:0:0:
256,192,69027,1,0,0:0:0:0:
36,192,73777,128,0,74977:0:0:0:0:
182,192,73777,1,0,0:0:0:0:
182,192,74977,1,0,0:0:0:0:
329,192,74977,1,0,0:0:0:0:
182,192,75377,128,0,76177:0:0:0:0:
329,192,76177,1,0,0:0:0:0:
329,192,76977,128,0,77777:0:0:0:0:
475,192,76977,1,0,0:0:0:0:
182,192,77777,128,0,78177:0:0:0:0:
329,192,78177,128,0,78377:0:0:0:0:
475,192,78177,128,0,78577:0:0:0:0:
182,192,78377,128,0,78577:0:0:0:0:
329,192,78577,128,0,78777:0:0:0:0:
109,192,78577,1,0,0:0:0:0:
182,192,78777,128,0,80177:0:0:0:0:
36,192,78777,1,0,0:0:0:0:
475,192,78977,1,0,0:0:0:0:
402,192,79177,1,0,0:0:0:0:
329,192,79377,128,0,79777:0:0:0:0:
475,192,79777,128,0,80177:0:0:0:0:
329,192,80177,128,0,81777:0:0:0:0:
36,192,80177,1,0,0:0:0:0:
36,192,81777,128,0,82177:0:0:0:0:
182,192,82177,128,0,82577:0:0:0:0:
329,192,82577,128,0,82977:0:0:0:0:
475,192,82577,1,0,0:0:0:0:
109,192,82977,128,0,83377:0:0:0:0:
256,192,83377,128,0,83777:0:0:0:0:
475,192,83377,1,0,0:0:0:0:
402,192,83777,1,0,0:0:0:0:
402,192,83977,128,0,84577:0:0:0:0:
329,192,84577,128,0,84977:0:0:0:0:
256,192,84977,1,0,0:0:0:0:
182,192,85177,1,0,0:0:0:0:
182,192,85577,1,0,0:0:0:0:
109,192,85977,1,0,0:0:0:0:
36,192,86577,128,0,88177:0:0:0:0:
182,192,86577,128,0,86977:0:0:0:0:
329,192,86977,128,0,87177:0:0:0:0:
256,192,87177,128,0,87777:0:0:0:0:
182,192,87777,128,0,88177:0:0:0:0:
475,192,88177,128,0,89777:0:0:0:0:
329,192,88177,128,0,88577:0:0:0:0:
256,192,88577,128,0,88977:0:0:0:0:
182,192,88977,128,0,89377:0:0:0:0:
402,192,88977,1,0,0:0:0:0:
109,192,89377,128,0,89777:0:0:0:0:
182,192,89777,128,0,91377:0:0:0:0:
36,192,89777,1,0,0:0:0:0:
329,192,90977,1,0,0:0:0:0:
475,192,91377,1,0,0:0:0:0:
402,192,91577,1,0,0:0:0:0:
36,192,91777,128,0,92177:0:0:0:0:
329,192,91977,1,0,0:0:0:0:
109,192,92177,128,0,92577:0:0:0:0:
256,192,92377,1,0,0:0:0:0:
182,192,92577,128,0,92977:0:0:0:0:
475,192,92977,128,0,94177:0:0:0:0:
329,192,92977,128,0,93377:0:0:0:0:
256,192,93377,128,0,93777:0:0:0:0:
402,192,94177,1,0,0:0:0:0:
182,192,94177,128,0,94577:0:0:0:0:
329,192,94377,1,0,0:0:0:0:
109,192,94577,128,0,94977:0:0:0:0:
36,192,94977,128,0,95377:0:0:0:0:
475,192,94977,128,0,95777:0:0:0:0:
182,192,95377,128,0,95777:0:0:0:0:
109,192,95777,128,0,96177:0:0:0:0:
402,192,95777,1,0,0:0:0:0:
329,192,96177,1,0,0:0:0:0:
256,192,96577,1,0,0:0:0:0:
182,192,96977,1,0,0:0:0:0:
109,192,97377,1,0,0:0:0:0:
402,192,97777,1,0,0:0:0:0:
329,192,97977,1,0,0:0:0:0:
182,192,98377,1,0,0:0:0:0:
109,192,98977,1,0,0:0:0:0:
36,192,99377,128,0,99777:0:0:0:0:
475,192,99377,128,0,99777:0:0:0:0:
182,192,99777,128,0,100177:0:0:0:0:
402,192,99777,128,0,99977:0:0:0:0:
329,192,99977,128,0,100577:0:0:0:0:
36,192,100177,128,0,100577:0:0:0:0:
182,192,100577,128,0,100977:0:0:0:0:
475,192,100577,128,0,100977:0:0:0:0:
109,192,100977,128,0,101377:0:0:0:0:
402,192,100977,128,0,101377:0:0:0:0:
256,192,101377,128,0,101777:0:0:0:0:
475,192,101377,128,0,101777:0:0:0:0:
109,192,101777,128,0,102177:0:0:0:0:
329,192,101777,128,0,102177:0:0:0:0:
256,192,102177,128,0,102577:0:0:0:0:
402,192,102177,128,0,102577:0:0:0:0:
36,192,102577,128,0,102777:0:0:0:0:
475,192,102577,128,0,102977:0:0:0:0:
36,192,102977,1,0,0:0:0:0:
329,192,102977,128,0,103377:0:0:0:0:
182,192,103377,128,0,103577:0:0:0:0:
475,192,103377,1,0,0:0:0:0:
182,192,103777,1,0,0:0:0:0:
329,192,104177,128,0,105777:0:0:0:0:
36,192,104177,1,0,0:0:0:0:
475,192,105777,128,0,106177:0:0:0:0:
36,192,105777,128,0,106177:0:0:0:0:
329,192,106177,128,0,106577:0:0:0:0:
109,192,106177,128,0,106377:0:0:0:0:
182,192,106377,128,0,106977:0:0:0:0:
475,192,106577,128,0,106977:0:0:0:0:
329,192,106977,128,0,107377:0:0:0:0:
109,192,106977,128,0,107377:0:0:0:0:
402,192,107377,128,0,107777:0:0:0:0:
36,192,107377,128,0,108177:0:0:0:0:
256,192,107777,128,0,108177:0:0:0:0:
402,192,108177,128,0,108577:0:0:0:0:
182,192,108177,128,0,108577:0:0:0:0:
256,192,108577,128,0,108977:0:0:0:0:
109,192,108577,128,0,108977:0:0:0:0:
329,192,108977,128,0,109377:0:0:0:0:
36,192,108977,128,0,109777:0:0:0:0:
182,192,109377,128,0,109777:0:0:0:0:
256,192,109777,128,0,110177:0:0:0:0:
475,192,109777,128,0,110177:0:0:0:0:
182,192,110177,128,0,110577:0:0:0:0:
402,192,110177,128,0,110577:0:0:0:0:
36,192,110577,128,0,110977:0:0:0:0:
329,192,110577,128,0,111377:0:0:0:0:
182,192,110977,128,0,111377:0:0:0:0:
36,192,111377,128,0,112177:0:0:0:0:
475,192,112177,128,0,112577:0:0:0:0:
109,192,112177,128,0,112577:0:0:0:0:
329,192,112577,128,0,112977:0:0:0:0:
182,192,112577,128,0,112777:0:0:0:0:
256,192,112777,128,0,113377:0:0:0:0:
402,192,112977,128,0,113377:0:0:0:0:
475,192,113377,128,0,113777:0:0:0:0:
109,192,113377,128,0,113777:0:0:0:0:
182,192,113777,128,0,114177:0:0:0:0:
402,192,113777,128,0,114177:0:0:0:0:
109,192,114177,128,0,114577:0:0:0:0:
329,192,114177,128,0,114577:0:0:0:0:
36,192,114577,128,0,115377:0:0:0:0:
256,192,114577,128,0,114977:0:0:0:0:
182,192,114977,128,0,115377:0:0:0:0:
475,192,115377,1,0,0:0:0:0:
402,192,115427,1,0,0:0:0:0:
256,192,116177,1,0,0:0:0:0:
329,192,116227,1,0,0:0:0:0:
109,192,116977,1,0,0:0:0:0:
36,192,117027,1,0,0:0:0:0:
109,192,118577,128,0,118977:0:0:0:0:
329,192,118577,128,0,118977:0:0:0:0:
182,192,118977,128,0,119377:0:0:0:0:
402,192,118977,128,0,119177:0:0:0:0:
475,192,119177,128,0,120177:0:0:0:0:
329,192,119377,128,0,119777:0:0:0:0:
109,192,119377,1,0,0:0:0:0:
402,192,119777,128,0,120177:0:0:0:0:
182,192,119777,1,0,0:0:0:0:
36,192,120177,128,0,120577:0:0:0:0:
329,192,120177,1,0,0:0:0:0:
182,192,120577,128,0,120977:0:0:0:0:
475,192,120577,1,0,0:0:0:0:
329,192,120977,128,0,121377:0:0:0:0:
36,192,120977,1,0,0:0:0:0:
475,192,121377,128,0,121777:0:0:0:0:
182,192,121377,1,0,0:0:0:0:
256,192,121777,128,0,123377:0:0:0:0:
36,192,121777,128,0,122377:0:0:0:0:
109,192,122377,128,0,122577:0:0:0:0:
182,192,122577,128,0,123177:0:0:0:0:
329,192,123177,128,0,123377:0:0:0:0:
36,192,123377,128,0,124977:0:0:0:0:
475,192,123377,128,0,124177:0:0:0:0:
256,192,124177,128,0,124977:0:0:0:0:
182,192,124977,1,0,0:0:0:0:
329,192,124977,1,0,0:0:0:0:
475,192,124977,1,0,0:0:0:0:
402,192,124977,1,0,0:0:0:0:
109,192,124977,1,0,0:0:0:0:
109,192,126577,1,0,0:0:0:0:
182,192,126577,1,0,0:0:0:0:
36,192,126577,1,0,0:0:0:0:
402,192,126577,1,0,0:0:0:0:
475,192,126577,1,0,0:0:0:0:
329,192,126577,1,0,0:0:0:0:
182,192,128177,1,0,0:0:0:0:
402,192,128177,1,0,0:0:0:0:
475,192,128177,1,0,0:0:0:0:
329,192,128177,1,0,0:0:0:0:
36,192,128177,128,0,128377:0:0:0:0:
109,192,128377,128,0,128577:0:0:0:0:
182,192,128577,128,0,128777:0:0:0:0:
256,192,128777,128,0,128977:0:0:0:0:
475,192,128977,128,0,129377:0:0:0:0:
36,192,128977,1,0,0:0:0:0:
109,192,128977,1,0,0:0:0:0:
329,192,129377,128,0,129777:0:0:0:0:
402,192,129777,128,0,130177:0:0:0:0:
182,192,129777,1,0,0:0:0:0:
475,192,130177,128,0,130977:0:0:0:0:
182,192,130177,1,0,0:0:0:0:
36,192,130577,1,0,0:0:0:0:
109,192,130577,1,0,0:0:0:0:
329,192,130577,1,0,0:0:0:0:
256,192,130977,128,0,131177:0:0:0:0:
182,192,131177,128,0,131377:0:0:0:0:
329,192,131377,128,0,131577:0:0:0:0:
36,192,131377,1,0,0:0:0:0:
256,192,131577,128,0,131777:0:0:0:0:
182,192,131777,128,0,131977:0:0:0:0:
109,192,131977,128,0,132177:0:0:0:0:
36,192,132177,128,0,132577:0:0:0:0:
402,192,132177,1,0,0:0:0:0:
475,192,132177,1,0,0:0:0:0:
182,192,132577,128,0,132977:0:0:0:0:
109,192,132977,128,0,133377:0:0:0:0:
329,192,132977,1,0,0:0:0:0:
36,192,133377,128,0,134177:0:0:0:0:
329,192,133377,1,0,0:0:0:0:
402,192,133777,1,0,0:0:0:0:
475,192,133777,1,0,0:0:0:0:
182,192,133777,1,0,0:0:0:0:
329,192,134177,128,0,136177:0:0:0:0:
475,192,134577,128,0,136177:0:0:0:0:
36,192,134577,1,0,0:0:0:0:
36,192,135377,1,0,0:0:0:0:
109,192,135377,1,0,0:0:0:0:
256,192,135377,1,0,0:0:0:0:
182,192,135777,1,0,0:0:0:0:
109,192,136177,1,0,0:0:0:0:
109,192,136577,1,0,0:0:0:0:
402,192,136577,128,0,136977:0:0:0:0:
329,192,136977,128,0,137377:0:0:0:0:
182,192,136977,1,0,0:0:0:0:
36,192,136977,1,0,0:0:0:0:
256,192,137377,128,0,137777:0:0:0:0:
36,192,137777,128,0,138977:0:0:0:0:
475,192,137777,1,0,0:0:0:0:
402,192,138577,1,0,0:0:0:0:
475,192,138577,1,0,0:0:0:0:
256,192,138577,1,0,0:0:0:0:
182,192,138977,128,0,140577:0:0:0:0:
36,192,139377,128,0,140577:0:0:0:0:
402,192,139377,1,0,0:0:0:0:
475,192,139377,1,0,0:0:0:0:
329,192,139577,1,0,0:0:0:0:
329,192,140177,1,0,0:0:0:0:
329,192,140977,1,0,0:0:0:0:
109,192,140977,1,0,0:0:0:0:
36,192,140977,1,0,0:0:0:0:
182,192,140977,1,0,0:0:0:0:
475,192,140977,128,0,141177:0:0:0:0:
402,192,141177,128,0,141377:0:0:0:0:
329,192,141377,128,0,141577:0:0:0:0:
256,192,141577,128,0,141777:0:0:0:0:
36,192,141777,128,0,142177:0:0:0:0:
475,192,141777,1,0,0:0:0:0:
402,192,141777,1,0,0:0:0:0:
182,192,142177,128,0,142577:0:0:0:0:
109,192,142577,128,0,142977:0:0:0:0:
329,192,142577,1,0,0:0:0:0:
36,192,142977,128,0,143777:0:0:0:0:
329,192,142977,1,0,0:0:0:0:
475,192,143377,1,0,0:0:0:0:
402,192,143377,1,0,0:0:0:0:
182,192,143377,1,0,0:0:0:0:
256,192,143777,128,0,143977:0:0:0:0:
329,192,143977,128,0,144177:0:0:0:0:
182,192,144177,128,0,144377:0:0:0:0:
475,192,144177,1,0,0:0:0:0:
256,192,144377,128,0,144577:0:0:0:0:
329,192,144577,128,0,144777:0:0:0:0:
402,192,144777,128,0,144977:0:0:0:0:
475,192,144977,128,0,145377:0:0:0:0:
109,192,144977,1,0,0:0:0:0:
36,192,144977,1,0,0:0:0:0:
329,192,145377,128,0,145777:0:0:0:0:
402,192,145777,128,0,146177:0:0:0:0:
182,192,145777,1,0,0:0:0:0:
475,192,146177,128,0,146977:0:0:0:0:
182,192,146177,1,0,0:0:0:0:
109,192,146577,1,0,0:0:0:0:
36,192,146577,1,0,0:0:0:0:
329,192,146577,1,0,0:0:0:0:
182,192,146977,128,0,148977:0:0:0:0:
36,192,147377,128,0,148977:0:0:0:0:
475,192,147377,1,0,0:0:0:0:
475,192,148177,1,0,0:0:0:0:
402,192,148177,1,0,0:0:0:0:
256,192,148177,1,0,0:0:0:0:
329,192,148577,1,0,0:0:0:0:
402,192,148977,1,0,0:0:0:0:
402,192,149377,1,0,0:0:0:0:
109,192,149377,128,0,149777:0:0:0:0:
329,192,149777,1,0,0:0:0:0:
475,192,149777,1,0,0:0:0:0:
182,192,149777,128,0,149977:0:0:0:0:
256,192,149977,128,0,150177:0:0:0:0:
329,192,150177,128,0,150577:0:0:0:0:
475,192,150577,128,0,153377:0:0:0:0:
36,192,150577,128,0,153377:0:0:0:0:
256,192,150577,1,0,0:0:0:0:
109,192,151377,1,0,0:0:0:0:
256,192,151377,1,0,0:0:0:0:
402,192,151377,1,0,0:0:0:0:
256,192,152177,1,0,0:0:0:0:
329,192,153777,1,0,0:0:0:0:
256,192,154577,1,0,0:0:0:0:
182,192,155377,1,0,0:0:0:0:
109,192,156277,1,0,0:0:0:0:
402,192,157077,1,0,0:0:0:0:
329,192,157977,1,0,0:0:0:0:
256,192,158877,1,0,0:0:0:0:
182,192,159277,1,0,0:0:0:0:
109,192,159777,1,0,0:0:0:0:
