osu file format v14

[General]
AudioFilename: audio.mp3
AudioLeadIn: 0
PreviewTime: 53084
Countdown: 0
SampleSet: Normal
StackLeniency: 0.7
Mode: 1
LetterboxInBreaks: 0
WidescreenStoryboard: 0

[Editor]
DistanceSpacing: 1.1
BeatDivisor: 16
GridSize: 32
TimelineZoom: 1

[Metadata]
Title:Toumei Elegy
TitleUnicode:透明エレジー
Artist:nameless
ArtistUnicode:nameless
Creator:mintong89
Version:Ura Oni
Source:
Tags:n-buna ouka alice megpoid gumi utau vocaloid lop -S_a_I_k_A-
BeatmapID:966676
BeatmapSetID:450585

[Difficulty]
HPDrainRate:5
CircleSize:5
OverallDifficulty:6
ApproachRate:5
SliderMultiplier:1.4
SliderTickRate:1

[Events]
//Background and Video events
0,0,"Itai.jpg",0,0
//Break Periods
//Storyboard Layer 0 (Background)
//Storyboard Layer 1 (Fail)
//Storyboard Layer 2 (Pass)
//Storyboard Layer 3 (Foreground)
//Storyboard Sound Samples

[TimingPoints]
1122,272.727272727273,4,1,0,70,1,0
1122,-133.333333333333,4,1,0,70,0,0
9849,-100,4,1,0,70,0,0
53485,-100,4,1,0,70,0,1
70940,-100,4,1,0,70,0,0
89417,-100,4,1,0,10,0,0
90508,-100,4,1,0,70,0,0
108031,-100,4,1,0,70,0,1
125485,-100,4,1,0,70,0,0
142940,-100,4,1,0,50,0,0
162576,-133.333333333333,4,1,0,70,0,0
179144,-100,4,1,0,20,0,0
180031,-100,4,1,0,70,0,1
199667,-100,4,1,0,70,0,0

[HitObjects]
192,192,1122,5,4,0:0:0:0:
192,192,1394,1,8,0:0:0:0:
192,192,1667,1,0,0:0:0:0:
96,96,1940,1,8,0:0:0:0:
225,190,2076,1,8,0:0:0:0:
225,190,2212,1,0,0:0:0:0:
225,190,2349,1,0,0:0:0:0:
225,190,2485,1,8,0:0:0:0:
225,190,2622,1,0,0:0:0:0:
225,190,2758,1,8,0:0:0:0:
318,193,3031,1,0,0:0:0:0:
318,193,3167,1,8,0:0:0:0:
318,193,3303,1,0,0:0:0:0:
318,193,3576,1,8,0:0:0:0:
318,193,3712,1,0,0:0:0:0:
318,193,3849,1,8,0:0:0:0:
95,236,4122,1,8,0:0:0:0:
95,236,4394,1,0,0:0:0:0:
95,236,4667,1,8,0:0:0:0:
95,236,4940,1,0,0:0:0:0:
95,236,5212,1,8,0:0:0:0:
95,236,5485,1,0,0:0:0:0:
204,167,5894,1,0,0:0:0:0:
204,167,6303,1,8,0:0:0:0:
204,167,6440,1,8,0:0:0:0:
204,167,6576,1,0,0:0:0:0:
209,233,6849,1,8,0:0:0:0:
264,166,7122,1,0,0:0:0:0:
264,166,7258,1,0,0:0:0:0:
264,166,7394,1,8,0:0:0:0:
264,166,7667,1,0,0:0:0:0:
124,127,8076,1,0,0:0:0:0:
125,122,8485,1,8,0:0:0:0:
125,122,8758,1,0,0:0:0:0:
194,92,9849,1,4,0:0:0:0:
151,118,9985,1,0,0:0:0:0:
172,140,10122,1,8,0:0:0:0:
186,127,10190,1,8,0:0:0:0:
172,140,10258,1,0,0:0:0:0:
253,116,10394,1,0,0:0:0:0:
253,116,10531,1,8,0:0:0:0:
253,116,10599,1,8,0:0:0:0:
253,116,10667,1,8,0:0:0:0:
248,121,10803,1,8,0:0:0:0:
249,88,10940,1,0,0:0:0:0:
249,91,11008,1,0,0:0:0:0:
249,91,11076,1,8,0:0:0:0:
198,129,11212,1,0,0:0:0:0:
269,249,11349,1,8,0:0:0:0:
269,249,11417,1,8,0:0:0:0:
269,249,11485,1,0,0:0:0:0:
198,129,11622,1,8,0:0:0:0:
221,57,11758,1,8,0:0:0:0:
221,57,11826,1,8,0:0:0:0:
198,129,11894,1,8,0:0:0:0:
198,129,12031,1,0,0:0:0:0:
263,134,12167,1,0,0:0:0:0:
263,134,12303,1,8,0:0:0:0:
220,75,12440,1,0,0:0:0:0:
220,75,12576,1,8,0:0:0:0:
220,75,12644,1,8,0:0:0:0:
220,75,12712,1,0,0:0:0:0:
220,75,12781,1,0,0:0:0:0:
220,75,12849,1,8,0:0:0:0:
269,249,12985,1,8,0:0:0:0:
269,249,13122,1,0,0:0:0:0:
318,96,13258,1,0,0:0:0:0:
318,96,13326,1,0,0:0:0:0:
318,96,13394,1,8,0:0:0:0:
249,110,13531,1,8,0:0:0:0:
445,247,13667,1,8,0:0:0:0:
276,80,13735,1,0,0:0:0:0:
276,80,13803,1,0,0:0:0:0:
276,80,13872,1,0,0:0:0:0:
276,80,13940,1,8,0:0:0:0:
215,67,14076,1,8,0:0:0:0:
215,67,14212,1,0,0:0:0:0:
347,122,14349,1,8,0:0:0:0:
331,173,14417,1,8,0:0:0:0:
347,122,14485,1,8,0:0:0:0:
347,122,14622,1,0,0:0:0:0:
332,181,14758,1,0,0:0:0:0:
332,180,14826,1,0,0:0:0:0:
332,180,14894,1,8,0:0:0:0:
257,170,15031,1,8,0:0:0:0:
257,170,15167,1,8,0:0:0:0:
292,127,15303,1,0,0:0:0:0:
292,127,15440,1,8,0:0:0:0:
292,127,15508,1,8,0:0:0:0:
288,131,15576,1,0,0:0:0:0:
288,131,15644,1,0,0:0:0:0:
288,131,15712,1,8,0:0:0:0:
246,107,15849,1,0,0:0:0:0:
269,249,15985,1,8,0:0:0:0:
269,249,16053,1,8,0:0:0:0:
246,107,16122,1,8,0:0:0:0:
246,107,16258,1,8,0:0:0:0:
246,107,16394,1,0,0:0:0:0:
246,107,16531,1,8,0:0:0:0:
246,107,16599,1,0,0:0:0:0:
246,107,16667,1,0,0:0:0:0:
246,107,16803,1,8,0:0:0:0:
121,192,16940,1,8,0:0:0:0:
121,192,17008,1,8,0:0:0:0:
121,192,17076,1,0,0:0:0:0:
121,192,17212,1,0,0:0:0:0:
121,192,17281,1,0,0:0:0:0:
240,112,17349,1,8,0:0:0:0:
240,112,17485,1,0,0:0:0:0:
237,136,17622,1,8,0:0:0:0:
138,209,17690,1,8,0:0:0:0:
237,136,17758,1,0,0:0:0:0:
237,136,17894,1,8,0:0:0:0:
161,155,17962,1,8,0:0:0:0:
237,137,18031,1,0,0:0:0:0:
237,137,18167,1,8,0:0:0:0:
161,155,18303,1,0,0:0:0:0:
161,155,18372,1,0,0:0:0:0:
237,137,18440,1,0,0:0:0:0:
237,137,18508,1,0,0:0:0:0:
237,136,18576,1,8,0:0:0:0:
237,136,18712,1,8,0:0:0:0:
237,136,18849,1,0,0:0:0:0:
242,51,18985,1,8,0:0:0:0:
243,83,19258,1,8,0:0:0:0:
243,83,19394,1,0,0:0:0:0:
243,83,19462,1,0,0:0:0:0:
243,83,19531,1,8,0:0:0:0:
150,186,19667,1,0,0:0:0:0:
150,186,19803,1,8,0:0:0:0:
150,186,19872,1,8,0:0:0:0:
150,186,19940,1,0,0:0:0:0:
150,186,20008,1,0,0:0:0:0:
150,186,20076,1,0,0:0:0:0:
236,180,20212,1,8,0:0:0:0:
290,119,20349,1,0,0:0:0:0:
290,119,20417,1,0,0:0:0:0:
290,119,20485,1,8,0:0:0:0:
290,119,20622,1,8,0:0:0:0:
264,147,20758,1,0,0:0:0:0:
264,147,20894,1,8,0:0:0:0:
264,147,20962,1,8,0:0:0:0:
264,147,21031,1,0,0:0:0:0:
264,147,21167,1,0,0:0:0:0:
264,147,21303,1,8,0:0:0:0:
264,147,21372,1,8,0:0:0:0:
264,147,21440,1,0,0:0:0:0:
222,175,21508,1,0,0:0:0:0:
32,128,21576,1,8,0:0:0:0:
32,128,21712,1,8,0:0:0:0:
264,147,21849,1,0,0:0:0:0:
264,147,21917,1,0,0:0:0:0:
44,142,21985,1,8,0:0:0:0:
211,89,22122,1,8,0:0:0:0:
211,89,22258,1,0,0:0:0:0:
211,89,22326,1,0,0:0:0:0:
167,185,22394,1,0,0:0:0:0:
167,185,22531,1,8,0:0:0:0:
211,89,22667,1,8,0:0:0:0:
211,89,22735,1,8,0:0:0:0:
211,89,22803,1,8,0:0:0:0:
211,89,22872,1,8,0:0:0:0:
211,89,22940,1,0,0:0:0:0:
224,128,23076,1,0,0:0:0:0:
160,32,23213,1,8,0:0:0:0:
160,32,23281,1,8,0:0:0:0:
64,128,23349,1,0,0:0:0:0:
256,64,23485,1,0,0:0:0:0:
256,64,23622,1,8,0:0:0:0:
214,97,23758,1,8,0:0:0:0:
224,72,23826,1,8,0:0:0:0:
224,72,23894,1,8,0:0:0:0:
224,72,24031,1,0,0:0:0:0:
224,72,24167,1,8,0:0:0:0:
224,72,24235,1,8,0:0:0:0:
224,72,24303,1,0,0:0:0:0:
224,72,24440,1,0,0:0:0:0:
224,72,24508,1,0,0:0:0:0:
221,75,24576,1,8,0:0:0:0:
221,75,24712,1,0,0:0:0:0:
221,75,24849,1,8,0:0:0:0:
224,72,24985,1,8,0:0:0:0:
152,94,25122,1,0,0:0:0:0:
152,94,25258,1,8,0:0:0:0:
152,94,25326,1,8,0:0:0:0:
152,94,25394,1,0,0:0:0:0:
152,94,25531,1,8,0:0:0:0:
157,95,25599,1,8,0:0:0:0:
158,96,25667,1,0,0:0:0:0:
185,123,25803,1,8,0:0:0:0:
223,216,25872,1,8,0:0:0:0:
223,216,25940,1,0,0:0:0:0:
228,113,26008,1,0,0:0:0:0:
185,123,26076,1,8,0:0:0:0:
228,113,26212,1,0,0:0:0:0:
228,113,26349,1,0,0:0:0:0:
228,113,26485,1,8,0:0:0:0:
228,113,26622,1,8,0:0:0:0:
228,113,26758,1,8,0:0:0:0:
228,113,26826,1,0,0:0:0:0:
228,113,26894,1,0,0:0:0:0:
228,113,26962,1,0,0:0:0:0:
228,113,27031,1,8,0:0:0:0:
228,113,27167,1,8,0:0:0:0:
226,170,27303,1,4,0:0:0:0:
218,144,27712,1,0,0:0:0:0:
218,144,28122,1,8,0:0:0:0:
218,144,28394,1,0,0:0:0:0:
218,144,29485,1,0,0:0:0:0:
218,144,29894,1,0,0:0:0:0:
218,144,30303,1,8,0:0:0:0:
218,144,30576,1,0,0:0:0:0:
219,145,31667,1,8,0:0:0:0:
219,145,32076,1,0,0:0:0:0:
219,145,32485,1,8,0:0:0:0:
219,145,32758,1,0,0:0:0:0:
219,145,33849,1,0,0:0:0:0:
219,145,34258,1,0,0:0:0:0:
219,145,34667,1,8,0:0:0:0:
219,145,34940,1,0,0:0:0:0:
260,149,35212,1,0,0:0:0:0:
260,149,35281,1,0,0:0:0:0:
227,170,35349,1,0,0:0:0:0:
227,170,35485,1,0,0:0:0:0:
227,170,35622,1,0,0:0:0:0:
227,170,35758,1,6,0:0:0:0:
227,170,36031,1,4,0:0:0:0:
303,95,36440,1,0,0:0:0:0:
303,95,36849,1,8,0:0:0:0:
303,95,37122,1,0,0:0:0:0:
303,95,37394,1,0,0:0:0:0:
297,92,37531,1,0,0:0:0:0:
303,95,37667,1,8,0:0:0:0:
303,95,37940,1,8,0:0:0:0:
303,95,38212,1,0,0:0:0:0:
303,95,38622,1,0,0:0:0:0:
303,95,39031,1,8,0:0:0:0:
303,95,39303,1,0,0:0:0:0:
303,95,39576,1,8,0:0:0:0:
303,95,39712,1,0,0:0:0:0:
303,95,39849,1,0,0:0:0:0:
303,95,40122,1,8,0:0:0:0:
232,83,40394,1,4,0:0:0:0:
242,144,40803,1,0,0:0:0:0:
242,144,41212,1,8,0:0:0:0:
242,144,41485,1,0,0:0:0:0:
242,144,41758,1,0,0:0:0:0:
242,144,41894,1,8,0:0:0:0:
242,144,42031,1,0,0:0:0:0:
242,144,42303,1,8,0:0:0:0:
299,89,42576,1,0,0:0:0:0:
299,89,42985,1,0,0:0:0:0:
299,89,43394,1,8,0:0:0:0:
436,133,43667,1,0,0:0:0:0:
308,127,43803,1,0,0:0:0:0:
308,127,43940,1,8,0:0:0:0:
251,121,44008,1,8,0:0:0:0:
308,127,44076,1,0,0:0:0:0:
308,127,44212,1,8,0:0:0:0:
308,127,44349,1,0,0:0:0:0:
251,121,44485,1,6,0:0:0:0:
293,123,44758,1,4,0:0:0:0:
96,320,45031,1,0,0:0:0:0:
282,72,45167,1,0,0:0:0:0:
282,72,45235,1,0,0:0:0:0:
282,72,45303,1,8,0:0:0:0:
278,79,45440,1,0,0:0:0:0:
278,79,45576,1,8,0:0:0:0:
278,79,45712,1,8,0:0:0:0:
278,79,45849,1,0,0:0:0:0:
224,186,45917,1,0,0:0:0:0:
278,79,45985,1,8,0:0:0:0:
278,80,46122,1,0,0:0:0:0:
312,85,46258,1,0,0:0:0:0:
312,85,46394,1,8,0:0:0:0:
312,85,46667,1,8,0:0:0:0:
312,85,46803,1,0,0:0:0:0:
312,85,46940,1,8,0:0:0:0:
300,115,47212,1,8,0:0:0:0:
300,115,47349,1,0,0:0:0:0:
300,115,47417,1,0,0:0:0:0:
300,115,47485,1,8,0:0:0:0:
300,115,47622,1,8,0:0:0:0:
300,115,47758,1,0,0:0:0:0:
300,115,47894,1,0,0:0:0:0:
300,115,48031,1,8,0:0:0:0:
300,115,48303,1,0,0:0:0:0:
300,115,48440,1,0,0:0:0:0:
300,115,48576,1,6,0:0:0:0:
214,69,48849,1,0,0:0:0:0:
214,69,49122,1,4,0:0:0:0:
294,132,49394,1,8,0:0:0:0:
294,132,49531,1,0,0:0:0:0:
295,129,49599,1,0,0:0:0:0:
294,132,49667,1,0,0:0:0:0:
294,132,49803,1,8,0:0:0:0:
294,132,49940,1,0,0:0:0:0:
191,154,50076,1,0,0:0:0:0:
191,154,50212,1,8,0:0:0:0:
253,103,50485,1,0,0:0:0:0:
257,105,50622,1,8,0:0:0:0:
257,105,50758,1,0,0:0:0:0:
257,106,51031,1,0,0:0:0:0:
257,105,51167,1,0,0:0:0:0:
257,105,51303,1,8,0:0:0:0:
257,106,51576,1,0,0:0:0:0:
257,105,51712,1,8,0:0:0:0:
257,106,51849,1,0,0:0:0:0:
257,105,52122,1,0,0:0:0:0:
257,105,52258,1,0,0:0:0:0:
190,76,52394,1,8,0:0:0:0:
171,55,52531,1,0,0:0:0:0:
171,55,52599,1,0,0:0:0:0:
171,55,52667,1,8,0:0:0:0:
152,148,52803,1,0,0:0:0:0:
249,116,52940,1,8,0:0:0:0:
161,184,53485,1,4,0:0:0:0:
230,195,53622,1,0,0:0:0:0:
230,195,53758,1,8,0:0:0:0:
286,160,53894,1,8,0:0:0:0:
286,160,53962,1,8,0:0:0:0:
286,160,54031,1,0,0:0:0:0:
238,91,54167,1,0,0:0:0:0:
238,91,54303,1,8,0:0:0:0:
243,131,54440,1,0,0:0:0:0:
243,131,54508,1,0,0:0:0:0:
243,131,54576,1,8,0:0:0:0:
244,138,54712,1,0,0:0:0:0:
214,109,54781,1,8,0:0:0:0:
244,138,54849,1,8,0:0:0:0:
214,109,54985,1,8,0:0:0:0:
77,145,55122,1,0,0:0:0:0:
195,164,55258,1,8,0:0:0:0:
195,164,55394,1,0,0:0:0:0:
195,164,55462,1,0,0:0:0:0:
96,192,55531,1,0,0:0:0:0:
96,192,55599,1,0,0:0:0:0:
96,192,55667,1,8,0:0:0:0:
171,158,55803,1,8,0:0:0:0:
363,330,55940,1,0,0:0:0:0:
363,330,56008,1,0,0:0:0:0:
311,146,56076,1,8,0:0:0:0:
234,156,56212,1,8,0:0:0:0:
311,146,56349,1,0,0:0:0:0:
311,146,56417,1,0,0:0:0:0:
311,146,56485,1,8,0:0:0:0:
233,160,56622,1,8,0:0:0:0:
160,160,56758,1,8,0:0:0:0:
363,124,56894,1,0,0:0:0:0:
363,124,56962,1,0,0:0:0:0:
363,124,57031,1,8,0:0:0:0:
192,64,57099,1,8,0:0:0:0:
192,64,57167,1,0,0:0:0:0:
308,113,57304,1,8,0:0:0:0:
192,96,57372,1,8,0:0:0:0:
192,96,57440,1,0,0:0:0:0:
96,128,57576,1,0,0:0:0:0:
96,128,57644,1,0,0:0:0:0:
308,113,57712,1,0,0:0:0:0:
308,113,57781,1,0,0:0:0:0:
308,113,57849,1,8,0:0:0:0:
266,121,57985,1,0,0:0:0:0:
266,121,58122,1,8,0:0:0:0:
266,121,58258,1,0,0:0:0:0:
266,121,58326,1,0,0:0:0:0:
266,121,58394,1,8,0:0:0:0:
262,112,58531,1,0,0:0:0:0:
262,112,58667,1,8,0:0:0:0:
306,291,58803,1,0,0:0:0:0:
306,291,58872,1,0,0:0:0:0:
306,291,58940,1,8,0:0:0:0:
203,123,59076,1,0,0:0:0:0:
306,291,59144,1,8,0:0:0:0:
203,123,59212,1,8,0:0:0:0:
206,112,59349,1,0,0:0:0:0:
206,112,59485,1,8,0:0:0:0:
115,147,59622,1,0,0:0:0:0:
115,147,59758,1,8,0:0:0:0:
306,291,59826,1,8,0:0:0:0:
306,291,59894,1,0,0:0:0:0:
252,150,60031,1,0,0:0:0:0:
252,150,60099,1,0,0:0:0:0:
131,172,60167,1,8,0:0:0:0:
252,150,60303,1,8,0:0:0:0:
128,160,60440,1,0,0:0:0:0:
324,118,60508,1,0,0:0:0:0:
316,121,60576,1,0,0:0:0:0:
316,128,60644,1,0,0:0:0:0:
316,129,60712,1,8,0:0:0:0:
317,129,60849,1,0,0:0:0:0:
317,129,60985,1,8,0:0:0:0:
321,126,61122,1,0,0:0:0:0:
321,126,61258,1,0,0:0:0:0:
321,126,61394,1,6,0:0:0:0:
192,96,61667,1,8,0:0:0:0:
192,96,61735,1,8,0:0:0:0:
192,96,61803,1,0,0:0:0:0:
305,124,61940,1,8,0:0:0:0:
305,124,62076,1,0,0:0:0:0:
274,120,62212,1,4,0:0:0:0:
248,192,62349,1,0,0:0:0:0:
248,192,62485,1,8,0:0:0:0:
251,228,62622,1,8,0:0:0:0:
251,228,62690,1,8,0:0:0:0:
248,235,62758,1,0,0:0:0:0:
248,232,62894,1,0,0:0:0:0:
249,232,63031,1,8,0:0:0:0:
268,184,63167,1,0,0:0:0:0:
268,185,63235,1,0,0:0:0:0:
268,185,63303,1,8,0:0:0:0:
134,168,63440,1,8,0:0:0:0:
134,168,63508,1,8,0:0:0:0:
134,168,63576,1,0,0:0:0:0:
174,163,63712,1,0,0:0:0:0:
269,170,63781,1,0,0:0:0:0:
269,170,63849,1,0,0:0:0:0:
269,170,63917,1,0,0:0:0:0:
269,170,63985,1,8,0:0:0:0:
269,176,64122,1,0,0:0:0:0:
269,176,64190,1,0,0:0:0:0:
269,176,64258,1,8,0:0:0:0:
269,176,64394,1,0,0:0:0:0:
269,176,64531,1,8,0:0:0:0:
279,184,64667,1,0,0:0:0:0:
280,180,64735,1,0,0:0:0:0:
280,180,64803,1,8,0:0:0:0:
280,180,64940,1,0,0:0:0:0:
280,180,65076,1,8,0:0:0:0:
192,0,65212,1,8,0:0:0:0:
192,0,65281,1,8,0:0:0:0:
192,0,65349,1,8,0:0:0:0:
192,0,65417,1,8,0:0:0:0:
192,0,65485,1,0,0:0:0:0:
256,145,65622,1,0,0:0:0:0:
256,145,65758,1,8,0:0:0:0:
130,215,65894,1,0,0:0:0:0:
135,212,65962,1,0,0:0:0:0:
137,207,66031,1,8,0:0:0:0:
260,131,66167,1,0,0:0:0:0:
260,131,66303,1,8,0:0:0:0:
264,131,66372,1,8,0:0:0:0:
264,131,66440,1,8,0:0:0:0:
264,131,66576,1,0,0:0:0:0:
180,98,66712,1,8,0:0:0:0:
179,90,66849,1,0,0:0:0:0:
179,90,66917,1,0,0:0:0:0:
179,92,66985,1,8,0:0:0:0:
272,255,67122,1,8,0:0:0:0:
179,90,67258,1,8,0:0:0:0:
179,90,67326,1,8,0:0:0:0:
149,173,67394,1,8,0:0:0:0:
149,173,67531,1,8,0:0:0:0:
55,170,67667,1,0,0:0:0:0:
176,219,67803,1,0,0:0:0:0:
55,170,67872,1,8,0:0:0:0:
55,170,67940,1,8,0:0:0:0:
55,170,68008,1,8,0:0:0:0:
55,170,68076,1,0,0:0:0:0:
131,156,68212,1,8,0:0:0:0:
259,212,68349,1,0,0:0:0:0:
259,212,68417,1,0,0:0:0:0:
259,212,68485,1,8,0:0:0:0:
254,138,68622,1,8,0:0:0:0:
206,222,68758,1,0,0:0:0:0:
206,222,68826,1,0,0:0:0:0:
281,75,68894,1,0,0:0:0:0:
281,75,69031,1,8,0:0:0:0:
213,222,69167,1,0,0:0:0:0:
215,220,69235,1,0,0:0:0:0:
214,220,69303,1,0,0:0:0:0:
215,219,69440,1,8,0:0:0:0:
215,225,69576,1,0,0:0:0:0:
215,225,69644,1,0,0:0:0:0:
239,200,69712,1,8,0:0:0:0:
215,225,69849,1,8,0:0:0:0:
213,222,69917,1,8,0:0:0:0:
215,226,69985,1,0,0:0:0:0:
55,145,70122,1,8,0:0:0:0:
55,145,70190,1,8,0:0:0:0:
55,145,70258,1,0,0:0:0:0:
55,145,70394,1,8,0:0:0:0:
215,228,70462,1,8,0:0:0:0:
239,200,70531,1,8,0:0:0:0:
215,225,70599,1,8,0:0:0:0:
169,198,70667,1,0,0:0:0:0:
215,225,70735,1,0,0:0:0:0:
215,225,70803,1,0,0:0:0:0:
215,225,70872,1,0,0:0:0:0:
217,227,70940,1,8,0:0:0:0:
239,200,71349,1,0,0:0:0:0:
239,200,71758,1,8,0:0:0:0:
239,200,72031,1,0,0:0:0:0:
210,171,72303,1,8,0:0:0:0:
210,171,72440,1,0,0:0:0:0:
210,171,72576,1,8,0:0:0:0:
195,172,72849,1,8,0:0:0:0:
195,172,72985,1,0,0:0:0:0:
196,172,73122,1,0,0:0:0:0:
194,60,73394,1,0,0:0:0:0:
196,172,73531,1,0,0:0:0:0:
194,60,73667,1,8,0:0:0:0:
195,172,73940,1,8,0:0:0:0:
194,60,74076,1,0,0:0:0:0:
196,172,74212,1,0,0:0:0:0:
270,96,74485,1,8,0:0:0:0:
273,152,74758,1,8,0:0:0:0:
260,156,74894,1,0,0:0:0:0:
260,156,75031,1,8,0:0:0:0:
260,157,75303,1,4,0:0:0:0:
338,146,75712,1,0,0:0:0:0:
338,146,76122,1,8,0:0:0:0:
338,146,76258,1,0,0:0:0:0:
338,146,76394,1,0,0:0:0:0:
217,168,76667,1,0,0:0:0:0:
217,168,76803,1,0,0:0:0:0:
217,168,76940,1,8,0:0:0:0:
225,175,77212,1,0,0:0:0:0:
225,175,77485,1,0,0:0:0:0:
198,94,77758,1,8,0:0:0:0:
226,175,77894,1,0,0:0:0:0:
198,94,78167,1,0,0:0:0:0:
246,138,78303,1,8,0:0:0:0:
227,143,78576,1,0,0:0:0:0:
227,143,78985,1,0,0:0:0:0:
227,143,79394,1,6,0:0:0:0:
291,202,79667,1,0,0:0:0:0:
291,202,79735,1,0,0:0:0:0:
291,202,79803,1,0,0:0:0:0:
291,202,79940,1,0,0:0:0:0:
291,202,80076,1,0,0:0:0:0:
307,212,80212,1,0,0:0:0:0:
307,211,80281,1,0,0:0:0:0:
307,211,80349,1,0,0:0:0:0:
311,212,80485,1,0,0:0:0:0:
224,133,80622,1,8,0:0:0:0:
214,224,80758,1,0,0:0:0:0:
214,224,80894,1,8,0:0:0:0:
214,224,80962,1,8,0:0:0:0:
214,224,81031,1,0,0:0:0:0:
214,224,81167,1,0,0:0:0:0:
214,224,81303,1,8,0:0:0:0:
214,224,81372,1,8,0:0:0:0:
214,224,81440,1,0,0:0:0:0:
214,224,81508,1,8,0:0:0:0:
214,224,81576,1,0,0:0:0:0:
214,224,81644,1,0,0:0:0:0:
214,224,81712,1,8,0:0:0:0:
214,224,81781,1,8,0:0:0:0:
214,224,81849,1,0,0:0:0:0:
120,144,82258,1,0,0:0:0:0:
120,144,82667,1,8,0:0:0:0:
120,144,82940,1,0,0:0:0:0:
164,186,83212,1,0,0:0:0:0:
164,186,83485,1,8,0:0:0:0:
164,186,83758,1,8,0:0:0:0:
164,186,84031,1,0,0:0:0:0:
164,186,84440,1,0,0:0:0:0:
164,186,84849,1,8,0:0:0:0:
164,186,85122,1,8,0:0:0:0:
164,186,85394,1,0,0:0:0:0:
164,186,85667,1,8,0:0:0:0:
164,186,85940,1,8,0:0:0:0:
155,162,86212,1,0,0:0:0:0:
155,162,86622,1,0,0:0:0:0:
155,162,87031,1,8,0:0:0:0:
155,162,87303,1,0,0:0:0:0:
155,162,88122,1,8,0:0:0:0:
155,162,88394,1,0,0:0:0:0:
155,162,88803,1,0,0:0:0:0:
155,162,89212,1,8,0:0:0:0:
198,159,89485,2,0,B|63:187|64:187|534:118,1,490
118,203,90576,1,4,0:0:0:0:
252,197,90985,1,0,0:0:0:0:
252,197,91394,1,8,0:0:0:0:
256,151,91667,1,0,0:0:0:0:
256,151,91940,1,8,0:0:0:0:
256,151,92076,1,0,0:0:0:0:
256,151,92212,1,0,0:0:0:0:
256,151,92485,1,8,0:0:0:0:
250,156,92758,1,0,0:0:0:0:
250,156,93167,1,0,0:0:0:0:
250,156,93576,1,8,0:0:0:0:
250,156,93849,1,0,0:0:0:0:
250,156,94122,1,0,0:0:0:0:
250,156,94258,1,0,0:0:0:0:
250,156,94394,1,8,0:0:0:0:
138,161,94667,1,8,0:0:0:0:
138,161,94940,1,4,0:0:0:0:
138,161,95349,1,0,0:0:0:0:
138,161,95758,1,8,0:0:0:0:
138,161,96031,1,0,0:0:0:0:
247,159,96303,1,8,0:0:0:0:
247,159,96440,1,0,0:0:0:0:
247,159,96576,1,0,0:0:0:0:
247,159,96849,1,8,0:0:0:0:
278,176,97122,1,4,0:0:0:0:
160,160,97394,1,0,0:0:0:0:
273,177,97531,1,0,0:0:0:0:
193,83,97599,1,0,0:0:0:0:
292,166,97667,1,0,0:0:0:0:
292,166,97803,1,0,0:0:0:0:
291,165,97940,1,8,0:0:0:0:
197,97,98076,1,0,0:0:0:0:
128,128,98212,1,0,0:0:0:0:
128,128,98281,1,0,0:0:0:0:
128,128,98349,1,8,0:0:0:0:
0,128,98485,1,8,0:0:0:0:
0,128,98622,1,0,0:0:0:0:
197,97,98758,1,0,0:0:0:0:
197,97,98894,1,0,0:0:0:0:
197,97,99031,1,6,0:0:0:0:
223,193,99303,1,4,0:0:0:0:
320,237,99576,1,8,0:0:0:0:
261,123,99712,1,0,0:0:0:0:
261,123,99849,1,8,0:0:0:0:
194,46,99917,1,8,0:0:0:0:
244,136,99985,1,0,0:0:0:0:
244,134,100122,1,8,0:0:0:0:
244,134,100258,1,0,0:0:0:0:
189,37,100326,1,0,0:0:0:0:
189,37,100394,1,8,0:0:0:0:
132,90,100667,1,0,0:0:0:0:
288,128,100735,1,0,0:0:0:0:
166,75,100803,1,8,0:0:0:0:
164,70,100940,1,0,0:0:0:0:
192,64,101076,1,8,0:0:0:0:
150,163,101212,1,8,0:0:0:0:
133,229,101349,1,0,0:0:0:0:
133,229,101417,1,0,0:0:0:0:
133,229,101485,1,8,0:0:0:0:
164,200,101758,1,8,0:0:0:0:
164,200,101894,1,0,0:0:0:0:
162,187,101962,1,0,0:0:0:0:
162,187,102031,1,0,0:0:0:0:
164,200,102167,1,0,0:0:0:0:
164,200,102303,1,8,0:0:0:0:
164,200,102440,1,0,0:0:0:0:
164,200,102508,1,0,0:0:0:0:
164,200,102576,1,8,0:0:0:0:
225,190,102712,1,0,0:0:0:0:
162,187,102849,1,8,0:0:0:0:
163,193,103122,1,8,0:0:0:0:
163,193,103258,1,0,0:0:0:0:
163,193,103326,1,0,0:0:0:0:
163,193,103394,1,0,0:0:0:0:
163,193,103531,1,0,0:0:0:0:
172,160,103667,1,4,0:0:0:0:
172,160,103940,1,8,0:0:0:0:
172,160,104076,1,8,0:0:0:0:
172,160,104144,1,8,0:0:0:0:
172,160,104212,1,0,0:0:0:0:
172,160,104349,1,0,0:0:0:0:
172,160,104485,1,8,0:0:0:0:
230,73,104622,1,0,0:0:0:0:
230,73,104690,1,0,0:0:0:0:
230,73,104758,1,8,0:0:0:0:
230,106,104894,1,0,0:0:0:0:
230,106,105031,1,8,0:0:0:0:
225,102,105303,1,0,0:0:0:0:
226,102,105440,1,0,0:0:0:0:
226,102,105576,1,8,0:0:0:0:
225,102,105849,1,8,0:0:0:0:
225,102,105985,1,0,0:0:0:0:
225,102,106122,1,8,0:0:0:0:
226,102,106394,1,0,0:0:0:0:
226,102,106531,1,0,0:0:0:0:
225,102,106667,1,8,0:0:0:0:
225,102,106803,1,0,0:0:0:0:
225,102,106872,1,0,0:0:0:0:
225,102,106940,1,8,0:0:0:0:
225,102,107076,1,0,0:0:0:0:
226,102,107212,1,8,0:0:0:0:
226,102,107349,1,0,0:0:0:0:
226,102,107417,1,0,0:0:0:0:
226,102,107485,1,8,0:0:0:0:
226,102,107553,1,0,0:0:0:0:
225,102,107622,1,8,0:0:0:0:
225,102,107690,1,0,0:0:0:0:
225,102,107758,1,0,0:0:0:0:
225,102,107826,1,0,0:0:0:0:
225,102,107894,1,8,0:0:0:0:
225,102,107962,1,0,0:0:0:0:
145,185,108031,1,0,0:0:0:0:
223,88,108167,1,0,0:0:0:0:
84,217,108303,1,8,0:0:0:0:
84,217,108440,1,8,0:0:0:0:
84,217,108508,1,8,0:0:0:0:
84,217,108576,1,0,0:0:0:0:
241,207,108712,1,0,0:0:0:0:
241,207,108849,1,8,0:0:0:0:
242,190,108985,1,0,0:0:0:0:
242,190,109053,1,0,0:0:0:0:
241,190,109122,1,8,0:0:0:0:
241,191,109258,1,0,0:0:0:0:
241,191,109326,1,8,0:0:0:0:
241,191,109394,1,8,0:0:0:0:
241,191,109531,1,0,0:0:0:0:
241,191,109667,1,8,0:0:0:0:
222,211,109803,1,0,0:0:0:0:
182,104,109940,1,8,0:0:0:0:
204,125,110008,1,8,0:0:0:0:
204,125,110076,1,0,0:0:0:0:
320,224,110144,1,0,0:0:0:0:
320,224,110212,1,8,0:0:0:0:
320,224,110349,1,0,0:0:0:0:
257,147,110485,1,8,0:0:0:0:
217,90,110622,1,0,0:0:0:0:
217,90,110690,1,0,0:0:0:0:
217,90,110758,1,8,0:0:0:0:
205,120,110894,1,0,0:0:0:0:
205,120,111031,1,8,0:0:0:0:
205,120,111099,1,0,0:0:0:0:
205,120,111167,1,8,0:0:0:0:
344,162,111303,1,0,0:0:0:0:
344,162,111372,1,0,0:0:0:0:
344,162,111440,1,8,0:0:0:0:
295,212,111576,1,0,0:0:0:0:
295,212,111644,1,8,0:0:0:0:
295,212,111712,1,8,0:0:0:0:
173,90,111849,1,8,0:0:0:0:
204,125,111985,1,8,0:0:0:0:
204,125,112122,1,8,0:0:0:0:
114,156,112190,1,8,0:0:0:0:
114,156,112258,1,0,0:0:0:0:
114,156,112326,1,8,0:0:0:0:
114,156,112394,1,0,0:0:0:0:
212,169,112531,1,8,0:0:0:0:
212,169,112667,1,8,0:0:0:0:
365,145,112803,1,0,0:0:0:0:
365,145,112872,1,0,0:0:0:0:
365,145,112940,1,0,0:0:0:0:
212,169,113076,1,8,0:0:0:0:
215,76,113212,1,8,0:0:0:0:
215,76,113349,1,0,0:0:0:0:
246,85,113417,1,0,0:0:0:0:
246,85,113485,1,8,0:0:0:0:
210,58,113553,1,0,0:0:0:0:
210,58,113622,1,8,0:0:0:0:
291,150,113758,1,0,0:0:0:0:
291,150,113826,1,0,0:0:0:0:
291,150,113894,1,8,0:0:0:0:
291,150,114031,1,0,0:0:0:0:
141,132,114167,1,8,0:0:0:0:
141,132,114303,1,8,0:0:0:0:
141,132,114372,1,8,0:0:0:0:
234,163,114440,1,8,0:0:0:0:
279,224,114508,1,8,0:0:0:0:
212,108,114576,1,0,0:0:0:0:
212,108,114712,1,8,0:0:0:0:
175,120,114849,1,0,0:0:0:0:
175,120,114917,1,0,0:0:0:0:
273,212,114985,1,8,0:0:0:0:
179,114,115122,1,8,0:0:0:0:
246,85,115258,1,0,0:0:0:0:
246,85,115326,1,0,0:0:0:0:
179,114,115394,1,0,0:0:0:0:
179,115,115531,1,8,0:0:0:0:
179,115,115667,1,0,0:0:0:0:
179,116,115803,1,0,0:0:0:0:
179,117,115940,1,6,0:0:0:0:
179,114,116212,1,8,0:0:0:0:
179,114,116349,1,8,0:0:0:0:
179,114,116417,1,8,0:0:0:0:
179,115,116485,1,0,0:0:0:0:
179,115,116622,1,8,0:0:0:0:
179,116,116758,1,4,0:0:0:0:
247,169,116894,1,0,0:0:0:0:
247,169,117031,1,8,0:0:0:0:
215,228,117167,1,8,0:0:0:0:
215,228,117235,1,8,0:0:0:0:
215,228,117303,1,0,0:0:0:0:
219,170,117440,1,0,0:0:0:0:
219,170,117576,1,8,0:0:0:0:
179,163,117712,1,0,0:0:0:0:
179,163,117781,1,0,0:0:0:0:
179,163,117849,1,8,0:0:0:0:
179,163,117985,1,0,0:0:0:0:
179,163,118053,1,8,0:0:0:0:
179,163,118122,1,8,0:0:0:0:
179,163,118258,1,0,0:0:0:0:
179,163,118394,1,8,0:0:0:0:
160,128,118531,1,0,0:0:0:0:
151,42,118667,1,0,0:0:0:0:
183,69,118735,1,0,0:0:0:0:
179,163,118803,1,0,0:0:0:0:
179,163,118871,1,0,0:0:0:0:
179,163,118939,1,8,0:0:0:0:
179,163,119076,1,0,0:0:0:0:
179,163,119212,1,8,0:0:0:0:
173,163,119280,1,0,0:0:0:0:
173,163,119348,1,0,0:0:0:0:
171,167,119417,1,0,0:0:0:0:
174,171,119485,1,8,0:0:0:0:
288,192,119622,1,8,0:0:0:0:
185,83,119758,1,8,0:0:0:0:
185,83,119826,1,8,0:0:0:0:
185,83,119894,1,0,0:0:0:0:
189,97,120031,1,0,0:0:0:0:
187,97,120099,1,0,0:0:0:0:
187,96,120167,1,8,0:0:0:0:
187,96,120303,1,0,0:0:0:0:
230,112,120440,1,0,0:0:0:0:
230,112,120508,1,8,0:0:0:0:
230,112,120576,1,8,0:0:0:0:
230,112,120712,1,8,0:0:0:0:
246,83,120849,1,8,0:0:0:0:
223,116,120917,1,8,0:0:0:0:
223,115,120985,1,8,0:0:0:0:
222,114,121053,1,8,0:0:0:0:
222,114,121122,1,0,0:0:0:0:
252,111,121258,1,0,0:0:0:0:
224,41,121394,1,8,0:0:0:0:
215,96,121531,1,0,0:0:0:0:
213,94,121599,1,0,0:0:0:0:
212,93,121667,1,8,0:0:0:0:
212,93,121803,1,8,0:0:0:0:
212,93,121940,1,8,0:0:0:0:
212,93,122008,1,8,0:0:0:0:
212,93,122076,1,8,0:0:0:0:
215,96,122212,1,0,0:0:0:0:
215,96,122349,1,8,0:0:0:0:
215,96,122417,1,8,0:0:0:0:
210,90,122485,1,0,0:0:0:0:
209,90,122553,1,0,0:0:0:0:
209,89,122622,1,8,0:0:0:0:
203,91,122758,1,8,0:0:0:0:
220,75,122894,1,0,0:0:0:0:
219,75,123031,1,0,0:0:0:0:
219,75,123099,1,0,0:0:0:0:
219,75,123167,1,8,0:0:0:0:
272,319,123303,1,0,0:0:0:0:
272,319,123372,1,0,0:0:0:0:
272,319,123440,1,0,0:0:0:0:
263,208,123508,1,0,0:0:0:0:
264,257,123576,1,8,0:0:0:0:
264,257,123712,1,0,0:0:0:0:
264,257,123781,1,0,0:0:0:0:
263,208,123849,1,8,0:0:0:0:
263,208,123917,1,8,0:0:0:0:
264,257,123985,1,8,0:0:0:0:
264,257,124122,1,0,0:0:0:0:
264,257,124258,1,8,0:0:0:0:
270,94,124394,1,0,0:0:0:0:
270,94,124531,1,8,0:0:0:0:
270,94,124599,1,8,0:0:0:0:
270,94,124667,1,8,0:0:0:0:
270,94,124735,1,8,0:0:0:0:
270,94,124803,1,0,0:0:0:0:
296,73,124940,1,8,0:0:0:0:
229,109,125212,1,8,0:0:0:0:
229,109,125349,1,0,0:0:0:0:
229,109,125485,1,4,0:0:0:0:
227,196,125758,1,8,0:0:0:0:
227,196,125894,1,0,0:0:0:0:
227,196,125962,1,0,0:0:0:0:
227,196,126031,1,8,0:0:0:0:
227,196,126167,1,0,0:0:0:0:
227,196,126303,1,8,0:0:0:0:
227,196,126440,1,8,0:0:0:0:
227,196,126576,1,0,0:0:0:0:
227,196,126712,1,8,0:0:0:0:
227,196,126781,1,8,0:0:0:0:
227,196,126849,1,0,0:0:0:0:
227,196,126985,1,0,0:0:0:0:
264,208,127122,1,8,0:0:0:0:
227,196,127190,1,0,0:0:0:0:
220,197,127258,1,8,0:0:0:0:
220,197,127326,1,8,0:0:0:0:
220,197,127394,1,8,0:0:0:0:
220,196,127531,1,8,0:0:0:0:
220,197,127667,1,0,0:0:0:0:
219,197,127803,1,0,0:0:0:0:
218,198,127872,1,0,0:0:0:0:
218,198,127940,1,0,0:0:0:0:
221,200,128076,1,8,0:0:0:0:
264,208,128212,1,8,0:0:0:0:
264,208,128281,1,8,0:0:0:0:
223,200,128349,1,8,0:0:0:0:
224,199,128485,1,8,0:0:0:0:
264,208,128622,1,0,0:0:0:0:
224,198,128758,1,0,0:0:0:0:
224,198,128826,1,0,0:0:0:0:
224,198,128894,1,8,0:0:0:0:
184,100,129031,1,8,0:0:0:0:
184,100,129099,1,0,0:0:0:0:
184,100,129167,1,0,0:0:0:0:
184,100,129235,1,0,0:0:0:0:
184,100,129303,1,8,0:0:0:0:
184,100,129440,1,0,0:0:0:0:
264,208,129576,1,8,0:0:0:0:
264,208,129644,1,8,0:0:0:0:
264,208,129712,1,0,0:0:0:0:
184,100,129849,1,0,0:0:0:0:
44,171,129985,1,0,0:0:0:0:
44,171,130053,1,0,0:0:0:0:
264,208,130122,1,8,0:0:0:0:
304,147,130258,1,8,0:0:0:0:
304,147,130394,1,0,0:0:0:0:
304,147,130531,1,8,0:0:0:0:
304,147,130599,1,8,0:0:0:0:
304,147,130667,1,0,0:0:0:0:
304,147,130803,1,0,0:0:0:0:
304,147,130940,1,0,0:0:0:0:
304,147,131076,1,8,0:0:0:0:
304,147,131144,1,8,0:0:0:0:
304,147,131212,1,8,0:0:0:0:
304,147,131349,1,8,0:0:0:0:
184,98,131622,1,8,0:0:0:0:
177,112,131690,1,8,0:0:0:0:
177,112,131758,1,0,0:0:0:0:
43,124,131826,1,8,0:0:0:0:
184,98,131894,1,0,0:0:0:0:
188,96,132031,1,0,0:0:0:0:
168,107,132099,1,0,0:0:0:0:
168,107,132167,1,8,0:0:0:0:
187,98,132235,1,8,0:0:0:0:
187,98,132303,1,8,0:0:0:0:
188,100,132440,1,8,0:0:0:0:
188,100,132508,1,8,0:0:0:0:
188,100,132576,1,0,0:0:0:0:
188,100,132644,1,0,0:0:0:0:
188,102,132712,1,8,0:0:0:0:
187,100,132781,1,0,0:0:0:0:
187,100,132849,1,8,0:0:0:0:
189,101,132985,1,8,0:0:0:0:
276,118,133122,1,0,0:0:0:0:
276,118,133190,1,0,0:0:0:0:
276,118,133258,1,8,0:0:0:0:
232,106,133394,1,8,0:0:0:0:
232,106,133462,1,8,0:0:0:0:
232,106,133531,1,0,0:0:0:0:
232,106,133667,1,8,0:0:0:0:
79,110,133803,1,8,0:0:0:0:
198,47,133872,1,0,0:0:0:0:
79,110,133940,1,8,0:0:0:0:
198,47,134008,1,0,0:0:0:0:
198,47,134076,1,0,0:0:0:0:
171,106,134212,1,8,0:0:0:0:
171,106,134349,1,8,0:0:0:0:
171,106,134485,1,0,0:0:0:0:
169,78,134553,1,0,0:0:0:0:
171,106,134622,1,8,0:0:0:0:
178,89,134758,1,8,0:0:0:0:
158,118,134894,1,8,0:0:0:0:
158,119,134962,1,8,0:0:0:0:
158,119,135031,1,0,0:0:0:0:
169,121,135167,1,8,0:0:0:0:
225,123,135303,1,0,0:0:0:0:
225,123,135372,1,8,0:0:0:0:
228,119,135440,1,0,0:0:0:0:
223,121,135508,1,0,0:0:0:0:
222,122,135576,1,8,0:0:0:0:
225,126,135712,1,8,0:0:0:0:
225,123,135849,1,8,0:0:0:0:
225,123,135917,1,8,0:0:0:0:
225,123,135985,1,0,0:0:0:0:
225,123,136122,1,8,0:0:0:0:
225,123,136258,1,8,0:0:0:0:
256,203,136394,1,8,0:0:0:0:
256,203,136462,1,0,0:0:0:0:
256,203,136531,1,0,0:0:0:0:
215,89,136599,1,0,0:0:0:0:
215,89,136667,1,8,0:0:0:0:
228,138,136803,1,8,0:0:0:0:
291,211,136940,1,0,0:0:0:0:
169,212,137008,1,0,0:0:0:0:
228,136,137076,1,0,0:0:0:0:
228,136,137212,1,8,0:0:0:0:
256,203,137349,1,8,0:0:0:0:
256,203,137417,1,0,0:0:0:0:
228,138,137485,1,8,0:0:0:0:
228,138,137622,1,0,0:0:0:0:
228,138,137690,1,8,0:0:0:0:
228,138,137758,1,8,0:0:0:0:
228,138,137894,1,8,0:0:0:0:
344,250,138031,1,8,0:0:0:0:
344,250,138099,1,0,0:0:0:0:
169,212,138167,1,0,0:0:0:0:
258,123,138235,1,0,0:0:0:0:
258,123,138303,1,8,0:0:0:0:
258,123,138440,1,0,0:0:0:0:
258,123,138576,1,4,0:0:0:0:
200,181,138712,1,0,0:0:0:0:
211,170,138781,1,0,0:0:0:0:
211,187,138849,1,8,0:0:0:0:
211,187,138985,1,0,0:0:0:0:
214,174,139258,1,0,0:0:0:0:
214,174,139394,1,8,0:0:0:0:
214,174,139462,1,8,0:0:0:0:
214,174,139531,1,0,0:0:0:0:
340,107,139667,1,8,0:0:0:0:
340,107,139803,1,8,0:0:0:0:
335,110,139940,1,8,0:0:0:0:
334,110,140008,1,0,0:0:0:0:
334,111,140076,1,0,0:0:0:0:
334,110,140144,1,0,0:0:0:0:
334,110,140212,1,8,0:0:0:0:
314,116,140349,1,8,0:0:0:0:
258,206,140485,1,8,0:0:0:0:
314,116,140553,1,0,0:0:0:0:
314,116,140622,1,8,0:0:0:0:
270,92,140758,1,0,0:0:0:0:
270,92,140826,1,0,0:0:0:0:
258,206,140894,1,8,0:0:0:0:
274,92,141031,1,8,0:0:0:0:
276,94,141099,1,8,0:0:0:0:
258,206,141167,1,0,0:0:0:0:
257,100,141303,1,0,0:0:0:0:
257,100,141372,1,0,0:0:0:0:
258,206,141440,1,8,0:0:0:0:
231,104,141576,1,8,0:0:0:0:
258,100,141644,1,0,0:0:0:0:
258,100,141712,1,8,0:0:0:0:
231,102,141849,1,0,0:0:0:0:
231,102,141917,1,0,0:0:0:0:
231,101,141985,1,0,0:0:0:0:
224,109,142053,1,0,0:0:0:0:
224,109,142122,1,8,0:0:0:0:
224,109,142190,1,8,0:0:0:0:
223,108,142258,1,8,0:0:0:0:
224,107,142326,1,8,0:0:0:0:
233,102,142394,1,0,0:0:0:0:
236,92,142531,1,0,0:0:0:0:
236,92,142667,1,8,0:0:0:0:
236,92,142803,1,8,0:0:0:0:
344,119,142940,1,4,0:0:0:0:
392,220,143212,1,8,0:0:0:0:
392,220,143349,1,8,0:0:0:0:
320,122,143485,1,0,0:0:0:0:
320,122,143758,1,8,0:0:0:0:
320,122,143894,1,0,0:0:0:0:
320,122,144031,1,0,0:0:0:0:
320,122,144167,1,0,0:0:0:0:
320,122,144303,1,8,0:0:0:0:
320,122,144440,1,8,0:0:0:0:
226,63,144712,1,8,0:0:0:0:
226,63,144849,1,0,0:0:0:0:
226,63,144985,1,8,0:0:0:0:
112,196,145122,1,0,0:0:0:0:
275,220,145394,1,0,0:0:0:0:
275,220,145531,1,0,0:0:0:0:
275,220,145667,1,8,0:0:0:0:
264,186,145940,1,8,0:0:0:0:
264,186,146212,1,0,0:0:0:0:
278,216,146894,1,8,0:0:0:0:
278,216,147031,1,0,0:0:0:0:
278,216,147167,1,0,0:0:0:0:
263,195,147303,1,8,0:0:0:0:
263,195,147440,1,8,0:0:0:0:
263,195,147576,1,0,0:0:0:0:
263,195,147712,1,8,0:0:0:0:
263,195,147849,1,0,0:0:0:0:
263,195,148122,1,8,0:0:0:0:
263,195,148258,1,0,0:0:0:0:
263,195,148394,1,8,0:0:0:0:
263,195,148531,1,0,0:0:0:0:
263,195,148667,1,8,0:0:0:0:
263,195,148803,1,0,0:0:0:0:
263,195,149076,1,0,0:0:0:0:
263,195,149212,1,8,0:0:0:0:
263,195,149349,1,8,0:0:0:0:
200,228,149485,1,0,0:0:0:0:
200,228,149758,1,0,0:0:0:0:
269,174,149894,1,0,0:0:0:0:
200,228,150031,1,8,0:0:0:0:
269,174,150303,1,0,0:0:0:0:
269,174,150440,1,8,0:0:0:0:
269,174,150576,1,0,0:0:0:0:
269,174,150849,1,0,0:0:0:0:
269,174,151122,1,8,0:0:0:0:
269,174,151667,1,4,0:0:0:0:
269,174,151803,1,8,0:0:0:0:
307,213,151940,1,8,0:0:0:0:
307,213,152076,1,0,0:0:0:0:
307,213,152212,1,8,0:0:0:0:
172,234,152485,1,0,0:0:0:0:
172,234,152622,1,8,0:0:0:0:
139,99,152758,1,0,0:0:0:0:
172,234,152894,1,8,0:0:0:0:
172,234,153031,1,8,0:0:0:0:
172,234,153167,1,0,0:0:0:0:
197,199,153440,1,0,0:0:0:0:
197,199,153576,1,8,0:0:0:0:
197,199,153712,1,0,0:0:0:0:
197,199,153849,1,8,0:0:0:0:
197,199,154122,1,0,0:0:0:0:
197,199,154258,1,0,0:0:0:0:
197,199,154394,1,8,0:0:0:0:
197,199,154667,1,8,0:0:0:0:
197,199,154803,1,0,0:0:0:0:
197,199,154940,1,8,0:0:0:0:
197,199,155212,1,0,0:0:0:0:
197,199,155349,1,8,0:0:0:0:
197,199,155485,1,0,0:0:0:0:
197,199,155622,1,8,0:0:0:0:
197,199,155758,1,8,0:0:0:0:
197,199,155894,1,0,0:0:0:0:
226,90,156031,1,0,0:0:0:0:
240,113,156849,1,0,0:0:0:0:
240,113,156985,1,8,0:0:0:0:
240,113,157122,1,0,0:0:0:0:
240,106,157394,1,0,0:0:0:0:
240,106,157667,1,0,0:0:0:0:
240,106,157803,1,8,0:0:0:0:
240,106,157940,1,0,0:0:0:0:
240,106,158076,1,8,0:0:0:0:
240,106,158212,1,0,0:0:0:0:
240,106,158485,1,0,0:0:0:0:
240,106,158622,1,0,0:0:0:0:
240,106,158758,1,8,0:0:0:0:
184,131,159031,1,8,0:0:0:0:
184,131,159167,1,0,0:0:0:0:
128,160,159303,1,0,0:0:0:0:
128,160,159372,1,0,0:0:0:0:
128,160,159440,1,8,0:0:0:0:
128,160,159576,1,0,0:0:0:0:
128,160,159712,1,8,0:0:0:0:
128,160,159849,1,8,0:0:0:0:
128,160,159917,1,0,0:0:0:0:
128,160,159985,1,0,0:0:0:0:
242,162,160053,1,0,0:0:0:0:
228,111,160122,1,8,0:0:0:0:
228,111,160258,1,8,0:0:0:0:
177,190,162576,1,8,0:0:0:0:
177,190,163122,1,8,0:0:0:0:
177,190,163667,1,8,0:0:0:0:
177,190,163940,1,8,0:0:0:0:
177,190,164212,1,8,0:0:0:0:
231,86,164758,1,8,0:0:0:0:
231,86,165303,1,8,0:0:0:0:
170,171,165576,1,8,0:0:0:0:
231,86,165849,1,8,0:0:0:0:
260,113,166122,1,8,0:0:0:0:
231,86,166394,1,8,0:0:0:0:
231,86,166940,1,8,0:0:0:0:
231,86,167485,1,8,0:0:0:0:
231,86,168031,1,8,0:0:0:0:
231,86,168303,1,8,0:0:0:0:
231,86,168576,1,8,0:0:0:0:
212,124,169122,1,8,0:0:0:0:
212,124,169394,1,8,0:0:0:0:
212,124,169667,1,8,0:0:0:0:
212,124,169940,1,8,0:0:0:0:
212,124,170212,1,4,0:0:0:0:
235,243,171031,1,8,0:0:0:0:
235,243,171303,1,4,0:0:0:0:
368,187,171712,1,0,0:0:0:0:
368,187,171849,1,8,0:0:0:0:
81,129,172122,1,8,0:0:0:0:
435,189,172258,1,8,0:0:0:0:
435,189,172394,1,0,0:0:0:0:
435,189,172531,1,0,0:0:0:0:
435,189,172667,1,8,0:0:0:0:
435,189,172803,1,0,0:0:0:0:
435,189,172872,1,0,0:0:0:0:
436,187,172940,1,8,0:0:0:0:
173,156,173212,1,8,0:0:0:0:
173,156,173349,1,0,0:0:0:0:
173,156,173485,1,0,0:0:0:0:
169,159,173758,1,0,0:0:0:0:
169,159,173894,1,8,0:0:0:0:
169,159,174031,1,0,0:0:0:0:
169,160,174303,1,8,0:0:0:0:
169,160,174440,1,0,0:0:0:0:
169,159,174576,1,0,0:0:0:0:
169,159,174644,1,0,0:0:0:0:
169,159,174712,1,0,0:0:0:0:
169,159,174849,1,8,0:0:0:0:
163,155,174985,1,0,0:0:0:0:
163,155,175122,1,8,0:0:0:0:
162,154,175394,1,8,0:0:0:0:
162,154,175531,1,0,0:0:0:0:
162,154,175667,1,4,0:0:0:0:
201,132,176076,1,0,0:0:0:0:
235,52,176212,1,8,0:0:0:0:
227,96,176485,1,0,0:0:0:0:
227,96,176622,1,8,0:0:0:0:
227,96,176758,1,8,0:0:0:0:
227,96,176826,1,8,0:0:0:0:
227,96,176894,1,0,0:0:0:0:
227,96,177031,1,0,0:0:0:0:
227,96,177167,1,8,0:0:0:0:
194,148,177303,1,0,0:0:0:0:
194,148,177372,1,0,0:0:0:0:
194,148,177440,1,8,0:0:0:0:
155,181,177576,1,8,0:0:0:0:
155,181,177712,1,8,0:0:0:0:
256,192,177849,8,0,178940,0:0:0:0:
99,121,179212,5,8,0:0:0:0:
99,121,179485,1,8,0:0:0:0:
99,121,179758,1,8,0:0:0:0:
198,111,180031,1,4,0:0:0:0:
237,153,180167,1,0,0:0:0:0:
237,153,180303,1,8,0:0:0:0:
237,153,180440,1,8,0:0:0:0:
231,156,180508,1,8,0:0:0:0:
231,156,180576,1,0,0:0:0:0:
232,156,180712,1,0,0:0:0:0:
232,157,180849,1,8,0:0:0:0:
286,121,180985,1,0,0:0:0:0:
286,121,181053,1,0,0:0:0:0:
286,121,181122,1,8,0:0:0:0:
286,121,181190,1,0,0:0:0:0:
286,121,181258,1,8,0:0:0:0:
290,123,181394,1,8,0:0:0:0:
291,123,181531,1,0,0:0:0:0:
290,123,181599,1,0,0:0:0:0:
292,124,181667,1,8,0:0:0:0:
294,129,181803,1,0,0:0:0:0:
278,102,181940,1,8,0:0:0:0:
278,102,182008,1,8,0:0:0:0:
278,102,182076,1,0,0:0:0:0:
278,102,182144,1,0,0:0:0:0:
278,102,182212,1,8,0:0:0:0:
278,102,182349,1,0,0:0:0:0:
275,201,182485,1,8,0:0:0:0:
275,201,182553,1,8,0:0:0:0:
275,201,182622,1,0,0:0:0:0:
204,81,182758,1,8,0:0:0:0:
204,81,182894,1,0,0:0:0:0:
243,91,183031,1,8,0:0:0:0:
243,91,183099,1,8,0:0:0:0:
243,91,183167,1,0,0:0:0:0:
242,94,183303,1,0,0:0:0:0:
242,94,183372,1,0,0:0:0:0:
242,94,183440,1,0,0:0:0:0:
205,92,183508,1,0,0:0:0:0:
243,94,183576,1,8,0:0:0:0:
243,94,183712,1,0,0:0:0:0:
246,94,183781,1,0,0:0:0:0:
246,94,183849,1,8,0:0:0:0:
242,96,183985,1,0,0:0:0:0:
243,96,184122,1,8,0:0:0:0:
286,156,184190,1,8,0:0:0:0:
286,156,184258,1,0,0:0:0:0:
98,182,184394,1,0,0:0:0:0:
363,211,184531,1,8,0:0:0:0:
368,214,184599,1,0,0:0:0:0:
368,214,184667,1,0,0:0:0:0:
368,214,184735,1,0,0:0:0:0:
219,192,184803,1,8,0:0:0:0:
368,214,184940,1,8,0:0:0:0:
368,214,185008,1,8,0:0:0:0:
187,168,185076,1,0,0:0:0:0:
192,177,185212,1,8,0:0:0:0:
205,92,185349,1,8,0:0:0:0:
205,92,185417,1,8,0:0:0:0:
195,175,185485,1,8,0:0:0:0:
197,173,185553,1,8,0:0:0:0:
197,173,185622,1,8,0:0:0:0:
157,63,185758,1,8,0:0:0:0:
157,63,185894,1,0,0:0:0:0:
170,193,186031,1,8,0:0:0:0:
178,192,186099,1,8,0:0:0:0:
179,192,186167,1,0,0:0:0:0:
179,192,186303,1,0,0:0:0:0:
345,288,186372,1,0,0:0:0:0:
179,192,186440,1,8,0:0:0:0:
233,219,186576,1,0,0:0:0:0:
233,219,186644,1,0,0:0:0:0:
233,219,186712,1,0,0:0:0:0:
225,127,186849,1,8,0:0:0:0:
159,69,186985,1,0,0:0:0:0:
195,40,187053,1,0,0:0:0:0:
225,127,187122,1,0,0:0:0:0:
195,40,187190,1,0,0:0:0:0:
228,132,187258,1,8,0:0:0:0:
195,40,187394,1,0,0:0:0:0:
228,131,187462,1,0,0:0:0:0:
230,130,187531,1,8,0:0:0:0:
200,69,187667,1,0,0:0:0:0:
200,69,187803,1,0,0:0:0:0:
200,69,187940,1,6,0:0:0:0:
248,169,188212,1,8,0:0:0:0:
200,69,188281,1,0,0:0:0:0:
200,69,188349,1,0,0:0:0:0:
200,69,188417,1,0,0:0:0:0:
200,69,188485,1,8,0:0:0:0:
200,69,188553,1,8,0:0:0:0:
200,69,188622,1,8,0:0:0:0:
200,69,188690,1,8,0:0:0:0:
200,69,188758,1,0,0:0:0:0:
256,169,188894,1,8,0:0:0:0:
256,169,189031,1,8,0:0:0:0:
256,169,189167,1,8,0:0:0:0:
256,169,189235,1,8,0:0:0:0:
256,169,189303,1,0,0:0:0:0:
248,170,189440,1,0,0:0:0:0:
248,170,189576,1,8,0:0:0:0:
248,170,189712,1,0,0:0:0:0:
248,169,189781,1,0,0:0:0:0:
248,169,189849,1,8,0:0:0:0:
248,167,189985,1,0,0:0:0:0:
248,167,190053,1,8,0:0:0:0:
248,167,190122,1,8,0:0:0:0:
243,159,190258,1,0,0:0:0:0:
243,159,190394,1,8,0:0:0:0:
301,125,190531,1,0,0:0:0:0:
301,125,190667,1,8,0:0:0:0:
301,125,190735,1,8,0:0:0:0:
301,125,190803,1,0,0:0:0:0:
301,125,190872,1,0,0:0:0:0:
301,125,190940,1,8,0:0:0:0:
301,125,191076,1,0,0:0:0:0:
301,125,191212,1,0,0:0:0:0:
301,125,191281,1,0,0:0:0:0:
301,125,191349,1,8,0:0:0:0:
302,120,191417,1,0,0:0:0:0:
302,120,191485,1,8,0:0:0:0:
303,120,191622,1,0,0:0:0:0:
303,120,191758,1,8,0:0:0:0:
303,120,191826,1,8,0:0:0:0:
303,120,191894,1,0,0:0:0:0:
254,85,192031,1,8,0:0:0:0:
258,81,192099,1,0,0:0:0:0:
254,85,192167,1,0,0:0:0:0:
300,120,192235,1,0,0:0:0:0:
299,119,192303,1,8,0:0:0:0:
257,78,192440,1,8,0:0:0:0:
242,142,192576,1,0,0:0:0:0:
242,142,192644,1,0,0:0:0:0:
247,137,192712,1,8,0:0:0:0:
246,132,192781,1,8,0:0:0:0:
246,131,192849,1,8,0:0:0:0:
244,130,192985,1,8,0:0:0:0:
244,131,193122,1,0,0:0:0:0:
294,117,193258,1,8,0:0:0:0:
292,114,193326,1,8,0:0:0:0:
294,117,193394,1,0,0:0:0:0:
294,117,193531,1,0,0:0:0:0:
300,111,193667,1,8,0:0:0:0:
299,110,193735,1,8,0:0:0:0:
297,110,193803,1,8,0:0:0:0:
272,67,193940,1,8,0:0:0:0:
272,67,194076,1,0,0:0:0:0:
272,67,194144,1,0,0:0:0:0:
272,67,194212,1,8,0:0:0:0:
272,67,194349,1,0,0:0:0:0:
272,67,194417,1,8,0:0:0:0:
272,67,194485,1,8,0:0:0:0:
208,121,194622,1,8,0:0:0:0:
209,128,194758,1,8,0:0:0:0:
209,126,194826,1,8,0:0:0:0:
219,121,194894,1,8,0:0:0:0:
219,121,194962,1,8,0:0:0:0:
219,121,195031,1,0,0:0:0:0:
219,121,195167,1,8,0:0:0:0:
232,99,195303,1,0,0:0:0:0:
232,99,195372,1,0,0:0:0:0:
232,99,195440,1,8,0:0:0:0:
167,165,195576,1,0,0:0:0:0:
167,165,195712,1,0,0:0:0:0:
167,165,195781,1,0,0:0:0:0:
167,165,195849,1,8,0:0:0:0:
219,239,195917,1,0,0:0:0:0:
219,239,195985,1,8,0:0:0:0:
246,148,196122,1,0,0:0:0:0:
240,140,196258,1,8,0:0:0:0:
189,113,196394,1,8,0:0:0:0:
189,113,196531,1,8,0:0:0:0:
189,113,196599,1,8,0:0:0:0:
243,166,196667,1,8,0:0:0:0:
243,166,196735,1,8,0:0:0:0:
243,166,196803,1,0,0:0:0:0:
186,107,196940,1,0,0:0:0:0:
189,113,197008,1,0,0:0:0:0:
189,113,197076,1,8,0:0:0:0:
175,54,197212,1,0,0:0:0:0:
182,100,197349,1,8,0:0:0:0:
189,97,197485,1,0,0:0:0:0:
280,187,197622,1,0,0:0:0:0:
274,191,197690,1,8,0:0:0:0:
274,191,197758,1,0,0:0:0:0:
274,190,197826,1,0,0:0:0:0:
274,189,197894,1,8,0:0:0:0:
274,189,197962,1,8,0:0:0:0:
143,163,198031,1,0,0:0:0:0:
174,195,198167,1,8,0:0:0:0:
174,195,198235,1,8,0:0:0:0:
174,195,198303,1,0,0:0:0:0:
174,195,198372,1,8,0:0:0:0:
176,200,198440,1,0,0:0:0:0:
125,171,198576,1,0,0:0:0:0:
147,110,199258,1,0,0:0:0:0:
147,110,199394,1,6,0:0:0:0:
147,110,199667,1,4,0:0:0:0:
177,160,199803,1,0,0:0:0:0:
175,165,199872,1,0,0:0:0:0:
177,160,199940,1,8,0:0:0:0:
189,103,200076,1,0,0:0:0:0:
223,167,200349,1,8,0:0:0:0:
96,158,200485,1,8,0:0:0:0:
96,158,200553,1,8,0:0:0:0:
223,167,200622,1,8,0:0:0:0:
227,97,200758,1,0,0:0:0:0:
227,97,200894,1,8,0:0:0:0:
227,97,200962,1,8,0:0:0:0:
227,97,201031,1,0,0:0:0:0:
153,145,201099,1,0,0:0:0:0:
227,97,201167,1,8,0:0:0:0:
222,107,201303,1,0,0:0:0:0:
222,105,201372,1,0,0:0:0:0:
222,104,201440,1,8,0:0:0:0:
222,105,201576,1,0,0:0:0:0:
222,105,201712,1,8,0:0:0:0:
153,145,201849,1,0,0:0:0:0:
153,145,201917,1,0,0:0:0:0:
153,145,201985,1,0,0:0:0:0:
197,156,202122,1,8,0:0:0:0:
197,156,202258,1,0,0:0:0:0:
197,156,202326,1,0,0:0:0:0:
197,156,202394,1,8,0:0:0:0:
60,154,202531,1,8,0:0:0:0:
60,154,202667,1,8,0:0:0:0:
328,272,202735,1,8,0:0:0:0:
193,173,202803,1,0,0:0:0:0:
193,173,202940,1,0,0:0:0:0:
192,173,203076,1,8,0:0:0:0:
192,172,203144,1,8,0:0:0:0:
190,172,203212,1,8,0:0:0:0:
190,172,203281,1,8,0:0:0:0:
190,174,203349,1,0,0:0:0:0:
210,111,203485,1,8,0:0:0:0:
211,157,203553,1,8,0:0:0:0:
211,157,203622,1,0,0:0:0:0:
170,38,203758,1,8,0:0:0:0:
170,38,203894,1,0,0:0:0:0:
170,38,203962,1,0,0:0:0:0:
170,38,204031,1,8,0:0:0:0:
214,153,204167,1,0,0:0:0:0:
214,153,204303,1,8,0:0:0:0:
210,111,204372,1,8,0:0:0:0:
214,153,204440,1,8,0:0:0:0:
252,153,204576,1,0,0:0:0:0:
170,38,204712,1,8,0:0:0:0:
200,103,204781,1,0,0:0:0:0:
289,120,204849,1,8,0:0:0:0:
289,120,204985,1,8,0:0:0:0:
210,111,205122,1,0,0:0:0:0:
210,111,205258,1,8,0:0:0:0:
210,111,205326,1,0,0:0:0:0:
210,111,205394,1,0,0:0:0:0:
207,110,205462,1,0,0:0:0:0:
207,110,205531,1,8,0:0:0:0:
211,127,205667,1,0,0:0:0:0:
232,72,205735,1,0,0:0:0:0:
232,72,205803,1,8,0:0:0:0:
232,72,205940,1,8,0:0:0:0:
225,60,206076,1,0,0:0:0:0:
225,60,206144,1,0,0:0:0:0:
225,60,206212,1,8,0:0:0:0:
232,77,206349,1,8,0:0:0:0:
171,36,206485,1,8,0:0:0:0:
171,36,206553,1,8,0:0:0:0:
202,109,206622,1,8,0:0:0:0:
203,106,206758,1,0,0:0:0:0:
203,106,206894,1,8,0:0:0:0:
198,105,207031,1,8,0:0:0:0:
198,105,207099,1,8,0:0:0:0:
198,105,207167,1,0,0:0:0:0:
258,207,207303,1,0,0:0:0:0:
258,207,207372,1,0,0:0:0:0:
164,194,207440,1,8,0:0:0:0:
470,143,207576,1,8,0:0:0:0:
138,179,207644,1,8,0:0:0:0:
169,196,207712,1,0,0:0:0:0:
169,196,207781,1,0,0:0:0:0:
169,196,207849,1,8,0:0:0:0:
379,101,207985,1,8,0:0:0:0:
379,101,208122,1,0,0:0:0:0:
169,196,208190,1,0,0:0:0:0:
166,201,208258,1,0,0:0:0:0:
166,201,208326,1,0,0:0:0:0:
166,201,208394,1,8,0:0:0:0:
168,201,208531,1,0,0:0:0:0:
168,201,208667,1,8,0:0:0:0:
172,36,208803,1,0,0:0:0:0:
189,163,209076,1,8,0:0:0:0:
189,163,209212,1,0,0:0:0:0:
216,199,209281,1,0,0:0:0:0:
216,199,209349,1,8,0:0:0:0:
393,310,209485,1,0,0:0:0:0:
236,110,209553,1,0,0:0:0:0:
393,310,209622,1,0,0:0:0:0:
393,310,209758,1,8,0:0:0:0:
393,310,209894,1,0,0:0:0:0:
393,310,209962,1,0,0:0:0:0:
393,310,210031,1,8,0:0:0:0:
238,114,210167,1,0,0:0:0:0:
238,114,210303,1,8,0:0:0:0:
238,114,210440,1,8,0:0:0:0:
238,114,210508,1,8,0:0:0:0:
238,114,210576,1,0,0:0:0:0:
252,129,210712,1,0,0:0:0:0:
252,129,210849,1,8,0:0:0:0:
252,128,210985,1,0,0:0:0:0:
252,128,211053,1,0,0:0:0:0:
252,127,211122,1,8,0:0:0:0:
172,36,211258,1,0,0:0:0:0:
487,345,211394,1,8,0:0:0:0:
173,68,211462,1,8,0:0:0:0:
173,68,211531,1,0,0:0:0:0:
252,129,211667,1,0,0:0:0:0:
200,147,211736,1,0,0:0:0:0:
200,147,211804,1,8,0:0:0:0:
200,147,211872,1,0,0:0:0:0:
200,147,211940,1,8,0:0:0:0:
158,163,212076,1,8,0:0:0:0:
188,152,212212,1,0,0:0:0:0:
188,150,212281,1,0,0:0:0:0:
253,128,212349,1,0,0:0:0:0:
253,128,212485,1,8,0:0:0:0:
253,128,212622,1,8,0:0:0:0:
252,129,212690,1,8,0:0:0:0:
252,129,212758,1,0,0:0:0:0:
232,193,212894,1,0,0:0:0:0:
232,193,213031,1,8,0:0:0:0:
232,193,213099,1,8,0:0:0:0:
232,193,213167,1,0,0:0:0:0:
253,128,213303,1,0,0:0:0:0:
256,122,213440,1,8,0:0:0:0:
256,122,213576,1,8,0:0:0:0:
191,49,213644,1,8,0:0:0:0:
191,49,213712,1,8,0:0:0:0:
206,63,213849,1,0,0:0:0:0:
206,63,213985,1,8,0:0:0:0:
206,63,214053,1,8,0:0:0:0:
206,63,214122,1,8,0:0:0:0:
206,62,214190,1,8,0:0:0:0:
206,62,214258,1,0,0:0:0:0:
206,62,214394,1,0,0:0:0:0:
206,62,214531,1,8,0:0:0:0:
207,56,214667,1,8,0:0:0:0:
207,56,214735,1,8,0:0:0:0:
206,63,214803,1,8,0:0:0:0:
327,111,214940,1,0,0:0:0:0:
327,111,215008,1,0,0:0:0:0:
201,45,215076,1,8,0:0:0:0:
237,118,215212,1,8,0:0:0:0:
237,118,215349,1,8,0:0:0:0:
224,98,215485,1,0,0:0:0:0:
226,96,215553,1,0,0:0:0:0:
228,94,215622,1,8,0:0:0:0:
226,97,215758,1,8,0:0:0:0:
226,97,215894,1,0,0:0:0:0:
227,99,216031,1,8,0:0:0:0:
227,99,216099,1,8,0:0:0:0:
129,125,216167,1,0,0:0:0:0:
129,125,216235,1,0,0:0:0:0:
227,99,216303,1,0,0:0:0:0:
224,98,216440,1,8,0:0:0:0:
201,47,216508,1,8,0:0:0:0:
237,105,216576,1,0,0:0:0:0:
236,105,216644,1,0,0:0:0:0:
235,104,216712,1,0,0:0:0:0:
129,125,216781,1,0,0:0:0:0:
235,104,216849,1,8,0:0:0:0:
232,192,216917,1,8,0:0:0:0:
235,104,216985,1,8,0:0:0:0:
232,192,217053,1,8,0:0:0:0:
232,192,217122,1,0,0:0:0:0:
138,118,217531,1,0,0:0:0:0:
138,118,217940,1,8,0:0:0:0:
138,118,218212,1,0,0:0:0:0:
138,118,218485,1,0,0:0:0:0:
138,118,218622,1,0,0:0:0:0:
138,118,218758,1,0,0:0:0:0:
138,118,218894,1,0,0:0:0:0:
138,118,219031,1,0,0:0:0:0:
138,118,219167,1,0,0:0:0:0:
