osu file format v14

[General]
AudioFilename: audio.mp3
AudioLeadIn: 0
PreviewTime: 53084
Countdown: 0
SampleSet: Normal
StackLeniency: 0.7
Mode: 1
LetterboxInBreaks: 0
WidescreenStoryboard: 1

[Editor]
DistanceSpacing: 1.1
BeatDivisor: 4
GridSize: 32
TimelineZoom: 1

[Metadata]
Title:Toumei Elegy
TitleUnicode:透明エレジー
Artist:nameless
ArtistUnicode:nameless
Creator:mintong89
Version:Oni
Source:
Tags:n-buna ouka alice megpoid gumi utau vocaloid lop -S_a_I_k_A-
BeatmapID:1622895
BeatmapSetID:450585

[Difficulty]
HPDrainRate:5
CircleSize:5
OverallDifficulty:6
ApproachRate:5
SliderMultiplier:1.4
SliderTickRate:1

[Events]
//Background and Video events
0,0,"Itai.jpg",0,0
//Break Periods
//Storyboard Layer 0 (Background)
//Storyboard Layer 1 (Fail)
//Storyboard Layer 2 (Pass)
//Storyboard Layer 3 (Foreground)
//Storyboard Sound Samples

[TimingPoints]
1122,272.727272727273,4,1,0,70,1,0
1122,-133.333333333333,4,1,0,70,0,0
9849,-100,4,1,0,70,0,0
53485,-100,4,1,0,70,0,1
70940,-100,4,1,0,70,0,0
89417,-100,4,1,0,10,0,0
90508,-100,4,1,0,70,0,0
108031,-100,4,1,0,70,0,1
125485,-100,4,1,0,70,0,0
142940,-100,4,1,0,50,0,0
162576,-133.333333333333,4,1,0,70,0,0
179144,-100,4,1,0,20,0,0
180031,-100,4,1,0,70,0,1
199667,-100,4,1,0,70,0,0

[HitObjects]
192,192,1122,5,4,0:0:0:0:
192,192,1394,1,8,0:0:0:0:
192,192,1667,1,0,0:0:0:0:
96,96,1940,1,8,0:0:0:0:
225,190,2076,1,8,0:0:0:0:
225,190,2212,1,0,0:0:0:0:
225,190,2485,1,8,0:0:0:0:
225,190,2622,1,0,0:0:0:0:
225,190,2758,1,8,0:0:0:0:
318,193,3031,1,0,0:0:0:0:
318,193,3167,1,8,0:0:0:0:
318,193,3303,1,0,0:0:0:0:
318,193,3576,1,8,0:0:0:0:
318,193,3712,1,0,0:0:0:0:
318,193,3849,1,8,0:0:0:0:
95,236,4122,1,8,0:0:0:0:
95,236,4394,1,0,0:0:0:0:
95,236,4667,1,8,0:0:0:0:
95,236,4940,1,0,0:0:0:0:
95,236,5212,1,8,0:0:0:0:
95,236,5485,1,0,0:0:0:0:
204,167,5894,1,0,0:0:0:0:
204,167,6303,1,8,0:0:0:0:
204,167,6440,1,8,0:0:0:0:
204,167,6576,1,0,0:0:0:0:
209,233,6849,1,8,0:0:0:0:
264,166,7122,1,0,0:0:0:0:
264,166,7258,1,0,0:0:0:0:
264,166,7394,1,8,0:0:0:0:
264,166,7667,1,0,0:0:0:0:
124,127,8076,1,0,0:0:0:0:
125,122,8485,1,8,0:0:0:0:
125,122,8758,1,0,0:0:0:0:
34,140,9849,1,4,0:0:0:0:
132,155,9985,1,8,0:0:0:0:
142,163,10122,1,8,0:0:0:0:
142,164,10258,1,0,0:0:0:0:
177,173,10531,1,8,0:0:0:0:
177,173,10667,1,0,0:0:0:0:
252,186,10735,1,0,0:0:0:0:
177,173,10803,1,8,0:0:0:0:
162,201,10940,1,0,0:0:0:0:
162,201,11076,1,8,0:0:0:0:
162,201,11212,1,8,0:0:0:0:
177,207,11349,1,0,0:0:0:0:
203,204,11485,1,8,0:0:0:0:
203,204,11553,1,8,0:0:0:0:
203,204,11622,1,0,0:0:0:0:
203,204,11758,1,8,0:0:0:0:
203,204,11894,1,0,0:0:0:0:
203,204,12031,1,0,0:0:0:0:
197,169,12303,1,8,0:0:0:0:
197,169,12440,1,0,0:0:0:0:
197,169,12508,1,0,0:0:0:0:
133,156,12576,1,0,0:0:0:0:
197,169,12712,1,0,0:0:0:0:
197,169,12849,1,8,0:0:0:0:
197,169,12985,1,0,0:0:0:0:
133,156,13258,1,0,0:0:0:0:
226,107,13394,1,0,0:0:0:0:
226,107,13531,1,8,0:0:0:0:
133,156,13667,1,0,0:0:0:0:
133,156,13735,1,0,0:0:0:0:
133,156,13803,1,8,0:0:0:0:
226,107,13940,1,0,0:0:0:0:
226,107,14076,1,8,0:0:0:0:
226,107,14212,1,0,0:0:0:0:
196,73,14485,1,8,0:0:0:0:
133,156,14622,1,8,0:0:0:0:
133,156,14690,1,8,0:0:0:0:
133,156,14758,1,0,0:0:0:0:
232,95,14894,1,0,0:0:0:0:
232,95,15031,1,8,0:0:0:0:
232,95,15303,1,0,0:0:0:0:
232,95,15440,1,8,0:0:0:0:
232,95,15508,1,8,0:0:0:0:
232,95,15576,1,0,0:0:0:0:
253,104,15712,1,0,0:0:0:0:
253,104,15849,1,8,0:0:0:0:
252,104,15985,1,0,0:0:0:0:
252,104,16053,1,0,0:0:0:0:
252,104,16122,1,8,0:0:0:0:
252,104,16258,1,8,0:0:0:0:
170,108,16394,1,0,0:0:0:0:
170,108,16462,1,0,0:0:0:0:
170,108,16531,1,0,0:0:0:0:
179,111,16667,1,8,0:0:0:0:
179,111,16803,1,8,0:0:0:0:
209,110,16940,1,8,0:0:0:0:
209,110,17008,1,8,0:0:0:0:
209,110,17076,1,0,0:0:0:0:
209,110,17212,1,0,0:0:0:0:
209,110,17349,1,8,0:0:0:0:
209,110,17485,1,0,0:0:0:0:
20,111,17758,1,0,0:0:0:0:
20,111,17894,1,8,0:0:0:0:
112,110,18031,1,0,0:0:0:0:
112,110,18099,1,0,0:0:0:0:
112,110,18167,1,8,0:0:0:0:
112,110,18303,1,8,0:0:0:0:
112,110,18440,1,0,0:0:0:0:
34,140,18576,1,4,0:0:0:0:
132,155,18712,1,8,0:0:0:0:
142,163,18849,1,8,0:0:0:0:
142,164,18985,1,0,0:0:0:0:
177,173,19258,1,8,0:0:0:0:
177,173,19394,1,0,0:0:0:0:
252,186,19462,1,0,0:0:0:0:
177,173,19530,1,8,0:0:0:0:
162,201,19667,1,0,0:0:0:0:
162,201,19803,1,8,0:0:0:0:
162,201,19939,1,8,0:0:0:0:
177,207,20076,1,0,0:0:0:0:
203,204,20212,1,8,0:0:0:0:
203,204,20280,1,8,0:0:0:0:
203,204,20349,1,0,0:0:0:0:
203,204,20485,1,8,0:0:0:0:
203,204,20621,1,0,0:0:0:0:
203,204,20758,1,0,0:0:0:0:
197,169,21030,1,8,0:0:0:0:
150,93,21167,1,8,0:0:0:0:
150,93,21235,1,8,0:0:0:0:
133,156,21303,1,0,0:0:0:0:
197,169,21439,1,0,0:0:0:0:
197,169,21576,1,8,0:0:0:0:
197,169,21712,1,0,0:0:0:0:
150,93,21985,1,8,0:0:0:0:
226,107,22121,1,0,0:0:0:0:
226,107,22258,1,8,0:0:0:0:
152,84,22394,1,8,0:0:0:0:
152,84,22462,1,8,0:0:0:0:
133,156,22530,1,8,0:0:0:0:
226,107,22667,1,0,0:0:0:0:
226,107,22803,1,8,0:0:0:0:
226,107,22939,1,0,0:0:0:0:
196,73,23212,1,8,0:0:0:0:
133,156,23349,1,8,0:0:0:0:
133,156,23417,1,8,0:0:0:0:
133,156,23485,1,0,0:0:0:0:
153,88,23622,1,8,0:0:0:0:
232,95,23758,1,8,0:0:0:0:
232,95,24030,1,0,0:0:0:0:
217,209,24167,1,8,0:0:0:0:
217,209,24235,1,8,0:0:0:0:
217,209,24303,1,8,0:0:0:0:
217,209,24440,1,8,0:0:0:0:
223,207,24576,1,8,0:0:0:0:
253,94,24644,1,8,0:0:0:0:
187,102,24712,1,0,0:0:0:0:
252,104,24849,1,8,0:0:0:0:
252,104,24985,1,8,0:0:0:0:
170,108,25121,1,0,0:0:0:0:
170,108,25189,1,0,0:0:0:0:
170,108,25258,1,0,0:0:0:0:
179,111,25394,1,8,0:0:0:0:
179,111,25530,1,8,0:0:0:0:
209,110,25667,1,8,0:0:0:0:
209,110,25735,1,8,0:0:0:0:
209,110,25803,1,0,0:0:0:0:
209,110,25939,1,0,0:0:0:0:
209,110,26076,1,8,0:0:0:0:
209,110,26212,1,4,0:0:0:0:
166,137,26485,1,8,0:0:0:0:
166,137,26622,1,8,0:0:0:0:
266,147,26758,1,0,0:0:0:0:
266,147,26826,1,0,0:0:0:0:
266,147,26894,1,8,0:0:0:0:
266,147,27031,1,8,0:0:0:0:
266,147,27167,1,8,0:0:0:0:
283,116,27303,1,4,0:0:0:0:
204,105,27712,1,0,0:0:0:0:
204,105,28122,1,8,0:0:0:0:
204,105,28394,1,0,0:0:0:0:
206,160,29485,1,0,0:0:0:0:
206,160,29894,1,0,0:0:0:0:
206,160,30303,1,8,0:0:0:0:
206,160,30576,1,0,0:0:0:0:
206,160,31667,1,8,0:0:0:0:
206,160,32076,1,0,0:0:0:0:
206,160,32485,1,8,0:0:0:0:
206,160,32758,1,0,0:0:0:0:
243,146,33849,1,0,0:0:0:0:
243,146,34258,1,0,0:0:0:0:
243,146,34667,1,8,0:0:0:0:
243,146,34940,1,0,0:0:0:0:
228,149,35212,1,0,0:0:0:0:
228,149,35348,1,0,0:0:0:0:
228,149,35484,1,0,0:0:0:0:
228,149,35621,1,0,0:0:0:0:
228,149,35757,1,6,0:0:0:0:
214,165,36031,1,4,0:0:0:0:
231,177,36440,1,0,0:0:0:0:
231,177,36849,1,8,0:0:0:0:
231,177,37122,1,0,0:0:0:0:
231,177,37394,1,0,0:0:0:0:
231,177,37667,1,8,0:0:0:0:
231,177,37940,1,8,0:0:0:0:
75,119,38212,1,0,0:0:0:0:
75,119,38622,1,0,0:0:0:0:
75,119,39031,1,8,0:0:0:0:
133,113,39303,1,8,0:0:0:0:
133,113,39576,1,0,0:0:0:0:
133,113,39849,1,0,0:0:0:0:
133,113,40122,1,8,0:0:0:0:
165,140,40394,1,4,0:0:0:0:
133,113,40803,1,0,0:0:0:0:
133,113,41212,1,8,0:0:0:0:
133,113,41485,1,0,0:0:0:0:
153,138,41758,1,0,0:0:0:0:
68,166,42031,1,8,0:0:0:0:
68,166,42303,1,8,0:0:0:0:
165,140,42576,1,4,0:0:0:0:
51,138,42985,1,0,0:0:0:0:
51,138,43394,1,8,0:0:0:0:
168,147,43667,1,0,0:0:0:0:
198,113,43940,1,8,0:0:0:0:
198,113,44076,1,0,0:0:0:0:
198,113,44212,1,0,0:0:0:0:
198,113,44349,1,0,0:0:0:0:
198,113,44485,1,8,0:0:0:0:
198,113,44758,1,4,0:0:0:0:
198,113,45031,1,8,0:0:0:0:
198,113,45167,1,0,0:0:0:0:
198,113,45303,1,8,0:0:0:0:
140,119,45576,1,0,0:0:0:0:
140,119,45712,1,8,0:0:0:0:
140,119,45781,1,8,0:0:0:0:
140,119,45849,1,0,0:0:0:0:
217,100,45985,1,8,0:0:0:0:
254,128,46122,1,8,0:0:0:0:
254,128,46258,1,0,0:0:0:0:
254,128,46394,1,8,0:0:0:0:
158,115,46667,1,0,0:0:0:0:
155,112,46940,1,0,0:0:0:0:
158,115,47212,1,0,0:0:0:0:
158,115,47349,1,0,0:0:0:0:
158,115,47485,1,8,0:0:0:0:
215,108,47758,1,8,0:0:0:0:
215,108,47894,1,0,0:0:0:0:
217,100,48031,1,8,0:0:0:0:
217,100,48099,1,8,0:0:0:0:
217,100,48167,1,0,0:0:0:0:
217,100,48303,1,0,0:0:0:0:
217,100,48440,1,8,0:0:0:0:
217,100,48576,1,0,0:0:0:0:
217,100,48644,1,0,0:0:0:0:
217,100,48712,1,0,0:0:0:0:
192,41,48849,1,8,0:0:0:0:
241,116,49122,1,0,0:0:0:0:
241,116,49394,1,0,0:0:0:0:
241,116,49531,1,0,0:0:0:0:
73,122,49599,1,0,0:0:0:0:
83,176,49667,1,8,0:0:0:0:
166,91,49803,1,8,0:0:0:0:
148,136,49940,1,0,0:0:0:0:
198,113,50077,1,0,0:0:0:0:
198,113,50213,1,8,0:0:0:0:
160,101,50486,1,0,0:0:0:0:
160,101,50622,1,8,0:0:0:0:
160,101,50759,1,0,0:0:0:0:
160,101,51031,1,0,0:0:0:0:
160,101,51168,1,0,0:0:0:0:
232,57,51304,1,8,0:0:0:0:
193,109,51577,1,0,0:0:0:0:
193,109,51713,1,8,0:0:0:0:
193,109,51850,1,0,0:0:0:0:
175,169,52122,1,0,0:0:0:0:
175,169,52258,1,0,0:0:0:0:
175,169,52394,1,8,0:0:0:0:
280,172,52531,1,0,0:0:0:0:
280,172,52599,1,0,0:0:0:0:
280,172,52667,1,8,0:0:0:0:
280,172,52803,1,0,0:0:0:0:
280,172,52940,1,8,0:0:0:0:
186,98,53485,1,4,0:0:0:0:
194,128,53758,1,8,0:0:0:0:
194,128,53894,1,0,0:0:0:0:
194,128,53962,1,0,0:0:0:0:
194,128,54031,1,8,0:0:0:0:
194,128,54167,1,8,0:0:0:0:
194,128,54303,1,8,0:0:0:0:
142,159,54440,1,8,0:0:0:0:
142,159,54508,1,8,0:0:0:0:
142,159,54576,1,0,0:0:0:0:
224,174,54712,1,0,0:0:0:0:
224,174,54849,1,8,0:0:0:0:
224,174,54985,1,0,0:0:0:0:
190,139,55053,1,0,0:0:0:0:
190,139,55122,1,8,0:0:0:0:
187,144,55394,1,0,0:0:0:0:
187,144,55531,1,8,0:0:0:0:
208,69,55667,1,0,0:0:0:0:
208,69,55940,1,8,0:0:0:0:
221,99,56076,1,8,0:0:0:0:
221,99,56144,1,8,0:0:0:0:
221,99,56212,1,0,0:0:0:0:
221,99,56349,1,0,0:0:0:0:
221,99,56485,1,8,0:0:0:0:
221,99,56622,1,8,0:0:0:0:
221,99,56758,1,0,0:0:0:0:
221,99,56826,1,0,0:0:0:0:
221,99,56894,1,8,0:0:0:0:
221,99,57031,1,8,0:0:0:0:
221,99,57167,1,0,0:0:0:0:
221,99,57303,1,8,0:0:0:0:
221,99,57576,1,8,0:0:0:0:
221,99,57712,1,0,0:0:0:0:
221,99,57849,1,0,0:0:0:0:
122,132,58122,1,0,0:0:0:0:
122,132,58258,1,0,0:0:0:0:
255,135,58326,1,0,0:0:0:0:
190,51,58394,1,8,0:0:0:0:
212,150,58531,1,0,0:0:0:0:
212,150,58667,1,8,0:0:0:0:
212,150,58803,1,8,0:0:0:0:
212,150,58872,1,8,0:0:0:0:
212,150,58940,1,0,0:0:0:0:
155,207,59076,1,0,0:0:0:0:
155,207,59212,1,8,0:0:0:0:
155,207,59281,1,8,0:0:0:0:
155,207,59349,1,0,0:0:0:0:
155,207,59485,1,8,0:0:0:0:
283,171,59758,1,0,0:0:0:0:
283,171,59894,1,8,0:0:0:0:
283,171,60031,1,0,0:0:0:0:
283,171,60099,1,0,0:0:0:0:
283,171,60167,1,8,0:0:0:0:
283,171,60303,1,8,0:0:0:0:
283,171,60440,1,0,0:0:0:0:
283,171,60576,1,8,0:0:0:0:
283,171,60712,1,0,0:0:0:0:
283,171,60781,1,0,0:0:0:0:
283,171,60849,1,0,0:0:0:0:
283,171,60985,1,8,0:0:0:0:
283,171,61122,1,0,0:0:0:0:
68,107,61258,1,0,0:0:0:0:
251,80,61394,1,6,0:0:0:0:
190,94,61667,1,0,0:0:0:0:
190,94,61804,1,8,0:0:0:0:
190,94,61872,1,8,0:0:0:0:
190,94,61940,1,0,0:0:0:0:
128,160,62076,1,8,0:0:0:0:
190,94,62212,1,0,0:0:0:0:
233,104,62485,1,8,0:0:0:0:
233,104,62622,1,0,0:0:0:0:
233,104,62758,1,8,0:0:0:0:
226,149,63031,1,8,0:0:0:0:
228,188,63167,1,8,0:0:0:0:
191,42,63235,1,8,0:0:0:0:
191,42,63303,1,0,0:0:0:0:
211,169,63440,1,0,0:0:0:0:
211,169,63576,1,8,0:0:0:0:
215,170,63712,1,0,0:0:0:0:
214,170,63781,1,0,0:0:0:0:
209,164,63849,1,8,0:0:0:0:
211,167,63985,1,8,0:0:0:0:
249,122,64122,1,8,0:0:0:0:
249,122,64190,1,8,0:0:0:0:
208,163,64258,1,8,0:0:0:0:
249,122,64394,1,0,0:0:0:0:
266,121,64667,1,8,0:0:0:0:
266,121,64735,1,8,0:0:0:0:
265,120,64803,1,8,0:0:0:0:
263,118,64940,1,0,0:0:0:0:
210,71,65076,1,8,0:0:0:0:
249,112,65212,1,0,0:0:0:0:
249,112,65281,1,0,0:0:0:0:
249,111,65349,1,8,0:0:0:0:
273,146,65485,1,0,0:0:0:0:
272,145,65553,1,0,0:0:0:0:
270,143,65622,1,0,0:0:0:0:
270,143,65758,1,8,0:0:0:0:
273,146,65894,1,0,0:0:0:0:
273,146,66031,1,8,0:0:0:0:
227,58,66099,1,8,0:0:0:0:
273,146,66167,1,8,0:0:0:0:
244,99,66303,1,0,0:0:0:0:
244,99,66440,1,8,0:0:0:0:
244,99,66576,1,0,0:0:0:0:
196,168,66849,1,8,0:0:0:0:
199,176,66985,1,0,0:0:0:0:
199,176,67053,1,0,0:0:0:0:
199,176,67122,1,8,0:0:0:0:
222,169,67258,1,8,0:0:0:0:
222,169,67394,1,8,0:0:0:0:
214,169,67531,1,8,0:0:0:0:
218,169,67599,1,8,0:0:0:0:
218,169,67667,1,0,0:0:0:0:
219,169,67803,1,0,0:0:0:0:
219,169,67940,1,8,0:0:0:0:
214,166,68076,1,0,0:0:0:0:
214,166,68212,1,8,0:0:0:0:
214,169,68485,1,8,0:0:0:0:
204,170,68622,1,0,0:0:0:0:
204,170,68690,1,0,0:0:0:0:
204,170,68758,1,8,0:0:0:0:
204,170,69031,1,8,0:0:0:0:
204,169,69167,1,0,0:0:0:0:
204,169,69235,1,8,0:0:0:0:
203,168,69303,1,8,0:0:0:0:
243,116,69576,1,8,0:0:0:0:
243,116,69712,1,0,0:0:0:0:
178,95,69849,1,0,0:0:0:0:
179,104,69917,1,0,0:0:0:0:
178,95,69985,1,0,0:0:0:0:
180,108,70122,1,8,0:0:0:0:
81,155,70258,1,8,0:0:0:0:
81,155,70394,1,0,0:0:0:0:
81,155,70462,1,0,0:0:0:0:
81,155,70531,1,8,0:0:0:0:
180,108,70667,1,8,0:0:0:0:
250,111,70803,1,8,0:0:0:0:
239,200,70940,1,4,0:0:0:0:
239,200,71349,1,0,0:0:0:0:
239,200,71758,1,8,0:0:0:0:
239,200,72031,1,0,0:0:0:0:
210,171,72303,1,8,0:0:0:0:
210,171,72440,1,0,0:0:0:0:
210,171,72576,1,8,0:0:0:0:
195,172,72849,1,8,0:0:0:0:
195,172,72985,1,0,0:0:0:0:
196,172,73122,1,0,0:0:0:0:
194,60,73394,1,0,0:0:0:0:
196,172,73531,1,0,0:0:0:0:
194,60,73667,1,8,0:0:0:0:
195,172,73940,1,8,0:0:0:0:
196,172,74212,1,0,0:0:0:0:
270,96,74485,1,8,0:0:0:0:
273,152,74758,1,0,0:0:0:0:
260,156,75031,1,8,0:0:0:0:
260,157,75303,1,4,0:0:0:0:
338,146,75712,1,0,0:0:0:0:
338,146,76122,1,8,0:0:0:0:
338,146,76258,1,0,0:0:0:0:
338,146,76394,1,0,0:0:0:0:
217,168,76667,1,0,0:0:0:0:
217,168,76803,1,0,0:0:0:0:
217,168,76940,1,8,0:0:0:0:
225,175,77212,1,0,0:0:0:0:
225,175,77485,1,0,0:0:0:0:
198,94,77758,1,8,0:0:0:0:
226,175,77894,1,0,0:0:0:0:
198,94,78167,1,0,0:0:0:0:
246,138,78303,1,8,0:0:0:0:
227,143,78576,1,0,0:0:0:0:
227,143,78985,1,0,0:0:0:0:
227,143,79394,1,6,0:0:0:0:
93,186,79667,1,0,0:0:0:0:
0,192,79803,1,0,0:0:0:0:
93,186,79940,1,0,0:0:0:0:
93,186,80076,1,0,0:0:0:0:
161,171,80212,1,0,0:0:0:0:
32,160,80349,1,0,0:0:0:0:
211,168,80485,1,0,0:0:0:0:
211,168,80553,1,0,0:0:0:0:
32,160,80622,1,0,0:0:0:0:
158,126,80758,1,0,0:0:0:0:
158,126,80894,1,8,0:0:0:0:
158,126,80962,1,8,0:0:0:0:
158,126,81031,1,0,0:0:0:0:
235,123,81167,1,8,0:0:0:0:
271,101,81303,1,0,0:0:0:0:
270,107,81372,1,0,0:0:0:0:
269,111,81440,1,0,0:0:0:0:
269,111,81508,1,0,0:0:0:0:
268,115,81576,1,8,0:0:0:0:
245,60,81712,1,0,0:0:0:0:
241,102,81849,1,4,0:0:0:0:
120,144,82258,1,0,0:0:0:0:
120,144,82667,1,8,0:0:0:0:
120,144,82940,1,0,0:0:0:0:
164,186,83212,1,0,0:0:0:0:
164,186,83485,1,8,0:0:0:0:
164,186,83758,1,8,0:0:0:0:
164,186,84031,1,0,0:0:0:0:
164,186,84440,1,0,0:0:0:0:
164,186,84849,1,8,0:0:0:0:
164,186,85122,1,8,0:0:0:0:
164,186,85394,1,0,0:0:0:0:
164,186,85667,1,8,0:0:0:0:
164,186,85940,1,8,0:0:0:0:
155,162,86212,1,0,0:0:0:0:
155,162,86622,1,0,0:0:0:0:
155,162,87031,1,8,0:0:0:0:
155,162,87303,1,0,0:0:0:0:
155,162,88122,1,8,0:0:0:0:
155,162,88394,1,0,0:0:0:0:
155,162,88803,1,0,0:0:0:0:
155,162,89212,1,8,0:0:0:0:
198,159,89485,2,0,B|63:187|64:187|534:118,1,490
118,203,90576,1,4,0:0:0:0:
252,197,90985,1,0,0:0:0:0:
252,197,91394,1,8,0:0:0:0:
256,151,91667,1,0,0:0:0:0:
256,151,91940,1,8,0:0:0:0:
256,151,92076,1,0,0:0:0:0:
256,151,92212,1,0,0:0:0:0:
256,151,92485,1,8,0:0:0:0:
250,156,92758,1,0,0:0:0:0:
250,156,93167,1,0,0:0:0:0:
250,156,93576,1,8,0:0:0:0:
250,156,93849,1,0,0:0:0:0:
250,156,94122,1,0,0:0:0:0:
250,156,94258,1,0,0:0:0:0:
250,156,94394,1,8,0:0:0:0:
138,161,94667,1,8,0:0:0:0:
138,161,94940,1,4,0:0:0:0:
138,161,95349,1,0,0:0:0:0:
138,161,95758,1,8,0:0:0:0:
138,161,96031,1,0,0:0:0:0:
247,159,96303,1,8,0:0:0:0:
247,159,96440,1,0,0:0:0:0:
247,159,96576,1,0,0:0:0:0:
247,159,96849,1,8,0:0:0:0:
278,176,97122,1,4,0:0:0:0:
147,114,97394,1,8,0:0:0:0:
147,114,97531,1,0,0:0:0:0:
194,73,97667,1,8,0:0:0:0:
215,100,97940,1,0,0:0:0:0:
215,100,98076,1,8,0:0:0:0:
232,106,98212,1,0,0:0:0:0:
234,108,98281,1,0,0:0:0:0:
234,109,98349,1,8,0:0:0:0:
234,109,98485,1,8,0:0:0:0:
234,109,98622,1,0,0:0:0:0:
252,104,98758,1,0,0:0:0:0:
251,104,98826,1,0,0:0:0:0:
251,105,98894,1,0,0:0:0:0:
252,103,99031,1,6,0:0:0:0:
251,104,99303,1,4,0:0:0:0:
254,108,99576,1,8,0:0:0:0:
254,108,99712,1,0,0:0:0:0:
254,108,99849,1,8,0:0:0:0:
248,112,100122,1,0,0:0:0:0:
250,115,100258,1,8,0:0:0:0:
258,75,100326,1,8,0:0:0:0:
258,75,100394,1,0,0:0:0:0:
258,75,100531,1,0,0:0:0:0:
252,76,100667,1,8,0:0:0:0:
252,76,100803,1,0,0:0:0:0:
312,245,100940,1,8,0:0:0:0:
251,80,101212,1,8,0:0:0:0:
252,79,101349,1,0,0:0:0:0:
265,84,101485,1,8,0:0:0:0:
263,76,101758,1,8,0:0:0:0:
263,76,101894,1,0,0:0:0:0:
85,132,102031,1,8,0:0:0:0:
85,132,102099,1,8,0:0:0:0:
85,132,102167,1,0,0:0:0:0:
263,78,102303,1,8,0:0:0:0:
263,78,102440,1,0,0:0:0:0:
263,76,102576,1,0,0:0:0:0:
160,133,102849,1,8,0:0:0:0:
160,133,102985,1,0,0:0:0:0:
160,133,103122,1,0,0:0:0:0:
160,133,103190,1,0,0:0:0:0:
160,133,103258,1,0,0:0:0:0:
160,133,103394,1,8,0:0:0:0:
171,171,103667,1,0,0:0:0:0:
171,171,103940,1,8,0:0:0:0:
242,158,104076,1,0,0:0:0:0:
242,158,104144,1,0,0:0:0:0:
242,158,104212,1,8,0:0:0:0:
242,158,104349,1,0,0:0:0:0:
196,145,104485,1,8,0:0:0:0:
196,145,104553,1,8,0:0:0:0:
242,158,104622,1,0,0:0:0:0:
242,158,104758,1,0,0:0:0:0:
196,145,104894,1,0,0:0:0:0:
196,145,105031,1,8,0:0:0:0:
156,137,105303,1,0,0:0:0:0:
156,137,105440,1,0,0:0:0:0:
156,137,105576,1,8,0:0:0:0:
72,100,105849,1,8,0:0:0:0:
72,100,105985,1,0,0:0:0:0:
72,100,106122,1,8,0:0:0:0:
205,75,106394,1,0,0:0:0:0:
205,75,106531,1,0,0:0:0:0:
205,75,106667,1,8,0:0:0:0:
238,119,106940,1,0,0:0:0:0:
238,119,107008,1,0,0:0:0:0:
238,119,107076,1,8,0:0:0:0:
238,119,107212,1,8,0:0:0:0:
241,113,107349,1,0,0:0:0:0:
231,104,107485,1,8,0:0:0:0:
231,104,107553,1,8,0:0:0:0:
230,106,107622,1,0,0:0:0:0:
122,142,107690,1,0,0:0:0:0:
230,106,107758,1,8,0:0:0:0:
230,106,107894,1,0,0:0:0:0:
230,106,108031,1,4,0:0:0:0:
136,152,108303,1,8,0:0:0:0:
136,152,108440,1,0,0:0:0:0:
136,152,108508,1,0,0:0:0:0:
136,152,108576,1,8,0:0:0:0:
212,191,108712,1,0,0:0:0:0:
212,191,108849,1,8,0:0:0:0:
241,165,108985,1,8,0:0:0:0:
241,165,109053,1,8,0:0:0:0:
241,165,109122,1,0,0:0:0:0:
238,151,109258,1,8,0:0:0:0:
238,151,109394,1,0,0:0:0:0:
238,150,109531,1,0,0:0:0:0:
238,151,109599,1,0,0:0:0:0:
238,151,109667,1,8,0:0:0:0:
185,108,109940,1,8,0:0:0:0:
185,108,110076,1,8,0:0:0:0:
201,170,110212,1,0,0:0:0:0:
238,121,110485,1,8,0:0:0:0:
115,182,110622,1,0,0:0:0:0:
115,182,110690,1,0,0:0:0:0:
115,182,110758,1,8,0:0:0:0:
252,146,110894,1,0,0:0:0:0:
252,146,111031,1,8,0:0:0:0:
252,146,111099,1,8,0:0:0:0:
252,146,111167,1,0,0:0:0:0:
252,146,111303,1,0,0:0:0:0:
252,146,111440,1,0,0:0:0:0:
252,146,111576,1,8,0:0:0:0:
247,148,111644,1,8,0:0:0:0:
252,146,111712,1,0,0:0:0:0:
252,146,111849,1,8,0:0:0:0:
270,241,112122,1,0,0:0:0:0:
270,241,112258,1,8,0:0:0:0:
83,263,112394,1,0,0:0:0:0:
219,265,112667,1,8,0:0:0:0:
219,265,112803,1,0,0:0:0:0:
216,255,112940,1,0,0:0:0:0:
216,255,113008,1,0,0:0:0:0:
216,255,113076,1,8,0:0:0:0:
216,255,113212,1,8,0:0:0:0:
157,190,113349,1,8,0:0:0:0:
157,190,113417,1,8,0:0:0:0:
157,190,113485,1,8,0:0:0:0:
208,161,113622,1,0,0:0:0:0:
208,161,113758,1,8,0:0:0:0:
208,161,113894,1,0,0:0:0:0:
208,161,113962,1,0,0:0:0:0:
208,161,114031,1,8,0:0:0:0:
267,258,114303,1,8,0:0:0:0:
267,258,114440,1,0,0:0:0:0:
254,239,114576,1,8,0:0:0:0:
254,239,114644,1,8,0:0:0:0:
267,258,114712,1,0,0:0:0:0:
254,240,114849,1,8,0:0:0:0:
254,240,114985,1,0,0:0:0:0:
240,287,115122,1,0,0:0:0:0:
240,287,115190,1,0,0:0:0:0:
240,287,115258,1,8,0:0:0:0:
228,202,115394,1,0,0:0:0:0:
228,202,115531,1,8,0:0:0:0:
281,143,115667,1,0,0:0:0:0:
281,143,115803,1,0,0:0:0:0:
281,143,115940,1,6,0:0:0:0:
184,152,116212,1,0,0:0:0:0:
219,69,116349,1,8,0:0:0:0:
219,69,116417,1,8,0:0:0:0:
219,69,116485,1,0,0:0:0:0:
214,140,116622,1,8,0:0:0:0:
259,108,116758,1,0,0:0:0:0:
260,122,117031,1,8,0:0:0:0:
260,122,117167,1,0,0:0:0:0:
240,121,117303,1,0,0:0:0:0:
240,121,117372,1,0,0:0:0:0:
238,122,117440,1,8,0:0:0:0:
237,122,117576,1,8,0:0:0:0:
229,118,117712,1,0,0:0:0:0:
229,117,117781,1,0,0:0:0:0:
229,118,117849,1,0,0:0:0:0:
230,118,117985,1,8,0:0:0:0:
125,111,118122,1,0,0:0:0:0:
125,111,118258,1,0,0:0:0:0:
125,111,118326,1,0,0:0:0:0:
125,111,118394,1,8,0:0:0:0:
227,162,118667,1,0,0:0:0:0:
227,162,118803,1,8,0:0:0:0:
221,96,118940,1,0,0:0:0:0:
194,92,119212,1,8,0:0:0:0:
194,92,119349,1,0,0:0:0:0:
194,92,119485,1,8,0:0:0:0:
194,92,119553,1,8,0:0:0:0:
179,144,119622,1,0,0:0:0:0:
179,144,119758,1,8,0:0:0:0:
179,144,119894,1,0,0:0:0:0:
337,63,120031,1,0,0:0:0:0:
337,63,120099,1,0,0:0:0:0:
337,63,120167,1,8,0:0:0:0:
256,94,120303,1,8,0:0:0:0:
256,94,120440,1,8,0:0:0:0:
256,94,120508,1,8,0:0:0:0:
256,94,120576,1,0,0:0:0:0:
291,36,120712,1,8,0:0:0:0:
291,36,120849,1,0,0:0:0:0:
291,36,120985,1,8,0:0:0:0:
103,148,121122,1,0,0:0:0:0:
205,103,121394,1,8,0:0:0:0:
205,103,121531,1,0,0:0:0:0:
205,103,121599,1,0,0:0:0:0:
205,103,121667,1,0,0:0:0:0:
196,163,121803,1,8,0:0:0:0:
196,163,121940,1,0,0:0:0:0:
196,163,122076,1,8,0:0:0:0:
184,190,122212,1,0,0:0:0:0:
184,190,122349,1,0,0:0:0:0:
184,190,122417,1,0,0:0:0:0:
184,190,122485,1,8,0:0:0:0:
184,190,122622,1,8,0:0:0:0:
184,190,122758,1,0,0:0:0:0:
184,190,123031,1,8,0:0:0:0:
184,190,123167,1,0,0:0:0:0:
167,148,123235,1,0,0:0:0:0:
236,177,123303,1,0,0:0:0:0:
236,177,123576,1,8,0:0:0:0:
236,177,123712,1,8,0:0:0:0:
236,177,123781,1,8,0:0:0:0:
236,177,123849,1,0,0:0:0:0:
236,177,124122,1,0,0:0:0:0:
236,177,124258,1,8,0:0:0:0:
236,177,124394,1,0,0:0:0:0:
236,177,124531,1,0,0:0:0:0:
236,177,124599,1,0,0:0:0:0:
236,177,124667,1,8,0:0:0:0:
236,177,124803,1,8,0:0:0:0:
236,177,124940,1,0,0:0:0:0:
236,177,125212,1,8,0:0:0:0:
236,177,125349,1,8,0:0:0:0:
181,222,125485,1,4,0:0:0:0:
181,222,125622,1,0,0:0:0:0:
181,222,125690,1,0,0:0:0:0:
181,222,125758,1,8,0:0:0:0:
264,112,125894,1,0,0:0:0:0:
257,83,126031,1,8,0:0:0:0:
185,53,126167,1,8,0:0:0:0:
233,140,126303,1,0,0:0:0:0:
233,140,126372,1,0,0:0:0:0:
233,140,126440,1,8,0:0:0:0:
277,113,126712,1,8,0:0:0:0:
277,114,126849,1,0,0:0:0:0:
277,113,126985,1,8,0:0:0:0:
277,113,127122,1,8,0:0:0:0:
277,113,127190,1,8,0:0:0:0:
277,113,127258,1,0,0:0:0:0:
277,113,127394,1,0,0:0:0:0:
277,113,127531,1,8,0:0:0:0:
277,113,127667,1,0,0:0:0:0:
277,114,127803,1,0,0:0:0:0:
198,69,127940,1,8,0:0:0:0:
198,69,128008,1,8,0:0:0:0:
144,91,128076,1,0,0:0:0:0:
198,69,128212,1,8,0:0:0:0:
216,103,128485,1,8,0:0:0:0:
216,103,128622,1,0,0:0:0:0:
227,108,128758,1,0,0:0:0:0:
227,108,128826,1,0,0:0:0:0:
227,108,128894,1,8,0:0:0:0:
312,138,129031,1,8,0:0:0:0:
312,138,129099,1,8,0:0:0:0:
312,138,129167,1,0,0:0:0:0:
312,138,129303,1,8,0:0:0:0:
283,149,129576,1,0,0:0:0:0:
283,149,129712,1,8,0:0:0:0:
252,108,129849,1,0,0:0:0:0:
252,108,130122,1,8,0:0:0:0:
252,108,130258,1,8,0:0:0:0:
258,120,130531,1,8,0:0:0:0:
258,120,130667,1,0,0:0:0:0:
258,120,130803,1,8,0:0:0:0:
258,120,130940,1,0,0:0:0:0:
258,120,131076,1,0,0:0:0:0:
258,120,131212,1,8,0:0:0:0:
258,120,131349,1,8,0:0:0:0:
258,120,131622,1,8,0:0:0:0:
258,120,131758,1,0,0:0:0:0:
275,67,131894,1,8,0:0:0:0:
276,137,132031,1,0,0:0:0:0:
275,136,132099,1,0,0:0:0:0:
223,72,132167,1,8,0:0:0:0:
224,88,132303,1,8,0:0:0:0:
224,88,132440,1,0,0:0:0:0:
224,88,132508,1,0,0:0:0:0:
224,88,132576,1,0,0:0:0:0:
222,86,132712,1,8,0:0:0:0:
216,62,132849,1,0,0:0:0:0:
216,62,132985,1,8,0:0:0:0:
212,32,133053,1,8,0:0:0:0:
217,62,133122,1,0,0:0:0:0:
214,36,133258,1,8,0:0:0:0:
214,36,133394,1,8,0:0:0:0:
142,85,133531,1,0,0:0:0:0:
180,72,133803,1,8,0:0:0:0:
180,72,133940,1,0,0:0:0:0:
180,72,134076,1,8,0:0:0:0:
180,72,134212,1,0,0:0:0:0:
223,65,134281,1,0,0:0:0:0:
180,72,134349,1,0,0:0:0:0:
223,65,134485,1,8,0:0:0:0:
223,65,134622,1,8,0:0:0:0:
226,76,134758,1,0,0:0:0:0:
226,76,134826,1,0,0:0:0:0:
225,81,134894,1,8,0:0:0:0:
225,83,135031,1,8,0:0:0:0:
225,83,135167,1,0,0:0:0:0:
225,84,135303,1,0,0:0:0:0:
227,86,135440,1,8,0:0:0:0:
227,86,135508,1,8,0:0:0:0:
227,86,135576,1,0,0:0:0:0:
227,85,135712,1,8,0:0:0:0:
253,99,135849,1,0,0:0:0:0:
253,99,136122,1,8,0:0:0:0:
253,99,136258,1,8,0:0:0:0:
208,154,136394,1,0,0:0:0:0:
208,154,136462,1,0,0:0:0:0:
208,154,136531,1,0,0:0:0:0:
211,149,136667,1,8,0:0:0:0:
211,149,136803,1,0,0:0:0:0:
211,149,136940,1,8,0:0:0:0:
211,149,137076,1,8,0:0:0:0:
211,149,137144,1,8,0:0:0:0:
211,149,137212,1,0,0:0:0:0:
211,148,137349,1,8,0:0:0:0:
211,148,137485,1,0,0:0:0:0:
211,149,137622,1,0,0:0:0:0:
211,149,137690,1,0,0:0:0:0:
211,149,137758,1,8,0:0:0:0:
211,149,137894,1,8,0:0:0:0:
209,158,138031,1,0,0:0:0:0:
210,158,138167,1,8,0:0:0:0:
210,158,138235,1,8,0:0:0:0:
210,158,138303,1,8,0:0:0:0:
162,111,138576,1,4,0:0:0:0:
276,145,138849,1,8,0:0:0:0:
276,145,138985,1,0,0:0:0:0:
280,137,139258,1,0,0:0:0:0:
281,137,139394,1,8,0:0:0:0:
281,137,139531,1,0,0:0:0:0:
280,136,139667,1,8,0:0:0:0:
280,136,139735,1,8,0:0:0:0:
280,136,139803,1,8,0:0:0:0:
280,137,139940,1,8,0:0:0:0:
216,147,140076,1,0,0:0:0:0:
216,147,140144,1,0,0:0:0:0:
216,147,140212,1,8,0:0:0:0:
216,147,140349,1,8,0:0:0:0:
216,147,140485,1,0,0:0:0:0:
216,147,140622,1,8,0:0:0:0:
249,126,140758,1,0,0:0:0:0:
197,83,140894,1,0,0:0:0:0:
249,126,141031,1,8,0:0:0:0:
253,133,141303,1,0,0:0:0:0:
253,133,141372,1,0,0:0:0:0:
253,133,141440,1,0,0:0:0:0:
252,132,141576,1,8,0:0:0:0:
252,132,141712,1,8,0:0:0:0:
251,134,141849,1,0,0:0:0:0:
251,134,141985,1,8,0:0:0:0:
250,133,142122,1,0,0:0:0:0:
249,132,142190,1,0,0:0:0:0:
253,133,142258,1,0,0:0:0:0:
253,133,142326,1,0,0:0:0:0:
253,133,142394,1,8,0:0:0:0:
252,132,142531,1,0,0:0:0:0:
252,132,142667,1,8,0:0:0:0:
344,119,142940,1,4,0:0:0:0:
392,220,143212,1,8,0:0:0:0:
392,220,143349,1,8,0:0:0:0:
320,122,143485,1,0,0:0:0:0:
320,122,143758,1,8,0:0:0:0:
320,122,143894,1,0,0:0:0:0:
320,122,144031,1,0,0:0:0:0:
320,122,144167,1,0,0:0:0:0:
320,122,144303,1,8,0:0:0:0:
320,122,144440,1,8,0:0:0:0:
226,63,144712,1,8,0:0:0:0:
226,63,144849,1,0,0:0:0:0:
226,63,144985,1,8,0:0:0:0:
112,196,145122,1,0,0:0:0:0:
275,220,145394,1,0,0:0:0:0:
275,220,145531,1,0,0:0:0:0:
275,220,145667,1,8,0:0:0:0:
264,186,145940,1,8,0:0:0:0:
264,186,146212,1,0,0:0:0:0:
278,216,146894,1,8,0:0:0:0:
278,216,147031,1,0,0:0:0:0:
278,216,147167,1,0,0:0:0:0:
263,195,147303,1,8,0:0:0:0:
263,195,147440,1,8,0:0:0:0:
263,195,147576,1,0,0:0:0:0:
263,195,147712,1,8,0:0:0:0:
263,195,147849,1,0,0:0:0:0:
263,195,148122,1,8,0:0:0:0:
263,195,148258,1,0,0:0:0:0:
263,195,148394,1,8,0:0:0:0:
263,195,148531,1,0,0:0:0:0:
263,195,148667,1,8,0:0:0:0:
263,195,148803,1,0,0:0:0:0:
263,195,149076,1,0,0:0:0:0:
263,195,149212,1,8,0:0:0:0:
263,195,149349,1,8,0:0:0:0:
200,228,149485,1,0,0:0:0:0:
200,228,149758,1,0,0:0:0:0:
269,174,149894,1,0,0:0:0:0:
200,228,150031,1,8,0:0:0:0:
269,174,150303,1,0,0:0:0:0:
269,174,150440,1,8,0:0:0:0:
269,174,150576,1,0,0:0:0:0:
269,174,150849,1,0,0:0:0:0:
269,174,151122,1,8,0:0:0:0:
269,174,151667,1,4,0:0:0:0:
269,174,151803,1,8,0:0:0:0:
307,213,151940,1,8,0:0:0:0:
307,213,152076,1,0,0:0:0:0:
307,213,152212,1,8,0:0:0:0:
172,234,152485,1,0,0:0:0:0:
172,234,152622,1,8,0:0:0:0:
139,99,152758,1,0,0:0:0:0:
172,234,152894,1,8,0:0:0:0:
172,234,153031,1,0,0:0:0:0:
172,234,153167,1,8,0:0:0:0:
197,199,153440,1,0,0:0:0:0:
197,199,153576,1,8,0:0:0:0:
197,199,153712,1,8,0:0:0:0:
197,199,153849,1,0,0:0:0:0:
197,199,154122,1,0,0:0:0:0:
197,199,154258,1,0,0:0:0:0:
197,199,154394,1,8,0:0:0:0:
197,199,154667,1,8,0:0:0:0:
197,199,154803,1,0,0:0:0:0:
197,199,154940,1,8,0:0:0:0:
197,199,155212,1,0,0:0:0:0:
197,199,155349,1,8,0:0:0:0:
197,199,155485,1,0,0:0:0:0:
197,199,155622,1,8,0:0:0:0:
197,199,155758,1,8,0:0:0:0:
197,199,155894,1,0,0:0:0:0:
226,90,156031,1,0,0:0:0:0:
240,113,156849,1,0,0:0:0:0:
240,113,156985,1,8,0:0:0:0:
240,113,157122,1,0,0:0:0:0:
240,106,157394,1,0,0:0:0:0:
240,106,157667,1,0,0:0:0:0:
240,106,157803,1,8,0:0:0:0:
240,106,157940,1,0,0:0:0:0:
240,106,158076,1,8,0:0:0:0:
240,106,158212,1,0,0:0:0:0:
328,97,158485,1,0,0:0:0:0:
328,97,158758,1,8,0:0:0:0:
340,64,159031,1,0,0:0:0:0:
340,64,159167,1,8,0:0:0:0:
340,64,159303,1,0,0:0:0:0:
340,64,159440,1,8,0:0:0:0:
227,49,159576,1,0,0:0:0:0:
211,68,159849,1,8,0:0:0:0:
211,68,160122,1,8,0:0:0:0:
211,68,160258,1,8,0:0:0:0:
177,190,162576,1,8,0:0:0:0:
177,190,163122,1,8,0:0:0:0:
177,190,163667,1,8,0:0:0:0:
177,190,163940,1,8,0:0:0:0:
177,190,164212,1,8,0:0:0:0:
231,86,164758,1,8,0:0:0:0:
231,86,165303,1,8,0:0:0:0:
170,171,165576,1,8,0:0:0:0:
231,86,165849,1,8,0:0:0:0:
260,113,166122,1,8,0:0:0:0:
231,86,166394,1,8,0:0:0:0:
231,86,166940,1,8,0:0:0:0:
231,86,167485,1,8,0:0:0:0:
231,86,168031,1,8,0:0:0:0:
231,86,168303,1,8,0:0:0:0:
231,86,168576,1,8,0:0:0:0:
212,124,169122,1,8,0:0:0:0:
212,124,169394,1,8,0:0:0:0:
212,124,169667,1,8,0:0:0:0:
212,124,169940,1,8,0:0:0:0:
212,124,170212,1,4,0:0:0:0:
235,243,171031,1,8,0:0:0:0:
235,243,171303,1,4,0:0:0:0:
368,187,171712,1,0,0:0:0:0:
368,187,171849,1,8,0:0:0:0:
81,129,172122,1,8,0:0:0:0:
435,189,172258,1,0,0:0:0:0:
435,189,172394,1,0,0:0:0:0:
435,189,172667,1,0,0:0:0:0:
436,187,172940,1,8,0:0:0:0:
173,156,173212,1,8,0:0:0:0:
173,156,173349,1,0,0:0:0:0:
173,156,173485,1,0,0:0:0:0:
169,159,173758,1,0,0:0:0:0:
169,159,173894,1,8,0:0:0:0:
169,159,174031,1,0,0:0:0:0:
169,160,174303,1,8,0:0:0:0:
169,160,174440,1,0,0:0:0:0:
169,159,174576,1,0,0:0:0:0:
169,159,174712,1,0,0:0:0:0:
169,159,174849,1,8,0:0:0:0:
163,155,174985,1,0,0:0:0:0:
163,155,175122,1,8,0:0:0:0:
162,154,175394,1,8,0:0:0:0:
162,154,175531,1,0,0:0:0:0:
162,154,175667,1,4,0:0:0:0:
201,132,176076,1,0,0:0:0:0:
235,52,176212,1,8,0:0:0:0:
227,96,176485,1,0,0:0:0:0:
227,96,176622,1,8,0:0:0:0:
227,96,176758,1,8,0:0:0:0:
227,96,176894,1,0,0:0:0:0:
227,96,177031,1,0,0:0:0:0:
227,96,177167,1,8,0:0:0:0:
205,112,177303,1,0,0:0:0:0:
246,100,177440,1,0,0:0:0:0:
246,100,177576,1,8,0:0:0:0:
256,192,177849,8,0,178940,0:0:0:0:
124,122,179212,5,8,0:0:0:0:
124,122,179485,1,8,0:0:0:0:
124,122,179758,1,8,0:0:0:0:
158,175,180031,1,4,0:0:0:0:
240,186,180303,1,8,0:0:0:0:
240,186,180440,1,0,0:0:0:0:
240,186,180508,1,0,0:0:0:0:
240,186,180576,1,8,0:0:0:0:
256,184,180712,1,0,0:0:0:0:
256,185,180849,1,8,0:0:0:0:
159,149,180985,1,8,0:0:0:0:
159,149,181053,1,8,0:0:0:0:
166,144,181122,1,0,0:0:0:0:
176,153,181258,1,0,0:0:0:0:
176,153,181394,1,8,0:0:0:0:
177,154,181531,1,0,0:0:0:0:
177,154,181599,1,0,0:0:0:0:
177,154,181667,1,8,0:0:0:0:
177,154,181940,1,8,0:0:0:0:
177,154,182076,1,0,0:0:0:0:
176,153,182212,1,0,0:0:0:0:
181,155,182485,1,8,0:0:0:0:
195,166,182622,1,0,0:0:0:0:
194,166,182690,1,0,0:0:0:0:
195,166,182758,1,8,0:0:0:0:
198,165,182894,1,8,0:0:0:0:
198,165,183031,1,8,0:0:0:0:
205,163,183167,1,0,0:0:0:0:
205,164,183303,1,8,0:0:0:0:
208,164,183372,1,8,0:0:0:0:
208,164,183440,1,0,0:0:0:0:
209,163,183576,1,8,0:0:0:0:
209,163,183712,1,0,0:0:0:0:
137,164,183781,1,0,0:0:0:0:
209,163,183849,1,8,0:0:0:0:
185,187,184122,1,8,0:0:0:0:
185,187,184258,1,0,0:0:0:0:
189,186,184394,1,0,0:0:0:0:
192,224,184667,1,0,0:0:0:0:
217,73,184803,1,8,0:0:0:0:
217,73,184940,1,0,0:0:0:0:
217,73,185008,1,0,0:0:0:0:
217,73,185076,1,0,0:0:0:0:
217,73,185212,1,8,0:0:0:0:
217,73,185349,1,0,0:0:0:0:
217,73,185417,1,0,0:0:0:0:
217,73,185485,1,8,0:0:0:0:
221,79,185622,1,0,0:0:0:0:
218,88,185690,1,8,0:0:0:0:
217,88,185758,1,8,0:0:0:0:
324,215,185894,1,0,0:0:0:0:
324,215,186031,1,8,0:0:0:0:
96,195,186303,1,8,0:0:0:0:
96,195,186440,1,0,0:0:0:0:
96,195,186576,1,0,0:0:0:0:
96,195,186644,1,0,0:0:0:0:
202,152,186712,1,8,0:0:0:0:
202,152,186849,1,8,0:0:0:0:
202,152,186985,1,0,0:0:0:0:
202,152,187122,1,8,0:0:0:0:
202,152,187190,1,8,0:0:0:0:
202,152,187258,1,0,0:0:0:0:
202,152,187394,1,0,0:0:0:0:
202,152,187531,1,8,0:0:0:0:
202,152,187667,1,0,0:0:0:0:
202,152,187803,1,0,0:0:0:0:
202,152,187940,1,6,0:0:0:0:
202,152,188212,1,8,0:0:0:0:
202,152,188349,1,0,0:0:0:0:
202,152,188485,1,0,0:0:0:0:
207,113,188553,1,0,0:0:0:0:
207,113,188622,1,8,0:0:0:0:
207,113,188758,1,0,0:0:0:0:
198,91,189031,1,8,0:0:0:0:
198,91,189167,1,0,0:0:0:0:
198,91,189303,1,8,0:0:0:0:
244,125,189576,1,8,0:0:0:0:
244,125,189712,1,8,0:0:0:0:
244,125,189781,1,8,0:0:0:0:
244,125,189849,1,0,0:0:0:0:
244,125,189985,1,8,0:0:0:0:
244,125,190122,1,0,0:0:0:0:
205,77,190190,1,0,0:0:0:0:
203,80,190258,1,0,0:0:0:0:
205,77,190394,1,8,0:0:0:0:
329,192,190531,1,0,0:0:0:0:
221,81,190667,1,0,0:0:0:0:
221,79,190735,1,0,0:0:0:0:
221,81,190803,1,8,0:0:0:0:
221,81,190940,1,0,0:0:0:0:
329,192,191212,1,8,0:0:0:0:
329,192,191281,1,8,0:0:0:0:
329,192,191349,1,0,0:0:0:0:
329,192,191485,1,8,0:0:0:0:
329,192,191622,1,0,0:0:0:0:
256,132,191758,1,8,0:0:0:0:
256,132,191826,1,8,0:0:0:0:
256,132,191894,1,8,0:0:0:0:
184,77,192031,1,0,0:0:0:0:
184,77,192167,1,8,0:0:0:0:
184,77,192303,1,8,0:0:0:0:
184,77,192372,1,8,0:0:0:0:
184,77,192440,1,0,0:0:0:0:
184,77,192576,1,0,0:0:0:0:
184,77,192712,1,0,0:0:0:0:
184,77,192781,1,0,0:0:0:0:
184,77,192849,1,8,0:0:0:0:
184,77,192985,1,8,0:0:0:0:
184,77,193122,1,0,0:0:0:0:
184,77,193394,1,8,0:0:0:0:
184,77,193531,1,0,0:0:0:0:
184,77,193667,1,0,0:0:0:0:
184,77,193735,1,0,0:0:0:0:
184,77,193803,1,0,0:0:0:0:
184,77,193940,1,8,0:0:0:0:
184,77,194076,1,0,0:0:0:0:
184,77,194144,1,0,0:0:0:0:
184,77,194212,1,8,0:0:0:0:
184,77,194349,1,8,0:0:0:0:
184,77,194417,1,8,0:0:0:0:
184,77,194485,1,8,0:0:0:0:
184,77,194622,1,0,0:0:0:0:
184,77,194758,1,8,0:0:0:0:
307,207,195031,1,8,0:0:0:0:
278,144,195167,1,0,0:0:0:0:
278,144,195303,1,0,0:0:0:0:
278,144,195372,1,0,0:0:0:0:
278,144,195440,1,8,0:0:0:0:
200,160,195576,1,8,0:0:0:0:
200,160,195712,1,0,0:0:0:0:
200,160,195849,1,0,0:0:0:0:
200,160,195917,1,0,0:0:0:0:
200,160,195985,1,0,0:0:0:0:
200,160,196122,1,8,0:0:0:0:
200,160,196258,1,0,0:0:0:0:
200,160,196394,1,8,0:0:0:0:
200,160,196667,1,8,0:0:0:0:
247,146,196803,1,8,0:0:0:0:
247,146,196872,1,8,0:0:0:0:
247,146,196940,1,0,0:0:0:0:
247,146,197076,1,0,0:0:0:0:
247,146,197212,1,8,0:0:0:0:
247,146,197349,1,0,0:0:0:0:
247,146,197417,1,0,0:0:0:0:
247,146,197485,1,8,0:0:0:0:
247,146,197622,1,0,0:0:0:0:
247,146,197758,1,8,0:0:0:0:
251,143,197894,1,0,0:0:0:0:
251,144,197962,1,0,0:0:0:0:
251,144,198031,1,8,0:0:0:0:
247,146,198167,1,0,0:0:0:0:
247,146,198303,1,8,0:0:0:0:
247,146,198440,1,8,0:0:0:0:
247,146,198576,1,0,0:0:0:0:
322,149,199258,1,0,0:0:0:0:
322,149,199394,1,6,0:0:0:0:
34,140,199667,1,4,0:0:0:0:
132,155,199803,1,8,0:0:0:0:
142,163,199940,1,8,0:0:0:0:
142,164,200076,1,0,0:0:0:0:
177,173,200349,1,8,0:0:0:0:
177,173,200485,1,0,0:0:0:0:
252,186,200553,1,0,0:0:0:0:
177,173,200621,1,8,0:0:0:0:
162,201,200758,1,0,0:0:0:0:
162,201,200894,1,8,0:0:0:0:
162,201,201030,1,8,0:0:0:0:
177,207,201167,1,0,0:0:0:0:
203,204,201303,1,8,0:0:0:0:
203,204,201371,1,8,0:0:0:0:
203,204,201440,1,0,0:0:0:0:
203,204,201576,1,8,0:0:0:0:
203,204,201712,1,0,0:0:0:0:
203,204,201849,1,0,0:0:0:0:
197,169,202121,1,8,0:0:0:0:
197,169,202258,1,0,0:0:0:0:
197,169,202326,1,0,0:0:0:0:
133,156,202394,1,0,0:0:0:0:
197,169,202530,1,0,0:0:0:0:
197,169,202667,1,8,0:0:0:0:
197,169,202803,1,0,0:0:0:0:
133,156,203076,1,0,0:0:0:0:
226,107,203212,1,0,0:0:0:0:
226,107,203349,1,8,0:0:0:0:
133,156,203485,1,0,0:0:0:0:
133,156,203553,1,0,0:0:0:0:
133,156,203621,1,8,0:0:0:0:
226,107,203758,1,0,0:0:0:0:
226,107,203894,1,8,0:0:0:0:
226,107,204030,1,0,0:0:0:0:
196,73,204303,1,8,0:0:0:0:
133,156,204440,1,8,0:0:0:0:
133,156,204508,1,8,0:0:0:0:
133,156,204576,1,0,0:0:0:0:
232,95,204712,1,0,0:0:0:0:
232,95,204849,1,8,0:0:0:0:
232,95,205121,1,0,0:0:0:0:
232,95,205258,1,8,0:0:0:0:
232,95,205326,1,8,0:0:0:0:
232,95,205394,1,0,0:0:0:0:
253,104,205530,1,0,0:0:0:0:
253,104,205667,1,8,0:0:0:0:
252,104,205803,1,0,0:0:0:0:
252,104,205871,1,0,0:0:0:0:
252,104,205940,1,8,0:0:0:0:
252,104,206076,1,8,0:0:0:0:
170,108,206212,1,0,0:0:0:0:
170,108,206280,1,0,0:0:0:0:
170,108,206349,1,0,0:0:0:0:
179,111,206485,1,8,0:0:0:0:
179,111,206621,1,8,0:0:0:0:
209,110,206758,1,8,0:0:0:0:
209,110,206826,1,8,0:0:0:0:
209,110,206894,1,0,0:0:0:0:
209,110,207030,1,0,0:0:0:0:
209,110,207167,1,8,0:0:0:0:
209,110,207303,1,0,0:0:0:0:
20,111,207576,1,0,0:0:0:0:
20,111,207712,1,8,0:0:0:0:
112,110,207849,1,0,0:0:0:0:
112,110,207917,1,0,0:0:0:0:
112,110,207985,1,8,0:0:0:0:
112,110,208121,1,8,0:0:0:0:
112,110,208258,1,0,0:0:0:0:
34,140,208394,1,4,0:0:0:0:
132,155,208530,1,8,0:0:0:0:
142,163,208667,1,8,0:0:0:0:
142,164,208803,1,0,0:0:0:0:
177,173,209076,1,8,0:0:0:0:
177,173,209212,1,0,0:0:0:0:
252,186,209280,1,0,0:0:0:0:
177,173,209348,1,8,0:0:0:0:
162,201,209485,1,0,0:0:0:0:
162,201,209621,1,8,0:0:0:0:
162,201,209757,1,8,0:0:0:0:
177,207,209894,1,0,0:0:0:0:
203,204,210030,1,8,0:0:0:0:
203,204,210098,1,8,0:0:0:0:
203,204,210167,1,0,0:0:0:0:
203,204,210303,1,8,0:0:0:0:
203,204,210439,1,0,0:0:0:0:
203,204,210576,1,0,0:0:0:0:
197,169,210848,1,8,0:0:0:0:
150,93,210985,1,8,0:0:0:0:
150,93,211053,1,8,0:0:0:0:
133,156,211121,1,0,0:0:0:0:
197,169,211257,1,0,0:0:0:0:
197,169,211394,1,8,0:0:0:0:
197,169,211530,1,0,0:0:0:0:
150,93,211803,1,8,0:0:0:0:
226,107,211939,1,0,0:0:0:0:
226,107,212076,1,8,0:0:0:0:
152,84,212212,1,8,0:0:0:0:
152,84,212280,1,8,0:0:0:0:
133,156,212348,1,8,0:0:0:0:
226,107,212485,1,0,0:0:0:0:
226,107,212621,1,8,0:0:0:0:
226,107,212757,1,0,0:0:0:0:
196,73,213030,1,8,0:0:0:0:
133,156,213167,1,8,0:0:0:0:
133,156,213235,1,8,0:0:0:0:
133,156,213303,1,0,0:0:0:0:
153,88,213440,1,8,0:0:0:0:
232,95,213576,1,8,0:0:0:0:
232,95,213848,1,0,0:0:0:0:
217,209,213985,1,8,0:0:0:0:
217,209,214053,1,8,0:0:0:0:
217,209,214121,1,8,0:0:0:0:
217,209,214258,1,8,0:0:0:0:
223,207,214394,1,8,0:0:0:0:
253,94,214462,1,8,0:0:0:0:
187,102,214530,1,0,0:0:0:0:
252,104,214667,1,8,0:0:0:0:
252,104,214803,1,8,0:0:0:0:
170,108,214939,1,0,0:0:0:0:
170,108,215007,1,0,0:0:0:0:
170,108,215076,1,0,0:0:0:0:
179,111,215212,1,8,0:0:0:0:
179,111,215348,1,8,0:0:0:0:
209,110,215485,1,8,0:0:0:0:
209,110,215553,1,8,0:0:0:0:
209,110,215621,1,0,0:0:0:0:
209,110,215757,1,0,0:0:0:0:
209,110,215894,1,8,0:0:0:0:
209,110,216030,1,4,0:0:0:0:
166,137,216303,1,8,0:0:0:0:
166,137,216440,1,8,0:0:0:0:
266,147,216576,1,0,0:0:0:0:
266,147,216644,1,0,0:0:0:0:
266,147,216712,1,8,0:0:0:0:
266,147,216849,1,8,0:0:0:0:
266,147,216985,1,8,0:0:0:0:
283,116,217122,1,4,0:0:0:0:
217,284,217531,1,0,0:0:0:0:
217,284,217940,1,8,0:0:0:0:
217,284,218212,1,0,0:0:0:0:
217,284,218485,1,0,0:0:0:0:
217,284,218622,1,0,0:0:0:0:
217,284,218758,1,0,0:0:0:0:
217,284,218894,1,0,0:0:0:0:
217,284,219031,1,0,0:0:0:0:
217,284,219167,1,0,0:0:0:0:
