osu file format v14

[General]
AudioFilename: audio.mp3
AudioLeadIn: 0
PreviewTime: 53084
Countdown: 0
SampleSet: Normal
StackLeniency: 0.7
Mode: 1
LetterboxInBreaks: 0
WidescreenStoryboard: 1

[Editor]
DistanceSpacing: 1.1
BeatDivisor: 4
GridSize: 32
TimelineZoom: 1

[Metadata]
Title:Toumei Elegy
TitleUnicode:透明エレジー
Artist:nameless
ArtistUnicode:nameless
Creator:mintong89
Version:Muzukashii
Source:
Tags:n-buna ouka alice megpoid gumi utau vocaloid lop -S_a_I_k_A-
BeatmapID:1625871
BeatmapSetID:450585

[Difficulty]
HPDrainRate:5
CircleSize:5
OverallDifficulty:5
ApproachRate:5
SliderMultiplier:1.4
SliderTickRate:1

[Events]
//Background and Video events
0,0,"Itai.jpg",0,0
//Break Periods
//Storyboard Layer 0 (Background)
//Storyboard Layer 1 (Fail)
//Storyboard Layer 2 (Pass)
//Storyboard Layer 3 (Foreground)
//Storyboard Sound Samples

[TimingPoints]
1122,272.727272727273,4,1,0,70,1,0
1122,-133.333333333333,4,1,0,70,0,0
9849,-100,4,1,0,70,0,0
53485,-100,4,1,0,70,0,1
70940,-100,4,1,0,70,0,0
89417,-100,4,1,0,10,0,0
90508,-100,4,1,0,70,0,0
108031,-100,4,1,0,70,0,1
125485,-100,4,1,0,70,0,0
142940,-100,4,1,0,50,0,0
162576,-133.333333333333,4,1,0,70,0,0
179144,-100,4,1,0,20,0,0
180031,-100,4,1,0,70,0,1
199667,-100,4,1,0,70,0,0

[HitObjects]
84,166,1122,5,4,0:0:0:0:
189,183,1531,1,0,0:0:0:0:
189,183,1940,1,8,0:0:0:0:
211,151,2212,1,0,0:0:0:0:
288,127,2485,1,8,0:0:0:0:
288,127,2758,1,0,0:0:0:0:
286,133,3303,1,0,0:0:0:0:
286,133,3712,1,0,0:0:0:0:
286,133,4122,1,8,0:0:0:0:
73,97,4394,1,0,0:0:0:0:
73,97,4667,1,8,0:0:0:0:
73,97,4940,1,8,0:0:0:0:
280,188,5485,1,0,0:0:0:0:
280,188,5894,1,0,0:0:0:0:
280,188,6303,1,8,0:0:0:0:
280,188,6576,1,0,0:0:0:0:
280,188,6849,1,0,0:0:0:0:
280,188,7122,1,8,0:0:0:0:
247,162,7667,1,0,0:0:0:0:
247,162,8076,1,0,0:0:0:0:
247,162,8485,1,8,0:0:0:0:
247,162,8758,1,0,0:0:0:0:
299,254,9849,1,4,0:0:0:0:
97,132,10122,1,8,0:0:0:0:
97,132,10258,1,0,0:0:0:0:
253,184,10531,1,0,0:0:0:0:
253,184,10667,1,8,0:0:0:0:
253,184,10803,1,8,0:0:0:0:
220,128,10940,1,0,0:0:0:0:
220,128,11212,1,8,0:0:0:0:
220,128,11485,1,8,0:0:0:0:
220,128,11758,1,0,0:0:0:0:
220,128,12031,1,0,0:0:0:0:
220,128,12303,1,8,0:0:0:0:
220,128,12440,1,0,0:0:0:0:
220,128,12576,1,0,0:0:0:0:
215,130,12849,1,8,0:0:0:0:
215,130,12985,1,0,0:0:0:0:
116,205,13258,1,0,0:0:0:0:
222,42,13394,1,8,0:0:0:0:
222,42,13667,1,8,0:0:0:0:
227,131,13940,1,8,0:0:0:0:
227,131,14076,1,8,0:0:0:0:
227,131,14212,1,0,0:0:0:0:
230,148,14485,1,8,0:0:0:0:
230,148,14622,1,0,0:0:0:0:
230,148,15031,1,8,0:0:0:0:
230,148,15303,1,0,0:0:0:0:
230,148,15576,1,8,0:0:0:0:
204,161,15712,1,8,0:0:0:0:
204,161,15849,1,0,0:0:0:0:
204,161,16122,1,8,0:0:0:0:
204,161,16258,1,0,0:0:0:0:
204,161,16394,1,8,0:0:0:0:
112,157,16667,1,0,0:0:0:0:
112,157,16803,1,0,0:0:0:0:
112,157,16940,1,8,0:0:0:0:
112,157,17212,1,0,0:0:0:0:
112,157,17485,1,0,0:0:0:0:
112,157,17622,1,0,0:0:0:0:
112,157,17758,1,8,0:0:0:0:
112,157,17894,1,8,0:0:0:0:
112,157,18031,1,0,0:0:0:0:
112,157,18303,1,8,0:0:0:0:
112,157,18440,1,0,0:0:0:0:
299,254,18576,1,4,0:0:0:0:
97,132,18849,1,8,0:0:0:0:
97,132,18985,1,0,0:0:0:0:
253,184,19258,1,0,0:0:0:0:
253,184,19394,1,8,0:0:0:0:
253,184,19530,1,8,0:0:0:0:
220,128,19667,1,0,0:0:0:0:
220,128,19939,1,8,0:0:0:0:
220,128,20212,1,8,0:0:0:0:
220,128,20485,1,0,0:0:0:0:
220,128,20758,1,0,0:0:0:0:
220,128,21030,1,8,0:0:0:0:
220,128,21167,1,0,0:0:0:0:
220,128,21303,1,0,0:0:0:0:
215,130,21576,1,8,0:0:0:0:
215,130,21712,1,0,0:0:0:0:
116,205,21985,1,0,0:0:0:0:
222,42,22121,1,8,0:0:0:0:
222,42,22394,1,8,0:0:0:0:
227,131,22667,1,8,0:0:0:0:
227,131,22803,1,8,0:0:0:0:
227,131,22939,1,0,0:0:0:0:
230,148,23212,1,8,0:0:0:0:
230,148,23349,1,0,0:0:0:0:
230,148,23758,1,8,0:0:0:0:
230,148,24030,1,0,0:0:0:0:
230,148,24303,1,8,0:0:0:0:
204,161,24439,1,8,0:0:0:0:
204,161,24576,1,0,0:0:0:0:
204,161,24849,1,8,0:0:0:0:
204,161,24985,1,0,0:0:0:0:
204,161,25121,1,8,0:0:0:0:
112,157,25394,1,0,0:0:0:0:
112,157,25530,1,0,0:0:0:0:
112,157,25667,1,8,0:0:0:0:
112,157,25939,1,0,0:0:0:0:
112,157,26212,1,0,0:0:0:0:
112,157,26349,1,0,0:0:0:0:
112,157,26485,1,8,0:0:0:0:
112,157,26621,1,8,0:0:0:0:
112,157,26758,1,0,0:0:0:0:
112,157,27030,1,8,0:0:0:0:
112,157,27167,1,0,0:0:0:0:
211,107,27303,1,4,0:0:0:0:
211,107,27712,1,0,0:0:0:0:
211,107,28122,1,8,0:0:0:0:
211,107,28394,1,0,0:0:0:0:
219,136,29485,1,0,0:0:0:0:
219,136,29894,1,0,0:0:0:0:
219,136,30303,1,8,0:0:0:0:
219,136,30576,1,0,0:0:0:0:
217,142,31667,1,0,0:0:0:0:
217,142,32076,1,0,0:0:0:0:
217,142,32485,1,8,0:0:0:0:
217,142,32758,1,0,0:0:0:0:
217,142,33849,1,0,0:0:0:0:
217,142,34258,1,0,0:0:0:0:
217,142,34667,1,8,0:0:0:0:
217,142,34940,1,0,0:0:0:0:
28,129,35212,1,0,0:0:0:0:
28,129,35349,1,0,0:0:0:0:
28,129,35485,1,0,0:0:0:0:
28,129,35758,1,6,0:0:0:0:
214,165,36031,1,4,0:0:0:0:
231,177,36440,1,0,0:0:0:0:
231,177,36849,1,8,0:0:0:0:
231,177,37122,1,0,0:0:0:0:
231,177,37667,1,8,0:0:0:0:
231,177,37940,1,8,0:0:0:0:
75,119,38212,1,0,0:0:0:0:
75,119,38622,1,0,0:0:0:0:
75,119,39031,1,8,0:0:0:0:
133,113,39303,1,8,0:0:0:0:
133,113,39849,1,0,0:0:0:0:
133,113,40122,1,8,0:0:0:0:
165,140,40394,1,4,0:0:0:0:
133,113,40803,1,0,0:0:0:0:
133,113,41212,1,8,0:0:0:0:
133,113,41485,1,0,0:0:0:0:
68,166,42031,1,8,0:0:0:0:
68,166,42303,1,8,0:0:0:0:
165,140,42576,1,4,0:0:0:0:
51,138,42985,1,0,0:0:0:0:
51,138,43394,1,8,0:0:0:0:
168,147,43667,1,0,0:0:0:0:
198,113,43940,1,8,0:0:0:0:
198,113,44076,1,0,0:0:0:0:
125,163,44212,1,0,0:0:0:0:
198,113,44485,1,6,0:0:0:0:
198,113,44758,1,4,0:0:0:0:
198,113,45303,1,8,0:0:0:0:
193,169,45576,1,0,0:0:0:0:
193,169,45712,1,8,0:0:0:0:
193,169,45849,1,0,0:0:0:0:
199,165,46122,1,0,0:0:0:0:
199,165,46394,1,8,0:0:0:0:
264,108,46667,1,8,0:0:0:0:
264,108,46803,1,0,0:0:0:0:
264,108,46940,1,0,0:0:0:0:
222,158,47212,1,8,0:0:0:0:
222,158,47349,1,0,0:0:0:0:
222,158,47485,1,8,0:0:0:0:
230,90,47758,1,8,0:0:0:0:
230,90,48031,1,0,0:0:0:0:
176,86,48576,1,8,0:0:0:0:
176,86,48849,1,8,0:0:0:0:
176,86,49122,1,0,0:0:0:0:
98,156,49394,1,8,0:0:0:0:
98,156,49667,1,8,0:0:0:0:
98,156,49940,1,0,0:0:0:0:
80,151,50076,1,0,0:0:0:0:
80,151,50212,1,8,0:0:0:0:
98,156,50485,1,0,0:0:0:0:
98,156,50622,1,8,0:0:0:0:
166,191,50758,1,0,0:0:0:0:
166,191,51031,1,0,0:0:0:0:
189,149,51167,1,0,0:0:0:0:
98,156,51303,1,8,0:0:0:0:
177,153,51576,1,0,0:0:0:0:
177,153,51712,1,8,0:0:0:0:
189,149,51849,1,0,0:0:0:0:
177,153,52122,1,0,0:0:0:0:
189,149,52258,1,0,0:0:0:0:
177,153,52394,1,8,0:0:0:0:
117,216,52667,1,0,0:0:0:0:
117,216,52803,1,8,0:0:0:0:
189,155,52940,1,0,0:0:0:0:
136,134,53485,1,4,0:0:0:0:
174,208,53758,1,8,0:0:0:0:
243,68,54031,1,0,0:0:0:0:
251,109,54303,1,8,0:0:0:0:
232,113,54576,1,0,0:0:0:0:
232,113,54644,1,0,0:0:0:0:
232,113,54712,1,0,0:0:0:0:
232,113,54849,1,8,0:0:0:0:
232,113,54985,1,0,0:0:0:0:
232,113,55122,1,8,0:0:0:0:
220,115,55394,1,0,0:0:0:0:
220,115,55531,1,8,0:0:0:0:
220,115,55667,1,0,0:0:0:0:
219,114,55940,1,8,0:0:0:0:
220,115,56212,1,0,0:0:0:0:
220,115,56485,1,8,0:0:0:0:
219,114,56758,1,0,0:0:0:0:
219,114,56894,1,8,0:0:0:0:
219,114,57031,1,0,0:0:0:0:
220,115,57167,1,8,0:0:0:0:
220,115,57303,1,0,0:0:0:0:
243,134,57576,1,8,0:0:0:0:
243,134,57849,1,8,0:0:0:0:
243,134,58394,1,8,0:0:0:0:
168,105,58667,1,0,0:0:0:0:
168,105,58940,1,8,0:0:0:0:
168,105,59076,1,8,0:0:0:0:
168,105,59144,1,8,0:0:0:0:
168,105,59212,1,8,0:0:0:0:
239,128,59349,1,0,0:0:0:0:
239,128,59485,1,8,0:0:0:0:
240,121,59758,1,0,0:0:0:0:
240,121,60031,1,0,0:0:0:0:
240,121,60303,1,8,0:0:0:0:
240,121,60576,1,8,0:0:0:0:
56,107,60712,1,0,0:0:0:0:
135,119,60849,1,8,0:0:0:0:
135,119,60985,1,8,0:0:0:0:
153,130,61122,1,0,0:0:0:0:
153,130,61394,1,6,0:0:0:0:
153,129,61667,1,0,0:0:0:0:
153,128,61940,1,8,0:0:0:0:
58,112,62076,1,0,0:0:0:0:
136,134,62212,1,4,0:0:0:0:
243,68,62758,1,0,0:0:0:0:
251,109,63030,1,8,0:0:0:0:
232,113,63303,1,0,0:0:0:0:
232,113,63371,1,0,0:0:0:0:
232,113,63439,1,0,0:0:0:0:
232,113,63576,1,8,0:0:0:0:
232,113,63712,1,0,0:0:0:0:
232,113,63849,1,8,0:0:0:0:
220,115,64121,1,0,0:0:0:0:
220,115,64258,1,8,0:0:0:0:
220,115,64394,1,0,0:0:0:0:
204,140,64667,1,8,0:0:0:0:
204,140,64803,1,0,0:0:0:0:
204,140,64940,1,8,0:0:0:0:
204,140,65212,1,0,0:0:0:0:
204,140,65485,1,0,0:0:0:0:
204,140,65622,1,8,0:0:0:0:
204,140,65758,1,0,0:0:0:0:
204,140,66031,1,8,0:0:0:0:
204,140,66167,1,8,0:0:0:0:
204,140,66303,1,0,0:0:0:0:
183,100,66440,1,8,0:0:0:0:
204,140,66576,1,0,0:0:0:0:
243,134,67121,1,0,0:0:0:0:
168,105,67394,1,8,0:0:0:0:
168,105,67530,1,0,0:0:0:0:
171,68,67667,1,8,0:0:0:0:
171,68,67735,1,8,0:0:0:0:
206,144,67803,1,8,0:0:0:0:
206,144,67940,1,0,0:0:0:0:
206,144,68076,1,0,0:0:0:0:
206,144,68212,1,8,0:0:0:0:
240,121,68485,1,0,0:0:0:0:
240,121,68621,1,8,0:0:0:0:
240,121,68758,1,0,0:0:0:0:
240,121,69030,1,8,0:0:0:0:
240,121,69167,1,0,0:0:0:0:
240,121,69303,1,8,0:0:0:0:
135,119,69576,1,8,0:0:0:0:
135,119,69712,1,8,0:0:0:0:
153,130,69849,1,0,0:0:0:0:
195,153,70122,1,8,0:0:0:0:
195,153,70394,1,8,0:0:0:0:
239,200,70940,1,4,0:0:0:0:
239,200,71349,1,0,0:0:0:0:
239,200,71758,1,8,0:0:0:0:
239,200,72031,1,0,0:0:0:0:
210,171,72303,1,8,0:0:0:0:
210,171,72440,1,0,0:0:0:0:
210,171,72576,1,8,0:0:0:0:
195,172,72849,1,8,0:0:0:0:
196,172,73122,1,0,0:0:0:0:
194,60,73394,1,0,0:0:0:0:
194,60,73667,1,8,0:0:0:0:
195,172,73940,1,8,0:0:0:0:
196,172,74212,1,0,0:0:0:0:
273,152,74758,1,0,0:0:0:0:
260,156,75031,1,8,0:0:0:0:
260,157,75303,1,4,0:0:0:0:
338,146,75712,1,0,0:0:0:0:
338,146,76122,1,8,0:0:0:0:
338,146,76394,1,0,0:0:0:0:
217,168,76667,1,0,0:0:0:0:
217,168,76940,1,8,0:0:0:0:
225,175,77212,1,0,0:0:0:0:
225,175,77485,1,0,0:0:0:0:
198,94,77758,1,8,0:0:0:0:
226,175,77894,1,0,0:0:0:0:
198,94,78167,1,0,0:0:0:0:
246,138,78303,1,8,0:0:0:0:
227,143,78576,1,0,0:0:0:0:
227,143,78985,1,0,0:0:0:0:
227,143,79394,1,6,0:0:0:0:
256,64,79667,1,0,0:0:0:0:
256,64,79940,1,0,0:0:0:0:
256,64,80212,1,0,0:0:0:0:
98,204,80349,1,0,0:0:0:0:
256,64,80485,1,0,0:0:0:0:
192,128,80758,1,0,0:0:0:0:
192,128,80894,1,8,0:0:0:0:
192,128,81031,1,0,0:0:0:0:
192,128,81167,1,8,0:0:0:0:
192,128,81303,1,0,0:0:0:0:
192,128,81576,1,8,0:0:0:0:
64,128,81712,1,0,0:0:0:0:
241,102,81849,1,4,0:0:0:0:
120,144,82258,1,0,0:0:0:0:
120,144,82667,1,8,0:0:0:0:
120,144,82940,1,0,0:0:0:0:
164,186,83485,1,8,0:0:0:0:
164,186,83758,1,8,0:0:0:0:
164,186,84031,1,0,0:0:0:0:
164,186,84440,1,0,0:0:0:0:
164,186,84849,1,8,0:0:0:0:
164,186,85122,1,8,0:0:0:0:
164,186,85667,1,8,0:0:0:0:
164,186,85940,1,8,0:0:0:0:
155,162,86212,1,0,0:0:0:0:
155,162,86622,1,0,0:0:0:0:
155,162,87031,1,8,0:0:0:0:
155,162,87303,1,0,0:0:0:0:
155,162,88122,1,8,0:0:0:0:
155,162,88394,1,0,0:0:0:0:
155,162,88803,1,0,0:0:0:0:
155,162,89212,1,8,0:0:0:0:
198,159,89485,2,0,B|63:187|64:187|534:118,1,490
118,203,90576,1,4,0:0:0:0:
252,197,90985,1,0,0:0:0:0:
252,197,91394,1,8,0:0:0:0:
256,151,91667,1,0,0:0:0:0:
256,151,91940,1,8,0:0:0:0:
256,151,92212,1,0,0:0:0:0:
256,151,92485,1,8,0:0:0:0:
250,156,92758,1,0,0:0:0:0:
250,156,93167,1,0,0:0:0:0:
250,156,93576,1,8,0:0:0:0:
250,156,93849,1,0,0:0:0:0:
250,156,94122,1,0,0:0:0:0:
250,156,94394,1,8,0:0:0:0:
138,161,94940,1,4,0:0:0:0:
138,161,95349,1,0,0:0:0:0:
138,161,95758,1,8,0:0:0:0:
138,161,96031,1,0,0:0:0:0:
247,159,96303,1,8,0:0:0:0:
247,159,96576,1,0,0:0:0:0:
247,159,96849,1,8,0:0:0:0:
278,176,97122,1,4,0:0:0:0:
147,114,97394,1,8,0:0:0:0:
194,73,97667,1,0,0:0:0:0:
32,160,97940,1,8,0:0:0:0:
96,192,98212,1,0,0:0:0:0:
96,192,98485,1,0,0:0:0:0:
96,192,98622,1,0,0:0:0:0:
96,192,98758,1,0,0:0:0:0:
411,100,99031,1,6,0:0:0:0:
390,142,99303,1,4,0:0:0:0:
77,139,99849,1,8,0:0:0:0:
153,151,100122,1,8,0:0:0:0:
153,151,100258,1,0,0:0:0:0:
153,151,100394,1,0,0:0:0:0:
153,151,100667,1,8,0:0:0:0:
153,151,100803,1,0,0:0:0:0:
153,151,101076,1,0,0:0:0:0:
153,151,101212,1,8,0:0:0:0:
103,97,101485,1,0,0:0:0:0:
103,97,102031,1,0,0:0:0:0:
103,97,102303,1,8,0:0:0:0:
103,97,102576,1,0,0:0:0:0:
103,97,102712,1,0,0:0:0:0:
103,97,102849,1,8,0:0:0:0:
103,97,102985,1,8,0:0:0:0:
103,97,103122,1,0,0:0:0:0:
103,97,103394,1,8,0:0:0:0:
93,138,103667,1,0,0:0:0:0:
93,138,103940,1,8,0:0:0:0:
93,138,104212,1,0,0:0:0:0:
93,138,104349,1,0,0:0:0:0:
93,138,104485,1,8,0:0:0:0:
123,177,104758,1,8,0:0:0:0:
230,106,104894,1,0,0:0:0:0:
230,106,105031,1,8,0:0:0:0:
225,102,105303,1,0,0:0:0:0:
226,102,105440,1,0,0:0:0:0:
226,102,105576,1,8,0:0:0:0:
225,102,105849,1,8,0:0:0:0:
225,102,105985,1,0,0:0:0:0:
225,102,106122,1,8,0:0:0:0:
226,102,106394,1,0,0:0:0:0:
226,102,106531,1,0,0:0:0:0:
225,102,106667,1,8,0:0:0:0:
82,171,106940,1,0,0:0:0:0:
82,171,107076,1,0,0:0:0:0:
82,171,107212,1,8,0:0:0:0:
86,146,107485,1,8,0:0:0:0:
150,74,107622,1,0,0:0:0:0:
82,171,107758,1,8,0:0:0:0:
150,74,107894,1,0,0:0:0:0:
136,134,108031,1,4,0:0:0:0:
174,208,108304,1,8,0:0:0:0:
243,68,108577,1,0,0:0:0:0:
251,109,108849,1,8,0:0:0:0:
232,113,109122,1,0,0:0:0:0:
232,113,109190,1,0,0:0:0:0:
232,113,109258,1,0,0:0:0:0:
232,113,109395,1,8,0:0:0:0:
232,113,109531,1,0,0:0:0:0:
232,113,109668,1,8,0:0:0:0:
220,115,109940,1,0,0:0:0:0:
220,115,110077,1,8,0:0:0:0:
220,115,110213,1,0,0:0:0:0:
219,114,110486,1,8,0:0:0:0:
220,115,110758,1,0,0:0:0:0:
220,115,111031,1,8,0:0:0:0:
219,114,111304,1,0,0:0:0:0:
219,114,111440,1,8,0:0:0:0:
219,114,111577,1,0,0:0:0:0:
220,115,111713,1,8,0:0:0:0:
220,115,111849,1,0,0:0:0:0:
243,134,112122,1,8,0:0:0:0:
243,134,112395,1,8,0:0:0:0:
243,134,112940,1,8,0:0:0:0:
168,105,113213,1,0,0:0:0:0:
168,105,113486,1,8,0:0:0:0:
168,105,113622,1,8,0:0:0:0:
168,105,113690,1,8,0:0:0:0:
168,105,113758,1,8,0:0:0:0:
239,128,113895,1,0,0:0:0:0:
239,128,114031,1,8,0:0:0:0:
240,121,114304,1,0,0:0:0:0:
240,121,114577,1,0,0:0:0:0:
240,121,114849,1,8,0:0:0:0:
240,121,115122,1,8,0:0:0:0:
56,107,115258,1,0,0:0:0:0:
135,119,115395,1,8,0:0:0:0:
135,119,115531,1,8,0:0:0:0:
153,130,115668,1,0,0:0:0:0:
153,130,115940,1,6,0:0:0:0:
153,129,116213,1,0,0:0:0:0:
153,128,116486,1,8,0:0:0:0:
58,112,116622,1,0,0:0:0:0:
136,134,116758,1,4,0:0:0:0:
243,68,117304,1,0,0:0:0:0:
251,109,117576,1,8,0:0:0:0:
232,113,117849,1,0,0:0:0:0:
232,113,117917,1,0,0:0:0:0:
232,113,117985,1,0,0:0:0:0:
232,113,118122,1,8,0:0:0:0:
232,113,118258,1,0,0:0:0:0:
232,113,118395,1,8,0:0:0:0:
220,115,118667,1,0,0:0:0:0:
220,115,118804,1,8,0:0:0:0:
220,115,118940,1,0,0:0:0:0:
204,140,119213,1,8,0:0:0:0:
204,140,119349,1,0,0:0:0:0:
204,140,119486,1,8,0:0:0:0:
204,140,119758,1,0,0:0:0:0:
204,140,120031,1,0,0:0:0:0:
204,140,120168,1,8,0:0:0:0:
204,140,120304,1,0,0:0:0:0:
204,140,120577,1,8,0:0:0:0:
204,140,120713,1,8,0:0:0:0:
204,140,120849,1,0,0:0:0:0:
183,100,120986,1,8,0:0:0:0:
204,140,121122,1,0,0:0:0:0:
243,134,121667,1,0,0:0:0:0:
168,105,121940,1,8,0:0:0:0:
168,105,122076,1,0,0:0:0:0:
171,68,122213,1,8,0:0:0:0:
171,68,122281,1,8,0:0:0:0:
206,144,122349,1,8,0:0:0:0:
206,144,122486,1,0,0:0:0:0:
206,144,122622,1,0,0:0:0:0:
206,144,122758,1,8,0:0:0:0:
240,121,123031,1,0,0:0:0:0:
240,121,123167,1,8,0:0:0:0:
240,121,123304,1,0,0:0:0:0:
240,121,123576,1,8,0:0:0:0:
240,121,123713,1,0,0:0:0:0:
240,121,123849,1,8,0:0:0:0:
135,119,124122,1,8,0:0:0:0:
135,119,124258,1,8,0:0:0:0:
153,130,124395,1,0,0:0:0:0:
195,153,124668,1,8,0:0:0:0:
195,153,124804,1,0,0:0:0:0:
195,153,124940,1,8,0:0:0:0:
306,133,125485,1,4,0:0:0:0:
91,143,125758,1,8,0:0:0:0:
91,143,126031,1,0,0:0:0:0:
116,168,126303,1,8,0:0:0:0:
116,168,126440,1,8,0:0:0:0:
113,164,126712,1,0,0:0:0:0:
113,164,126849,1,8,0:0:0:0:
202,127,126985,1,8,0:0:0:0:
202,127,127122,1,0,0:0:0:0:
202,127,127190,1,0,0:0:0:0:
202,127,127258,1,0,0:0:0:0:
202,127,127394,1,8,0:0:0:0:
94,121,127667,1,8,0:0:0:0:
169,126,128076,1,8,0:0:0:0:
227,93,128485,1,8,0:0:0:0:
227,93,128622,1,8,0:0:0:0:
243,96,128758,1,0,0:0:0:0:
243,96,129031,1,8,0:0:0:0:
243,96,129167,1,0,0:0:0:0:
238,96,129303,1,0,0:0:0:0:
238,96,129576,1,8,0:0:0:0:
235,63,129849,1,0,0:0:0:0:
107,91,130122,1,0,0:0:0:0:
107,91,130258,1,8,0:0:0:0:
241,137,130531,1,8,0:0:0:0:
241,137,130667,1,0,0:0:0:0:
241,137,130940,1,0,0:0:0:0:
241,137,131212,1,8,0:0:0:0:
241,137,131349,1,8,0:0:0:0:
102,162,131622,1,8,0:0:0:0:
102,162,131758,1,0,0:0:0:0:
155,174,132031,1,8,0:0:0:0:
155,174,132099,1,8,0:0:0:0:
155,174,132167,1,8,0:0:0:0:
155,174,132303,1,0,0:0:0:0:
155,174,132440,1,8,0:0:0:0:
155,174,132576,1,0,0:0:0:0:
155,174,132849,1,8,0:0:0:0:
155,174,133122,1,0,0:0:0:0:
155,174,133394,1,8,0:0:0:0:
155,174,133531,1,0,0:0:0:0:
155,174,133803,1,8,0:0:0:0:
155,174,133940,1,0,0:0:0:0:
155,174,134076,1,8,0:0:0:0:
155,174,134212,1,4,0:0:0:0:
155,174,134758,1,0,0:0:0:0:
155,174,135031,1,8,0:0:0:0:
163,166,135303,1,0,0:0:0:0:
163,166,135372,1,0,0:0:0:0:
163,166,135440,1,0,0:0:0:0:
166,166,135576,1,8,0:0:0:0:
166,166,135849,1,8,0:0:0:0:
166,166,135985,1,8,0:0:0:0:
166,166,136122,1,0,0:0:0:0:
163,166,136258,1,8,0:0:0:0:
132,145,136394,1,0,0:0:0:0:
132,145,136667,1,8,0:0:0:0:
132,145,136940,1,8,0:0:0:0:
187,169,137076,1,0,0:0:0:0:
132,145,137212,1,8,0:0:0:0:
132,145,137349,1,8,0:0:0:0:
183,150,137485,1,8,0:0:0:0:
183,150,137553,1,8,0:0:0:0:
183,152,137622,1,8,0:0:0:0:
183,152,137758,1,0,0:0:0:0:
183,152,137894,1,8,0:0:0:0:
183,152,138031,1,0,0:0:0:0:
183,150,138303,1,8,0:0:0:0:
158,126,138576,1,0,0:0:0:0:
169,154,138985,1,0,0:0:0:0:
279,106,139394,1,8,0:0:0:0:
279,106,139531,1,8,0:0:0:0:
279,106,139667,1,0,0:0:0:0:
279,106,139735,1,0,0:0:0:0:
279,106,139803,1,0,0:0:0:0:
259,88,139940,1,8,0:0:0:0:
109,108,140212,1,0,0:0:0:0:
109,108,140349,1,0,0:0:0:0:
109,108,140485,1,8,0:0:0:0:
211,139,140758,1,8,0:0:0:0:
211,139,140894,1,8,0:0:0:0:
211,139,141031,1,0,0:0:0:0:
211,139,141167,1,8,0:0:0:0:
211,139,141303,1,0,0:0:0:0:
211,139,141576,1,8,0:0:0:0:
211,139,141849,1,4,0:0:0:0:
235,115,142122,1,8,0:0:0:0:
235,115,142258,1,0,0:0:0:0:
235,115,142394,1,8,0:0:0:0:
235,115,142531,1,0,0:0:0:0:
235,115,142667,1,8,0:0:0:0:
344,119,142940,1,4,0:0:0:0:
320,122,143758,1,8,0:0:0:0:
320,122,143894,1,0,0:0:0:0:
320,122,144031,1,0,0:0:0:0:
320,122,144303,1,8,0:0:0:0:
320,122,144440,1,8,0:0:0:0:
226,63,144712,1,8,0:0:0:0:
226,63,144849,1,0,0:0:0:0:
226,63,144985,1,8,0:0:0:0:
112,196,145122,1,0,0:0:0:0:
275,220,145394,1,0,0:0:0:0:
275,220,145667,1,8,0:0:0:0:
264,186,145940,1,8,0:0:0:0:
264,186,146212,1,0,0:0:0:0:
263,195,147303,1,8,0:0:0:0:
263,195,147576,1,0,0:0:0:0:
263,195,147712,1,8,0:0:0:0:
263,195,147849,1,0,0:0:0:0:
263,195,148122,1,0,0:0:0:0:
263,195,148258,1,8,0:0:0:0:
263,195,148531,1,8,0:0:0:0:
263,195,148803,1,8,0:0:0:0:
263,195,149076,1,0,0:0:0:0:
263,195,149212,1,8,0:0:0:0:
263,195,149349,1,8,0:0:0:0:
200,228,149485,1,0,0:0:0:0:
200,228,149758,1,0,0:0:0:0:
200,228,150031,1,8,0:0:0:0:
269,174,150303,1,0,0:0:0:0:
269,174,150440,1,8,0:0:0:0:
269,174,150576,1,0,0:0:0:0:
269,174,150849,1,0,0:0:0:0:
269,174,151122,1,8,0:0:0:0:
269,174,151667,1,4,0:0:0:0:
307,213,151940,1,8,0:0:0:0:
307,213,152076,1,0,0:0:0:0:
307,213,152212,1,8,0:0:0:0:
172,234,152485,1,0,0:0:0:0:
172,234,152622,1,8,0:0:0:0:
172,234,152894,1,8,0:0:0:0:
172,234,153167,1,8,0:0:0:0:
197,199,153440,1,0,0:0:0:0:
197,199,153576,1,8,0:0:0:0:
197,199,153712,1,8,0:0:0:0:
197,199,153849,1,0,0:0:0:0:
197,199,154122,1,0,0:0:0:0:
197,199,154258,1,0,0:0:0:0:
197,199,154394,1,8,0:0:0:0:
197,199,154667,1,8,0:0:0:0:
197,199,154940,1,8,0:0:0:0:
197,199,155212,1,0,0:0:0:0:
197,199,155349,1,8,0:0:0:0:
197,199,155485,1,0,0:0:0:0:
197,199,155758,1,8,0:0:0:0:
226,90,156031,1,0,0:0:0:0:
240,113,156849,1,0,0:0:0:0:
240,113,156985,1,8,0:0:0:0:
240,113,157122,1,0,0:0:0:0:
240,106,157394,1,0,0:0:0:0:
240,106,157667,1,0,0:0:0:0:
240,106,157803,1,8,0:0:0:0:
240,106,157940,1,0,0:0:0:0:
240,106,158076,1,8,0:0:0:0:
240,106,158212,1,0,0:0:0:0:
328,97,158485,1,0,0:0:0:0:
328,97,158758,1,8,0:0:0:0:
340,64,159031,1,0,0:0:0:0:
340,64,159167,1,8,0:0:0:0:
340,64,159303,1,0,0:0:0:0:
340,64,159440,1,8,0:0:0:0:
227,49,159576,1,0,0:0:0:0:
211,68,159849,1,8,0:0:0:0:
211,68,160122,1,8,0:0:0:0:
211,68,160258,1,8,0:0:0:0:
177,190,162576,1,8,0:0:0:0:
177,190,163122,1,8,0:0:0:0:
177,190,163667,1,8,0:0:0:0:
177,190,163940,1,8,0:0:0:0:
177,190,164212,1,8,0:0:0:0:
231,86,164758,1,8,0:0:0:0:
231,86,165303,1,8,0:0:0:0:
170,171,165576,1,8,0:0:0:0:
231,86,165849,1,8,0:0:0:0:
260,113,166122,1,8,0:0:0:0:
231,86,166394,1,8,0:0:0:0:
231,86,166940,1,8,0:0:0:0:
231,86,167485,1,8,0:0:0:0:
231,86,168031,1,8,0:0:0:0:
231,86,168303,1,8,0:0:0:0:
231,86,168576,1,8,0:0:0:0:
212,124,169122,1,8,0:0:0:0:
212,124,169394,1,8,0:0:0:0:
212,124,169667,1,8,0:0:0:0:
212,124,169940,1,8,0:0:0:0:
212,124,170212,1,4,0:0:0:0:
235,243,171031,1,8,0:0:0:0:
235,243,171303,1,4,0:0:0:0:
368,187,171712,1,0,0:0:0:0:
368,187,171849,1,8,0:0:0:0:
435,189,172258,1,8,0:0:0:0:
435,189,172394,1,0,0:0:0:0:
435,189,172667,1,0,0:0:0:0:
436,187,172940,1,8,0:0:0:0:
173,156,173212,1,8,0:0:0:0:
173,156,173349,1,0,0:0:0:0:
173,156,173485,1,0,0:0:0:0:
169,159,173758,1,0,0:0:0:0:
169,159,174031,1,0,0:0:0:0:
169,160,174303,1,8,0:0:0:0:
169,160,174440,1,0,0:0:0:0:
169,159,174576,1,0,0:0:0:0:
169,159,174849,1,8,0:0:0:0:
163,155,175122,1,8,0:0:0:0:
162,154,175394,1,8,0:0:0:0:
162,154,175531,1,0,0:0:0:0:
162,154,175667,1,4,0:0:0:0:
201,132,176076,1,0,0:0:0:0:
235,52,176212,1,8,0:0:0:0:
227,96,176485,1,0,0:0:0:0:
227,96,176622,1,8,0:0:0:0:
227,96,176758,1,8,0:0:0:0:
227,96,177031,1,0,0:0:0:0:
227,96,177167,1,8,0:0:0:0:
205,112,177303,1,0,0:0:0:0:
246,100,177440,1,0,0:0:0:0:
246,100,177576,1,8,0:0:0:0:
256,192,177849,8,0,178940,0:0:0:0:
136,134,180031,5,4,0:0:0:0:
174,208,180304,1,8,0:0:0:0:
243,68,180577,1,0,0:0:0:0:
251,109,180849,1,8,0:0:0:0:
232,113,181122,1,0,0:0:0:0:
232,113,181190,1,0,0:0:0:0:
232,113,181258,1,0,0:0:0:0:
232,113,181395,1,8,0:0:0:0:
232,113,181531,1,0,0:0:0:0:
232,113,181668,1,8,0:0:0:0:
220,115,181940,1,0,0:0:0:0:
220,115,182077,1,8,0:0:0:0:
220,115,182213,1,0,0:0:0:0:
219,114,182486,1,8,0:0:0:0:
220,115,182758,1,0,0:0:0:0:
220,115,183031,1,8,0:0:0:0:
219,114,183304,1,0,0:0:0:0:
219,114,183440,1,8,0:0:0:0:
219,114,183577,1,0,0:0:0:0:
220,115,183713,1,8,0:0:0:0:
220,115,183849,1,0,0:0:0:0:
243,134,184122,1,8,0:0:0:0:
243,134,184395,1,8,0:0:0:0:
243,134,184940,1,8,0:0:0:0:
168,105,185213,1,0,0:0:0:0:
168,105,185486,1,8,0:0:0:0:
168,105,185622,1,8,0:0:0:0:
168,105,185690,1,8,0:0:0:0:
168,105,185758,1,8,0:0:0:0:
239,128,185895,1,0,0:0:0:0:
239,128,186031,1,8,0:0:0:0:
240,121,186304,1,0,0:0:0:0:
240,121,186577,1,0,0:0:0:0:
240,121,186849,1,8,0:0:0:0:
240,121,187122,1,8,0:0:0:0:
56,107,187258,1,0,0:0:0:0:
135,119,187395,1,8,0:0:0:0:
135,119,187531,1,8,0:0:0:0:
153,130,187668,1,0,0:0:0:0:
153,130,187940,1,6,0:0:0:0:
153,129,188213,1,0,0:0:0:0:
153,128,188486,1,8,0:0:0:0:
58,112,188622,1,0,0:0:0:0:
136,134,188758,1,4,0:0:0:0:
243,68,189304,1,0,0:0:0:0:
251,109,189576,1,8,0:0:0:0:
232,113,189849,1,0,0:0:0:0:
232,113,189917,1,0,0:0:0:0:
232,113,189985,1,0,0:0:0:0:
232,113,190122,1,8,0:0:0:0:
232,113,190258,1,0,0:0:0:0:
232,113,190395,1,8,0:0:0:0:
220,115,190667,1,0,0:0:0:0:
220,115,190804,1,8,0:0:0:0:
220,115,190940,1,0,0:0:0:0:
204,140,191213,1,8,0:0:0:0:
204,140,191349,1,0,0:0:0:0:
204,140,191486,1,8,0:0:0:0:
204,140,191758,1,0,0:0:0:0:
204,140,192031,1,0,0:0:0:0:
204,140,192168,1,8,0:0:0:0:
204,140,192304,1,0,0:0:0:0:
204,140,192577,1,8,0:0:0:0:
204,140,192713,1,8,0:0:0:0:
204,140,192849,1,0,0:0:0:0:
183,100,192986,1,8,0:0:0:0:
204,140,193122,1,0,0:0:0:0:
243,134,193667,1,0,0:0:0:0:
168,105,193940,1,8,0:0:0:0:
168,105,194076,1,0,0:0:0:0:
171,68,194213,1,8,0:0:0:0:
171,68,194281,1,8,0:0:0:0:
206,144,194349,1,8,0:0:0:0:
206,144,194486,1,0,0:0:0:0:
206,144,194622,1,0,0:0:0:0:
206,144,194758,1,8,0:0:0:0:
240,121,195031,1,0,0:0:0:0:
240,121,195167,1,8,0:0:0:0:
240,121,195304,1,0,0:0:0:0:
240,121,195576,1,8,0:0:0:0:
240,121,195713,1,0,0:0:0:0:
240,121,195849,1,8,0:0:0:0:
135,119,196122,1,8,0:0:0:0:
135,119,196258,1,8,0:0:0:0:
153,130,196395,1,0,0:0:0:0:
195,153,196668,1,8,0:0:0:0:
195,153,196804,1,0,0:0:0:0:
195,153,196940,1,8,0:0:0:0:
195,153,197077,1,0,0:0:0:0:
195,153,197213,1,8,0:0:0:0:
162,201,197485,1,0,0:0:0:0:
162,201,197758,1,0,0:0:0:0:
162,201,197894,1,0,0:0:0:0:
162,201,198031,1,8,0:0:0:0:
162,201,198167,1,8,0:0:0:0:
162,201,198303,1,0,0:0:0:0:
162,201,198576,1,0,0:0:0:0:
62,186,199394,1,6,0:0:0:0:
299,254,199667,1,4,0:0:0:0:
97,132,199940,1,8,0:0:0:0:
97,132,200076,1,0,0:0:0:0:
253,184,200349,1,0,0:0:0:0:
253,184,200485,1,8,0:0:0:0:
253,184,200621,1,8,0:0:0:0:
220,128,200758,1,0,0:0:0:0:
220,128,201030,1,8,0:0:0:0:
220,128,201303,1,8,0:0:0:0:
220,128,201576,1,0,0:0:0:0:
220,128,201849,1,0,0:0:0:0:
220,128,202121,1,8,0:0:0:0:
220,128,202258,1,0,0:0:0:0:
220,128,202394,1,0,0:0:0:0:
215,130,202667,1,8,0:0:0:0:
215,130,202803,1,0,0:0:0:0:
116,205,203076,1,0,0:0:0:0:
222,42,203212,1,8,0:0:0:0:
222,42,203485,1,8,0:0:0:0:
227,131,203758,1,8,0:0:0:0:
227,131,203894,1,8,0:0:0:0:
227,131,204030,1,0,0:0:0:0:
230,148,204303,1,8,0:0:0:0:
230,148,204440,1,0,0:0:0:0:
230,148,204849,1,8,0:0:0:0:
230,148,205121,1,0,0:0:0:0:
230,148,205394,1,8,0:0:0:0:
204,161,205530,1,8,0:0:0:0:
204,161,205667,1,0,0:0:0:0:
204,161,205940,1,8,0:0:0:0:
204,161,206076,1,0,0:0:0:0:
204,161,206212,1,8,0:0:0:0:
112,157,206485,1,0,0:0:0:0:
112,157,206621,1,0,0:0:0:0:
112,157,206758,1,8,0:0:0:0:
112,157,207030,1,0,0:0:0:0:
112,157,207303,1,0,0:0:0:0:
112,157,207440,1,0,0:0:0:0:
112,157,207576,1,8,0:0:0:0:
112,157,207712,1,8,0:0:0:0:
112,157,207849,1,0,0:0:0:0:
112,157,208121,1,8,0:0:0:0:
112,157,208258,1,0,0:0:0:0:
299,254,208394,1,4,0:0:0:0:
97,132,208667,1,8,0:0:0:0:
97,132,208803,1,0,0:0:0:0:
253,184,209076,1,0,0:0:0:0:
253,184,209212,1,8,0:0:0:0:
253,184,209348,1,8,0:0:0:0:
220,128,209485,1,0,0:0:0:0:
220,128,209757,1,8,0:0:0:0:
220,128,210030,1,8,0:0:0:0:
220,128,210303,1,0,0:0:0:0:
220,128,210576,1,0,0:0:0:0:
220,128,210848,1,8,0:0:0:0:
220,128,210985,1,0,0:0:0:0:
220,128,211121,1,0,0:0:0:0:
215,130,211394,1,8,0:0:0:0:
215,130,211530,1,0,0:0:0:0:
116,205,211803,1,0,0:0:0:0:
222,42,211939,1,8,0:0:0:0:
222,42,212212,1,8,0:0:0:0:
227,131,212485,1,8,0:0:0:0:
227,131,212621,1,8,0:0:0:0:
227,131,212757,1,0,0:0:0:0:
230,148,213030,1,8,0:0:0:0:
230,148,213167,1,0,0:0:0:0:
230,148,213576,1,8,0:0:0:0:
230,148,213848,1,0,0:0:0:0:
230,148,214121,1,8,0:0:0:0:
204,161,214257,1,8,0:0:0:0:
204,161,214394,1,0,0:0:0:0:
204,161,214667,1,8,0:0:0:0:
204,161,214803,1,0,0:0:0:0:
204,161,214939,1,8,0:0:0:0:
112,157,215212,1,0,0:0:0:0:
112,157,215348,1,0,0:0:0:0:
112,157,215485,1,8,0:0:0:0:
112,157,215757,1,0,0:0:0:0:
112,157,216030,5,0,0:0:0:0:
112,157,216167,1,0,0:0:0:0:
112,157,216303,1,8,0:0:0:0:
112,157,216439,1,8,0:0:0:0:
112,157,216576,1,0,0:0:0:0:
112,157,216848,1,8,0:0:0:0:
112,157,216985,1,0,0:0:0:0:
211,107,217121,1,4,0:0:0:0:
211,107,217530,1,0,0:0:0:0:
211,107,217940,1,8,0:0:0:0:
211,107,218212,1,0,0:0:0:0:
