osu file format v14

[General]
AudioFilename: audio.mp3
AudioLeadIn: 0
PreviewTime: 53084
Countdown: 0
SampleSet: Normal
StackLeniency: 0.7
Mode: 1
LetterboxInBreaks: 0
WidescreenStoryboard: 1

[Editor]
DistanceSpacing: 1.1
BeatDivisor: 4
GridSize: 32
TimelineZoom: 1

[Metadata]
Title:Toumei Elegy
TitleUnicode:透明エレジー
Artist:nameless
ArtistUnicode:nameless
Creator:mintong89
Version:Kantan
Source:
Tags:n-buna ouka alice megpoid gumi utau vocaloid lop -S_a_I_k_A-
BeatmapID:1626982
BeatmapSetID:450585

[Difficulty]
HPDrainRate:5
CircleSize:5
OverallDifficulty:4
ApproachRate:5
SliderMultiplier:1.2
SliderTickRate:1

[Events]
//Background and Video events
0,0,"Itai.jpg",0,0
//Break Periods
//Storyboard Layer 0 (Background)
//Storyboard Layer 1 (Fail)
//Storyboard Layer 2 (Pass)
//Storyboard Layer 3 (Foreground)
//Storyboard Sound Samples

[TimingPoints]
1122,272.727272727273,4,1,0,70,1,0
9849,-100,4,1,0,70,0,0
53485,-100,4,1,0,70,0,1
70940,-100,4,1,0,70,0,0
89417,-100,4,1,0,10,0,0
90508,-100,4,1,0,70,0,0
108031,-100,4,1,0,70,0,1
125485,-100,4,1,0,70,0,0
142940,-100,4,1,0,50,0,0
162576,-100,4,1,0,70,0,0
179144,-100,4,1,0,20,0,0
180031,-100,4,1,0,70,0,1
199667,-100,4,1,0,70,0,0

[HitObjects]
86,225,1122,5,4,0:0:0:0:
288,208,1667,1,8,0:0:0:0:
288,208,2212,1,0,0:0:0:0:
193,112,2758,1,8,0:0:0:0:
193,112,3303,1,0,0:0:0:0:
150,149,3849,1,0,0:0:0:0:
150,149,4394,1,8,0:0:0:0:
150,149,4940,1,8,0:0:0:0:
150,149,5485,1,8,0:0:0:0:
149,156,6576,1,8,0:0:0:0:
149,156,7122,1,0,0:0:0:0:
149,156,7667,1,8,0:0:0:0:
149,156,8212,1,0,0:0:0:0:
149,156,8758,1,0,0:0:0:0:
146,150,9849,1,4,0:0:0:0:
146,150,10258,1,8,0:0:0:0:
150,74,10940,1,8,0:0:0:0:
146,150,11485,1,8,0:0:0:0:
146,150,12031,1,0,0:0:0:0:
146,150,12576,1,0,0:0:0:0:
190,121,12849,1,0,0:0:0:0:
190,121,13394,1,0,0:0:0:0:
190,121,13667,1,0,0:0:0:0:
247,109,14212,1,8,0:0:0:0:
190,121,15031,1,8,0:0:0:0:
131,93,15849,1,0,0:0:0:0:
187,96,16394,1,8,0:0:0:0:
285,97,16940,1,8,0:0:0:0:
285,97,17485,1,0,0:0:0:0:
146,149,18576,1,4,0:0:0:0:
146,149,18985,1,8,0:0:0:0:
150,73,19667,1,8,0:0:0:0:
146,149,20212,1,8,0:0:0:0:
146,149,20758,1,0,0:0:0:0:
146,149,21303,1,0,0:0:0:0:
190,120,21576,1,0,0:0:0:0:
190,120,22121,1,0,0:0:0:0:
190,120,22394,1,0,0:0:0:0:
247,108,22939,1,8,0:0:0:0:
190,120,23758,1,8,0:0:0:0:
131,92,24576,1,0,0:0:0:0:
187,95,25121,1,8,0:0:0:0:
285,96,25667,1,8,0:0:0:0:
285,96,26212,1,0,0:0:0:0:
203,127,27303,1,4,0:0:0:0:
231,101,28122,1,0,0:0:0:0:
231,101,28394,1,0,0:0:0:0:
231,101,29485,1,0,0:0:0:0:
379,179,30303,1,8,0:0:0:0:
379,179,30576,1,8,0:0:0:0:
187,122,31667,1,0,0:0:0:0:
187,122,32485,1,0,0:0:0:0:
187,122,32758,1,0,0:0:0:0:
187,122,33849,1,0,0:0:0:0:
187,122,34667,1,8,0:0:0:0:
187,122,34940,1,8,0:0:0:0:
187,122,36031,1,4,0:0:0:0:
187,122,36576,1,8,0:0:0:0:
187,122,37122,1,0,0:0:0:0:
187,122,38212,1,8,0:0:0:0:
187,122,38758,1,0,0:0:0:0:
187,122,39303,1,8,0:0:0:0:
187,122,40394,1,0,0:0:0:0:
187,122,40940,1,8,0:0:0:0:
187,122,41485,1,0,0:0:0:0:
187,122,42576,1,8,0:0:0:0:
187,122,43122,1,0,0:0:0:0:
187,122,43667,1,0,0:0:0:0:
180,77,44758,1,4,0:0:0:0:
180,77,45303,1,8,0:0:0:0:
233,136,45849,1,0,0:0:0:0:
233,136,46394,1,0,0:0:0:0:
233,136,46940,1,8,0:0:0:0:
233,136,47485,1,0,0:0:0:0:
233,136,48031,1,8,0:0:0:0:
270,100,49122,1,8,0:0:0:0:
270,100,49667,1,0,0:0:0:0:
270,100,50212,1,8,0:0:0:0:
149,150,50758,1,8,0:0:0:0:
149,150,51303,1,0,0:0:0:0:
149,150,51849,1,0,0:0:0:0:
149,150,52394,1,0,0:0:0:0:
94,124,53485,1,4,0:0:0:0:
94,124,54031,1,8,0:0:0:0:
147,91,54576,1,0,0:0:0:0:
94,124,54849,1,0,0:0:0:0:
94,124,55122,1,0,0:0:0:0:
147,91,55667,1,8,0:0:0:0:
147,91,56212,1,0,0:0:0:0:
147,91,56758,1,8,0:0:0:0:
147,91,57849,1,0,0:0:0:0:
147,91,58394,1,8,0:0:0:0:
147,91,58940,1,0,0:0:0:0:
145,122,59212,1,0,0:0:0:0:
147,91,59485,1,0,0:0:0:0:
145,122,60031,1,0,0:0:0:0:
145,122,60303,1,0,0:0:0:0:
145,122,60576,1,0,0:0:0:0:
110,82,61394,1,6,0:0:0:0:
94,124,62212,1,4,0:0:0:0:
94,124,62758,1,8,0:0:0:0:
147,91,63303,1,0,0:0:0:0:
94,124,63576,1,0,0:0:0:0:
94,124,63849,1,0,0:0:0:0:
147,91,64394,1,8,0:0:0:0:
147,91,64939,1,0,0:0:0:0:
147,91,65485,1,8,0:0:0:0:
147,91,66576,1,0,0:0:0:0:
147,91,67121,1,8,0:0:0:0:
147,91,67667,1,0,0:0:0:0:
145,122,67939,1,0,0:0:0:0:
147,91,68212,1,0,0:0:0:0:
115,178,68758,1,0,0:0:0:0:
115,178,69031,1,0,0:0:0:0:
115,178,69303,1,0,0:0:0:0:
115,178,69576,1,0,0:0:0:0:
115,178,69849,1,0,0:0:0:0:
115,178,70940,1,4,0:0:0:0:
115,178,71758,1,0,0:0:0:0:
115,178,72031,1,0,0:0:0:0:
115,178,72849,1,8,0:0:0:0:
115,178,73122,1,8,0:0:0:0:
115,178,73940,1,0,0:0:0:0:
115,178,74212,1,0,0:0:0:0:
115,178,74758,1,8,0:0:0:0:
115,178,75303,1,0,0:0:0:0:
115,178,76122,1,0,0:0:0:0:
115,178,76394,1,0,0:0:0:0:
113,172,77212,1,8,0:0:0:0:
113,172,77485,1,8,0:0:0:0:
64,142,78031,1,0,0:0:0:0:
113,172,78576,1,0,0:0:0:0:
64,142,79667,1,0,0:0:0:0:
97,138,79940,1,0,0:0:0:0:
97,138,80212,1,0,0:0:0:0:
97,138,80485,1,0,0:0:0:0:
137,147,80758,1,0,0:0:0:0:
137,147,81303,1,8,0:0:0:0:
137,147,81849,1,4,0:0:0:0:
137,147,82667,1,0,0:0:0:0:
137,147,82940,1,0,0:0:0:0:
153,110,84031,1,0,0:0:0:0:
153,110,84849,1,8,0:0:0:0:
132,124,85122,1,8,0:0:0:0:
171,144,86212,1,0,0:0:0:0:
171,144,87031,1,0,0:0:0:0:
171,144,87303,1,0,0:0:0:0:
173,92,88394,1,8,0:0:0:0:
101,97,89212,1,8,0:0:0:0:
137,166,89485,2,0,B|93:233|93:233|364:120,1,360
78,104,90576,1,4,0:0:0:0:
192,57,91394,1,0,0:0:0:0:
192,57,91667,1,0,0:0:0:0:
209,154,92485,1,8,0:0:0:0:
209,154,92758,1,0,0:0:0:0:
209,154,93576,1,0,0:0:0:0:
209,154,93849,1,0,0:0:0:0:
209,154,94394,1,8,0:0:0:0:
209,154,94940,1,0,0:0:0:0:
209,154,95758,1,8,0:0:0:0:
209,154,96031,1,8,0:0:0:0:
209,154,96849,1,0,0:0:0:0:
209,154,97122,1,0,0:0:0:0:
103,116,97667,1,8,0:0:0:0:
103,116,98212,1,0,0:0:0:0:
103,116,98485,1,0,0:0:0:0:
103,116,98758,1,0,0:0:0:0:
145,88,99303,1,4,0:0:0:0:
145,88,99849,1,8,0:0:0:0:
145,88,100394,1,0,0:0:0:0:
145,88,100940,1,0,0:0:0:0:
145,88,101485,1,8,0:0:0:0:
145,88,102031,1,0,0:0:0:0:
146,93,102576,1,8,0:0:0:0:
183,112,103667,1,8,0:0:0:0:
183,112,104212,1,8,0:0:0:0:
183,112,104758,1,0,0:0:0:0:
183,112,105303,1,8,0:0:0:0:
183,112,105849,1,0,0:0:0:0:
185,117,106940,1,0,0:0:0:0:
185,117,107212,1,0,0:0:0:0:
185,117,107485,1,0,0:0:0:0:
94,124,108031,1,4,0:0:0:0:
94,124,108577,1,8,0:0:0:0:
147,91,109122,1,0,0:0:0:0:
94,124,109395,1,0,0:0:0:0:
94,124,109668,1,0,0:0:0:0:
147,91,110213,1,8,0:0:0:0:
147,91,110758,1,0,0:0:0:0:
147,91,111304,1,8,0:0:0:0:
147,91,112395,1,0,0:0:0:0:
147,91,112940,1,8,0:0:0:0:
147,91,113486,1,0,0:0:0:0:
145,122,113758,1,0,0:0:0:0:
147,91,114031,1,0,0:0:0:0:
145,122,114577,1,0,0:0:0:0:
145,122,114849,1,0,0:0:0:0:
145,122,115122,1,0,0:0:0:0:
110,82,115940,1,6,0:0:0:0:
70,97,116486,1,0,0:0:0:0:
94,124,116758,1,4,0:0:0:0:
94,124,117304,1,8,0:0:0:0:
147,91,117849,1,0,0:0:0:0:
94,124,118122,1,0,0:0:0:0:
94,124,118395,1,0,0:0:0:0:
147,91,118940,1,8,0:0:0:0:
147,91,119485,1,0,0:0:0:0:
147,91,120031,1,8,0:0:0:0:
147,91,121122,1,0,0:0:0:0:
147,91,121667,1,8,0:0:0:0:
147,91,122213,1,0,0:0:0:0:
145,122,122485,1,0,0:0:0:0:
147,91,122758,1,0,0:0:0:0:
115,178,123304,1,0,0:0:0:0:
115,178,123577,1,0,0:0:0:0:
115,178,123849,1,0,0:0:0:0:
115,178,124122,1,0,0:0:0:0:
115,178,124395,1,0,0:0:0:0:
144,192,125485,1,4,0:0:0:0:
144,192,126440,1,8,0:0:0:0:
187,188,127122,1,0,0:0:0:0:
187,188,127667,1,8,0:0:0:0:
187,188,128212,1,0,0:0:0:0:
187,188,128758,1,8,0:0:0:0:
187,188,129303,1,8,0:0:0:0:
187,188,129849,1,0,0:0:0:0:
128,181,130940,1,8,0:0:0:0:
128,181,132031,1,0,0:0:0:0:
229,179,132303,1,0,0:0:0:0:
229,179,132576,1,0,0:0:0:0:
134,184,133122,1,8,0:0:0:0:
205,225,134212,1,4,0:0:0:0:
205,225,134758,1,8,0:0:0:0:
205,225,135303,1,0,0:0:0:0:
205,225,135576,1,0,0:0:0:0:
205,225,135849,1,0,0:0:0:0:
205,225,136394,1,8,0:0:0:0:
205,225,136940,1,0,0:0:0:0:
205,225,137485,1,8,0:0:0:0:
205,225,137758,1,8,0:0:0:0:
205,225,138031,1,8,0:0:0:0:
205,225,138576,1,0,0:0:0:0:
205,225,139667,1,8,0:0:0:0:
205,225,140212,1,8,0:0:0:0:
205,225,140758,1,0,0:0:0:0:
205,225,141303,1,0,0:0:0:0:
205,225,141849,1,8,0:0:0:0:
205,225,142122,1,8,0:0:0:0:
151,95,142394,1,8,0:0:0:0:
171,134,142940,1,4,0:0:0:0:
171,134,143758,1,0,0:0:0:0:
171,134,144031,1,0,0:0:0:0:
171,134,144849,1,8,0:0:0:0:
235,67,145122,1,8,0:0:0:0:
214,138,145940,1,0,0:0:0:0:
214,138,146212,1,0,0:0:0:0:
177,100,147303,1,0,0:0:0:0:
134,131,148258,1,8,0:0:0:0:
134,131,148531,1,8,0:0:0:0:
134,131,148803,1,8,0:0:0:0:
134,131,149485,1,0,0:0:0:0:
134,131,150031,1,8,0:0:0:0:
134,131,150576,1,0,0:0:0:0:
134,131,151667,1,4,0:0:0:0:
134,131,152485,1,0,0:0:0:0:
134,131,152758,1,0,0:0:0:0:
116,109,153576,1,8,0:0:0:0:
116,109,153849,1,8,0:0:0:0:
216,116,154667,1,0,0:0:0:0:
216,116,154940,1,0,0:0:0:0:
216,116,155485,1,8,0:0:0:0:
216,116,156031,1,0,0:0:0:0:
235,97,157122,1,0,0:0:0:0:
242,109,157667,1,0,0:0:0:0:
235,97,158212,1,8,0:0:0:0:
235,97,158758,1,8,0:0:0:0:
242,110,159303,1,0,0:0:0:0:
242,110,159576,1,0,0:0:0:0:
242,110,159849,1,0,0:0:0:0:
143,192,162576,1,8,0:0:0:0:
143,192,163667,1,8,0:0:0:0:
143,192,164212,1,8,0:0:0:0:
143,192,164758,1,8,0:0:0:0:
236,202,165849,1,8,0:0:0:0:
236,202,166394,1,8,0:0:0:0:
236,202,166940,1,8,0:0:0:0:
174,217,168031,1,8,0:0:0:0:
174,217,168576,1,8,0:0:0:0:
174,217,169122,1,8,0:0:0:0:
174,218,170212,1,4,0:0:0:0:
311,187,171303,1,0,0:0:0:0:
311,187,172394,1,8,0:0:0:0:
311,187,173485,1,0,0:0:0:0:
311,187,174576,1,8,0:0:0:0:
311,187,175122,1,0,0:0:0:0:
311,187,175667,1,0,0:0:0:0:
305,185,176758,1,8,0:0:0:0:
303,184,177849,1,0,0:0:0:0:
303,184,178667,1,0,0:0:0:0:
303,184,178940,1,0,0:0:0:0:
94,124,180031,1,4,0:0:0:0:
94,124,180577,1,8,0:0:0:0:
147,91,181122,1,0,0:0:0:0:
94,124,181395,1,0,0:0:0:0:
94,124,181668,1,0,0:0:0:0:
147,91,182213,1,8,0:0:0:0:
147,91,182758,1,0,0:0:0:0:
147,91,183304,1,8,0:0:0:0:
147,91,184395,1,0,0:0:0:0:
147,91,184940,1,8,0:0:0:0:
147,91,185486,1,0,0:0:0:0:
145,122,185758,1,0,0:0:0:0:
147,91,186031,1,0,0:0:0:0:
145,122,186577,1,0,0:0:0:0:
145,122,186849,1,0,0:0:0:0:
145,122,187122,1,0,0:0:0:0:
110,82,187940,1,6,0:0:0:0:
70,97,188486,1,0,0:0:0:0:
94,124,188758,1,4,0:0:0:0:
94,124,189304,1,8,0:0:0:0:
147,91,189849,1,0,0:0:0:0:
94,124,190122,1,0,0:0:0:0:
94,124,190395,1,0,0:0:0:0:
147,91,190940,1,8,0:0:0:0:
147,91,191485,1,0,0:0:0:0:
147,91,192031,1,8,0:0:0:0:
147,91,193122,1,0,0:0:0:0:
147,91,193667,1,8,0:0:0:0:
147,91,194213,1,8,0:0:0:0:
145,122,194485,1,8,0:0:0:0:
147,91,194758,1,8,0:0:0:0:
115,178,195304,1,0,0:0:0:0:
115,178,195577,1,0,0:0:0:0:
115,178,195849,1,0,0:0:0:0:
115,178,196122,1,0,0:0:0:0:
115,178,196395,1,0,0:0:0:0:
146,263,197485,1,0,0:0:0:0:
146,263,198031,1,0,0:0:0:0:
146,263,198303,1,0,0:0:0:0:
146,263,198576,1,0,0:0:0:0:
146,150,199667,1,4,0:0:0:0:
146,150,200076,1,8,0:0:0:0:
150,74,200758,1,8,0:0:0:0:
146,150,201303,1,8,0:0:0:0:
146,150,201849,1,0,0:0:0:0:
146,150,202394,1,0,0:0:0:0:
190,121,202667,1,0,0:0:0:0:
190,121,203212,1,0,0:0:0:0:
190,121,203485,1,0,0:0:0:0:
247,109,204030,1,8,0:0:0:0:
190,121,204849,1,8,0:0:0:0:
131,93,205667,1,0,0:0:0:0:
187,96,206212,1,8,0:0:0:0:
285,97,206758,1,8,0:0:0:0:
285,97,207303,1,0,0:0:0:0:
146,149,208394,1,4,0:0:0:0:
146,149,208803,1,8,0:0:0:0:
150,73,209485,1,8,0:0:0:0:
146,149,210030,1,8,0:0:0:0:
146,149,210576,1,0,0:0:0:0:
146,149,211121,1,0,0:0:0:0:
190,120,211394,1,0,0:0:0:0:
190,120,211939,1,0,0:0:0:0:
190,120,212212,1,0,0:0:0:0:
247,108,212757,1,8,0:0:0:0:
190,120,213576,1,8,0:0:0:0:
131,92,214394,1,0,0:0:0:0:
187,95,214939,1,8,0:0:0:0:
285,96,215485,1,8,0:0:0:0:
285,96,216030,1,0,0:0:0:0:
203,127,217121,1,4,0:0:0:0:
274,193,217940,1,0,0:0:0:0:
274,193,218212,1,0,0:0:0:0:
