osu file format v14

[General]
AudioFilename: audio.mp3
AudioLeadIn: 0
PreviewTime: 53084
Countdown: 0
SampleSet: Normal
StackLeniency: 0.7
Mode: 1
LetterboxInBreaks: 0
WidescreenStoryboard: 1

[Editor]
DistanceSpacing: 1.1
BeatDivisor: 4
GridSize: 32
TimelineZoom: 1

[Metadata]
Title:Toumei Elegy
TitleUnicode:透明エレジー
Artist:nameless
ArtistUnicode:nameless
Creator:mintong89
Version:Futsuu
Source:
Tags:n-buna ouka alice megpoid gumi utau vocaloid lop -S_a_I_k_A-
BeatmapID:1626013
BeatmapSetID:450585

[Difficulty]
HPDrainRate:5
CircleSize:5
OverallDifficulty:4
ApproachRate:5
SliderMultiplier:1.2
SliderTickRate:1

[Events]
//Background and Video events
0,0,"Itai.jpg",0,0
//Break Periods
//Storyboard Layer 0 (Background)
//Storyboard Layer 1 (Fail)
//Storyboard Layer 2 (Pass)
//Storyboard Layer 3 (Foreground)
//Storyboard Sound Samples

[TimingPoints]
1122,272.727272727273,4,1,0,70,1,0
1122,-133.333333333333,4,1,0,70,0,0
9849,-100,4,1,0,70,0,0
53485,-100,4,1,0,70,0,1
70940,-100,4,1,0,70,0,0
89417,-100,4,1,0,10,0,0
90508,-100,4,1,0,70,0,0
108031,-100,4,1,0,70,0,1
125485,-100,4,1,0,70,0,0
142940,-100,4,1,0,50,0,0
162576,-133.333333333333,4,1,0,70,0,0
179144,-100,4,1,0,20,0,0
180031,-100,4,1,0,70,0,1
199667,-100,4,1,0,70,0,0

[HitObjects]
219,120,1122,5,4,0:0:0:0:
205,126,1531,1,0,0:0:0:0:
205,126,1940,1,8,0:0:0:0:
205,126,2212,1,0,0:0:0:0:
205,126,3303,1,0,0:0:0:0:
273,164,3712,1,0,0:0:0:0:
273,164,4122,1,8,0:0:0:0:
273,164,4394,1,8,0:0:0:0:
273,164,5485,1,0,0:0:0:0:
273,164,5894,1,0,0:0:0:0:
273,164,6303,1,8,0:0:0:0:
255,99,6576,1,0,0:0:0:0:
255,99,7667,1,0,0:0:0:0:
255,99,8076,1,0,0:0:0:0:
284,171,8485,1,8,0:0:0:0:
292,144,8758,1,0,0:0:0:0:
206,211,9849,1,4,0:0:0:0:
162,277,10258,1,8,0:0:0:0:
134,234,10667,1,8,0:0:0:0:
134,234,10940,1,0,0:0:0:0:
134,234,11212,1,8,0:0:0:0:
134,234,11485,1,0,0:0:0:0:
86,112,11758,1,8,0:0:0:0:
31,165,12031,1,0,0:0:0:0:
31,165,12576,1,0,0:0:0:0:
86,112,12985,1,8,0:0:0:0:
176,141,13394,1,0,0:0:0:0:
176,141,13667,1,0,0:0:0:0:
176,141,14212,1,0,0:0:0:0:
176,141,14622,1,0,0:0:0:0:
178,160,15031,1,8,0:0:0:0:
184,136,15576,1,8,0:0:0:0:
184,136,15849,1,0,0:0:0:0:
184,136,16122,1,0,0:0:0:0:
184,136,16394,1,0,0:0:0:0:
184,136,16667,1,8,0:0:0:0:
184,136,16940,1,0,0:0:0:0:
184,136,17212,1,8,0:0:0:0:
184,136,17485,1,0,0:0:0:0:
184,136,18031,1,8,0:0:0:0:
29,149,18303,1,8,0:0:0:0:
206,211,18576,1,4,0:0:0:0:
162,277,18985,1,8,0:0:0:0:
134,234,19394,1,8,0:0:0:0:
134,234,19667,1,0,0:0:0:0:
134,234,19939,1,8,0:0:0:0:
134,234,20212,1,0,0:0:0:0:
86,112,20485,1,8,0:0:0:0:
31,165,20758,1,0,0:0:0:0:
31,165,21303,1,0,0:0:0:0:
86,112,21712,1,8,0:0:0:0:
176,141,22121,1,0,0:0:0:0:
176,141,22394,1,0,0:0:0:0:
176,141,22939,1,0,0:0:0:0:
176,141,23349,1,0,0:0:0:0:
178,160,23758,1,8,0:0:0:0:
184,136,24303,1,8,0:0:0:0:
184,136,24576,1,0,0:0:0:0:
184,136,24849,1,0,0:0:0:0:
184,136,25121,1,0,0:0:0:0:
184,136,25394,1,8,0:0:0:0:
184,136,25667,1,0,0:0:0:0:
184,136,25939,1,8,0:0:0:0:
184,136,26212,1,0,0:0:0:0:
184,136,26758,1,8,0:0:0:0:
29,149,27030,1,8,0:0:0:0:
158,198,27303,1,4,0:0:0:0:
211,107,28394,1,0,0:0:0:0:
219,136,29485,1,0,0:0:0:0:
219,136,29894,1,0,0:0:0:0:
219,136,30303,1,8,0:0:0:0:
219,136,30576,1,0,0:0:0:0:
217,142,31667,1,0,0:0:0:0:
217,142,32076,1,0,0:0:0:0:
217,142,32485,1,8,0:0:0:0:
217,142,32758,1,0,0:0:0:0:
217,142,33849,1,0,0:0:0:0:
217,142,34258,1,0,0:0:0:0:
217,142,34667,1,8,0:0:0:0:
217,142,34940,1,0,0:0:0:0:
28,129,35485,1,8,0:0:0:0:
214,165,36031,1,4,0:0:0:0:
231,177,36440,1,0,0:0:0:0:
231,177,36849,1,8,0:0:0:0:
231,177,37122,1,0,0:0:0:0:
231,177,37667,1,8,0:0:0:0:
75,119,38212,1,0,0:0:0:0:
75,119,38622,1,0,0:0:0:0:
75,119,39031,1,8,0:0:0:0:
133,113,39303,1,8,0:0:0:0:
133,113,39849,1,0,0:0:0:0:
165,140,40394,1,4,0:0:0:0:
133,113,40803,1,0,0:0:0:0:
133,113,41212,1,8,0:0:0:0:
133,113,41485,1,0,0:0:0:0:
68,166,42031,1,8,0:0:0:0:
165,140,42576,1,4,0:0:0:0:
51,138,42985,1,0,0:0:0:0:
51,138,43394,1,8,0:0:0:0:
168,147,43667,1,0,0:0:0:0:
198,113,43940,1,8,0:0:0:0:
198,113,44212,1,0,0:0:0:0:
198,113,44485,1,6,0:0:0:0:
198,113,44758,1,4,0:0:0:0:
141,110,45303,1,8,0:0:0:0:
172,113,45849,1,8,0:0:0:0:
233,132,46122,1,8,0:0:0:0:
233,132,46394,1,8,0:0:0:0:
172,113,46667,1,8,0:0:0:0:
172,113,46940,1,0,0:0:0:0:
172,113,47485,1,8,0:0:0:0:
172,113,48031,1,8,0:0:0:0:
233,132,48303,1,0,0:0:0:0:
233,132,48576,1,0,0:0:0:0:
169,78,48849,1,8,0:0:0:0:
119,136,49122,1,0,0:0:0:0:
212,85,49667,1,8,0:0:0:0:
212,85,50212,1,8,0:0:0:0:
212,85,50485,1,0,0:0:0:0:
194,59,50758,1,8,0:0:0:0:
169,76,51031,1,0,0:0:0:0:
169,76,51303,1,0,0:0:0:0:
169,76,51576,1,8,0:0:0:0:
169,76,51849,1,8,0:0:0:0:
125,112,52394,1,8,0:0:0:0:
125,112,52667,1,0,0:0:0:0:
125,112,52940,1,8,0:0:0:0:
218,171,53485,1,4,0:0:0:0:
218,171,54031,1,0,0:0:0:0:
222,81,54303,1,0,0:0:0:0:
222,81,54440,1,0,0:0:0:0:
222,81,54576,1,0,0:0:0:0:
222,81,54849,1,8,0:0:0:0:
222,81,55122,1,0,0:0:0:0:
222,81,55667,1,0,0:0:0:0:
218,171,55940,1,0,0:0:0:0:
218,171,56212,1,8,0:0:0:0:
218,171,56485,1,0,0:0:0:0:
218,171,56758,1,8,0:0:0:0:
191,128,57031,1,8,0:0:0:0:
191,128,57167,1,8,0:0:0:0:
191,128,57303,1,8,0:0:0:0:
184,138,57849,1,0,0:0:0:0:
221,83,58394,1,8,0:0:0:0:
221,83,58940,1,8,0:0:0:0:
221,83,59212,1,8,0:0:0:0:
221,83,59349,1,8,0:0:0:0:
221,83,59485,1,8,0:0:0:0:
221,83,59758,1,0,0:0:0:0:
221,83,60031,1,8,0:0:0:0:
150,84,60576,1,0,0:0:0:0:
150,84,60849,1,8,0:0:0:0:
150,84,61122,1,0,0:0:0:0:
150,84,61394,1,6,0:0:0:0:
151,116,61940,1,8,0:0:0:0:
218,171,62212,1,4,0:0:0:0:
218,171,62758,1,0,0:0:0:0:
222,81,63030,1,0,0:0:0:0:
222,81,63167,1,0,0:0:0:0:
222,81,63303,1,0,0:0:0:0:
222,81,63576,1,8,0:0:0:0:
222,81,63849,1,0,0:0:0:0:
222,81,64394,1,0,0:0:0:0:
200,89,64667,1,8,0:0:0:0:
200,89,64940,1,8,0:0:0:0:
198,89,65212,1,0,0:0:0:0:
200,89,65485,1,0,0:0:0:0:
200,89,65758,1,8,0:0:0:0:
198,89,66031,1,0,0:0:0:0:
198,89,66167,1,0,0:0:0:0:
198,89,66303,1,0,0:0:0:0:
182,93,66576,1,0,0:0:0:0:
221,83,67121,1,8,0:0:0:0:
221,83,67394,1,0,0:0:0:0:
221,83,67667,1,8,0:0:0:0:
221,83,67939,1,8,0:0:0:0:
221,83,68076,1,8,0:0:0:0:
221,83,68212,1,8,0:0:0:0:
221,83,68758,1,8,0:0:0:0:
150,84,69030,1,0,0:0:0:0:
150,84,69303,1,8,0:0:0:0:
150,84,69576,1,0,0:0:0:0:
144,120,69712,1,0,0:0:0:0:
150,84,69849,1,0,0:0:0:0:
215,153,70122,1,8,0:0:0:0:
215,153,70394,1,0,0:0:0:0:
215,153,70667,1,8,0:0:0:0:
239,200,70940,1,4,0:0:0:0:
239,200,71349,1,0,0:0:0:0:
239,200,71758,1,8,0:0:0:0:
239,200,72031,1,0,0:0:0:0:
192,64,72576,1,8,0:0:0:0:
196,172,73122,1,0,0:0:0:0:
160,96,73531,1,0,0:0:0:0:
195,172,73940,1,8,0:0:0:0:
196,172,74212,1,0,0:0:0:0:
273,152,74758,1,0,0:0:0:0:
260,157,75303,1,4,0:0:0:0:
338,146,75712,1,0,0:0:0:0:
338,146,76122,1,8,0:0:0:0:
338,146,76394,1,0,0:0:0:0:
192,128,76940,1,8,0:0:0:0:
225,175,77485,1,0,0:0:0:0:
192,128,77894,1,8,0:0:0:0:
160,160,78303,1,8,0:0:0:0:
227,143,78576,1,0,0:0:0:0:
227,143,79394,1,6,0:0:0:0:
256,64,79667,1,0,0:0:0:0:
256,64,79940,1,0,0:0:0:0:
256,64,80212,1,0,0:0:0:0:
160,96,80349,1,0,0:0:0:0:
256,64,80485,1,0,0:0:0:0:
192,128,80758,1,0,0:0:0:0:
192,128,81031,1,0,0:0:0:0:
192,128,81167,1,0,0:0:0:0:
192,128,81303,1,0,0:0:0:0:
241,102,81849,1,4,0:0:0:0:
120,144,82258,1,0,0:0:0:0:
120,144,82667,1,8,0:0:0:0:
120,144,82940,1,0,0:0:0:0:
164,186,84031,1,0,0:0:0:0:
164,186,84440,1,0,0:0:0:0:
164,186,84849,1,8,0:0:0:0:
164,186,85122,1,0,0:0:0:0:
155,162,86212,1,0,0:0:0:0:
155,162,86622,1,0,0:0:0:0:
155,162,87031,1,8,0:0:0:0:
155,162,87303,1,0,0:0:0:0:
256,192,88394,1,0,0:0:0:0:
155,162,88803,1,0,0:0:0:0:
155,162,89212,1,8,0:0:0:0:
64,160,89485,2,0,P|160:128|416:192,1,360
118,203,90576,1,4,0:0:0:0:
252,197,90985,1,0,0:0:0:0:
252,197,91394,1,8,0:0:0:0:
256,151,91667,1,0,0:0:0:0:
256,151,92212,1,0,0:0:0:0:
250,156,92758,1,0,0:0:0:0:
250,156,93167,1,0,0:0:0:0:
250,156,93576,1,8,0:0:0:0:
250,156,93849,1,0,0:0:0:0:
250,156,94394,1,8,0:0:0:0:
138,161,94940,1,4,0:0:0:0:
138,161,95349,1,0,0:0:0:0:
138,161,95758,1,8,0:0:0:0:
138,161,96031,1,0,0:0:0:0:
278,176,97122,1,4,0:0:0:0:
194,73,97667,1,8,0:0:0:0:
96,192,98212,1,0,0:0:0:0:
96,192,98485,1,0,0:0:0:0:
96,192,98758,1,0,0:0:0:0:
411,100,99031,1,6,0:0:0:0:
390,142,99303,1,4,0:0:0:0:
235,124,99849,1,8,0:0:0:0:
235,124,100122,1,8,0:0:0:0:
235,124,100394,1,0,0:0:0:0:
124,168,100667,1,8,0:0:0:0:
124,168,101212,1,8,0:0:0:0:
124,168,101485,1,0,0:0:0:0:
88,146,101758,1,0,0:0:0:0:
88,146,102031,1,8,0:0:0:0:
88,146,102576,1,0,0:0:0:0:
88,146,102849,1,8,0:0:0:0:
88,146,103394,1,8,0:0:0:0:
88,146,103667,1,0,0:0:0:0:
122,198,103940,1,0,0:0:0:0:
163,131,104212,1,8,0:0:0:0:
220,149,104758,1,0,0:0:0:0:
89,180,105031,1,8,0:0:0:0:
213,72,105303,1,0,0:0:0:0:
247,231,105576,1,8,0:0:0:0:
247,231,105849,1,0,0:0:0:0:
247,231,106394,1,8,0:0:0:0:
247,231,106667,1,8,0:0:0:0:
247,231,106940,1,0,0:0:0:0:
238,177,107212,1,8,0:0:0:0:
238,177,107485,1,0,0:0:0:0:
218,171,108031,1,4,0:0:0:0:
218,171,108577,1,0,0:0:0:0:
222,81,108849,1,0,0:0:0:0:
222,81,108986,1,0,0:0:0:0:
222,81,109122,1,0,0:0:0:0:
222,81,109395,1,8,0:0:0:0:
222,81,109668,1,0,0:0:0:0:
222,81,110213,1,0,0:0:0:0:
218,171,110486,1,0,0:0:0:0:
218,171,110758,1,8,0:0:0:0:
218,171,111031,1,0,0:0:0:0:
218,171,111304,1,8,0:0:0:0:
191,128,111577,1,8,0:0:0:0:
191,128,111713,1,8,0:0:0:0:
191,128,111849,1,8,0:0:0:0:
184,138,112395,1,0,0:0:0:0:
221,83,112940,1,8,0:0:0:0:
221,83,113486,1,8,0:0:0:0:
221,83,113758,1,8,0:0:0:0:
221,83,113895,1,8,0:0:0:0:
221,83,114031,1,8,0:0:0:0:
221,83,114304,1,0,0:0:0:0:
221,83,114577,1,8,0:0:0:0:
150,84,115122,1,0,0:0:0:0:
150,84,115395,1,8,0:0:0:0:
150,84,115668,1,0,0:0:0:0:
150,84,115940,1,6,0:0:0:0:
151,116,116486,1,8,0:0:0:0:
218,171,116758,1,4,0:0:0:0:
218,171,117304,1,0,0:0:0:0:
222,81,117576,1,0,0:0:0:0:
222,81,117713,1,0,0:0:0:0:
222,81,117849,1,0,0:0:0:0:
222,81,118122,1,8,0:0:0:0:
222,81,118395,1,0,0:0:0:0:
222,81,118940,1,0,0:0:0:0:
200,89,119213,1,8,0:0:0:0:
200,89,119486,1,8,0:0:0:0:
198,89,119758,1,0,0:0:0:0:
200,89,120031,1,0,0:0:0:0:
200,89,120304,1,8,0:0:0:0:
198,89,120577,1,0,0:0:0:0:
198,89,120713,1,0,0:0:0:0:
198,89,120849,1,0,0:0:0:0:
182,93,121122,1,0,0:0:0:0:
221,83,121667,1,8,0:0:0:0:
221,83,121940,1,0,0:0:0:0:
221,83,122213,1,8,0:0:0:0:
221,83,122485,1,8,0:0:0:0:
221,83,122622,1,8,0:0:0:0:
221,83,122758,1,8,0:0:0:0:
221,83,123304,1,8,0:0:0:0:
150,84,123576,1,0,0:0:0:0:
150,84,123849,1,8,0:0:0:0:
150,84,124122,1,0,0:0:0:0:
144,120,124258,1,0,0:0:0:0:
150,84,124395,1,0,0:0:0:0:
215,153,124668,1,8,0:0:0:0:
215,153,124940,1,0,0:0:0:0:
215,153,125213,1,8,0:0:0:0:
239,200,125486,1,4,0:0:0:0:
150,159,125758,1,0,0:0:0:0:
150,159,126031,1,8,0:0:0:0:
209,100,126440,1,8,0:0:0:0:
150,159,126849,1,8,0:0:0:0:
150,159,127122,1,0,0:0:0:0:
150,159,127394,1,8,0:0:0:0:
155,228,127667,1,8,0:0:0:0:
155,228,128212,1,8,0:0:0:0:
137,72,128758,1,0,0:0:0:0:
137,72,129031,1,0,0:0:0:0:
137,72,129167,1,0,0:0:0:0:
137,72,129303,1,0,0:0:0:0:
137,72,129576,1,8,0:0:0:0:
137,72,129849,1,0,0:0:0:0:
108,124,130258,1,8,0:0:0:0:
108,124,130667,1,8,0:0:0:0:
108,124,130940,1,0,0:0:0:0:
108,124,131349,1,8,0:0:0:0:
221,81,131758,1,8,0:0:0:0:
243,48,132031,1,0,0:0:0:0:
243,48,132303,1,0,0:0:0:0:
243,48,132576,1,0,0:0:0:0:
243,48,132849,1,8,0:0:0:0:
216,121,133122,1,4,0:0:0:0:
226,84,133940,1,8,0:0:0:0:
189,65,134212,1,4,0:0:0:0:
201,70,134758,1,8,0:0:0:0:
201,70,135031,1,8,0:0:0:0:
201,70,135303,1,0,0:0:0:0:
201,70,135849,1,8,0:0:0:0:
201,70,136122,1,0,0:0:0:0:
237,85,136394,1,0,0:0:0:0:
237,85,136940,1,0,0:0:0:0:
237,85,137212,1,8,0:0:0:0:
237,85,137485,1,0,0:0:0:0:
237,85,137758,1,0,0:0:0:0:
237,85,137894,1,0,0:0:0:0:
237,85,138031,1,0,0:0:0:0:
237,85,138303,1,8,0:0:0:0:
237,85,138576,1,0,0:0:0:0:
193,67,139394,1,8,0:0:0:0:
193,67,139667,1,8,0:0:0:0:
193,67,139940,1,0,0:0:0:0:
193,67,140212,1,8,0:0:0:0:
204,101,140758,1,0,0:0:0:0:
185,83,141031,1,0,0:0:0:0:
186,83,141167,1,0,0:0:0:0:
186,83,141303,1,0,0:0:0:0:
186,83,141576,1,8,0:0:0:0:
185,83,141849,1,8,0:0:0:0:
186,83,142122,1,8,0:0:0:0:
186,83,142258,1,8,0:0:0:0:
186,83,142394,1,8,0:0:0:0:
185,83,142667,1,8,0:0:0:0:
87,107,142940,1,4,0:0:0:0:
216,191,143758,1,8,0:0:0:0:
216,191,144031,1,0,0:0:0:0:
216,191,144849,1,0,0:0:0:0:
216,191,145122,1,0,0:0:0:0:
216,191,145940,1,8,0:0:0:0:
216,191,146212,1,0,0:0:0:0:
237,219,147031,1,0,0:0:0:0:
237,219,147303,1,0,0:0:0:0:
174,177,148122,1,0,0:0:0:0:
174,177,148258,1,0,0:0:0:0:
174,177,148531,1,0,0:0:0:0:
174,177,148803,1,0,0:0:0:0:
243,198,149212,1,0,0:0:0:0:
243,198,149485,1,0,0:0:0:0:
260,187,150031,1,8,0:0:0:0:
260,187,150576,1,0,0:0:0:0:
260,187,150849,1,0,0:0:0:0:
260,187,151122,1,8,0:0:0:0:
267,214,151667,1,4,0:0:0:0:
148,129,152485,1,8,0:0:0:0:
148,129,152758,1,0,0:0:0:0:
148,129,153576,1,0,0:0:0:0:
148,129,153849,1,0,0:0:0:0:
148,129,154667,1,8,0:0:0:0:
148,129,154940,1,0,0:0:0:0:
167,133,155758,1,0,0:0:0:0:
148,129,156031,1,0,0:0:0:0:
150,176,156849,1,0,0:0:0:0:
86,164,156985,1,0,0:0:0:0:
86,164,157122,1,0,0:0:0:0:
152,181,157394,1,0,0:0:0:0:
152,181,157667,1,8,0:0:0:0:
152,181,158212,1,0,0:0:0:0:
191,124,158485,1,0,0:0:0:0:
191,124,158758,1,8,0:0:0:0:
191,124,159031,1,0,0:0:0:0:
179,161,159303,1,0,0:0:0:0:
179,161,159576,1,0,0:0:0:0:
179,161,159849,1,8,0:0:0:0:
179,161,160122,1,8,0:0:0:0:
186,155,162576,1,8,0:0:0:0:
232,149,163667,1,8,0:0:0:0:
225,154,164212,1,8,0:0:0:0:
225,154,164758,1,8,0:0:0:0:
225,154,165849,1,8,0:0:0:0:
225,154,166394,1,8,0:0:0:0:
225,154,166940,1,8,0:0:0:0:
22,133,168031,1,8,0:0:0:0:
22,133,168576,1,8,0:0:0:0:
22,133,169122,1,8,0:0:0:0:
196,144,170212,1,4,0:0:0:0:
196,144,171031,1,8,0:0:0:0:
196,144,171303,1,0,0:0:0:0:
190,146,171849,1,8,0:0:0:0:
190,146,172394,1,0,0:0:0:0:
190,146,172667,1,0,0:0:0:0:
190,146,172940,1,8,0:0:0:0:
190,146,173485,1,0,0:0:0:0:
190,146,174031,1,8,0:0:0:0:
235,133,174576,1,0,0:0:0:0:
235,133,175122,1,8,0:0:0:0:
235,133,175667,1,4,0:0:0:0:
236,157,176485,1,8,0:0:0:0:
236,157,176758,1,0,0:0:0:0:
236,157,177303,1,8,0:0:0:0:
236,157,177576,1,8,0:0:0:0:
236,157,177849,1,0,0:0:0:0:
99,143,178667,1,8,0:0:0:0:
99,143,178940,1,0,0:0:0:0:
218,171,180031,1,4,0:0:0:0:
218,171,180577,1,0,0:0:0:0:
222,81,180849,1,0,0:0:0:0:
222,81,180986,1,0,0:0:0:0:
222,81,181122,1,0,0:0:0:0:
222,81,181395,1,8,0:0:0:0:
222,81,181668,1,0,0:0:0:0:
222,81,182213,1,0,0:0:0:0:
218,171,182486,1,0,0:0:0:0:
218,171,182758,1,8,0:0:0:0:
218,171,183031,1,0,0:0:0:0:
218,171,183304,1,8,0:0:0:0:
191,128,183577,1,8,0:0:0:0:
191,128,183713,1,8,0:0:0:0:
191,128,183849,1,8,0:0:0:0:
184,138,184395,1,0,0:0:0:0:
221,83,184940,1,8,0:0:0:0:
221,83,185213,1,0,0:0:0:0:
221,83,185486,1,8,0:0:0:0:
221,83,185758,1,8,0:0:0:0:
221,83,185895,1,8,0:0:0:0:
221,83,186031,1,8,0:0:0:0:
221,83,186577,1,8,0:0:0:0:
150,84,186849,1,0,0:0:0:0:
150,84,186986,1,0,0:0:0:0:
150,84,187122,1,0,0:0:0:0:
150,84,187395,1,8,0:0:0:0:
150,84,187668,1,0,0:0:0:0:
150,84,187940,1,6,0:0:0:0:
151,116,188486,1,8,0:0:0:0:
218,171,188758,1,4,0:0:0:0:
218,171,189304,1,0,0:0:0:0:
222,81,189576,1,0,0:0:0:0:
222,81,189713,1,0,0:0:0:0:
222,81,189849,1,0,0:0:0:0:
222,81,190122,1,8,0:0:0:0:
222,81,190395,1,0,0:0:0:0:
222,81,190940,1,0,0:0:0:0:
200,89,191213,1,8,0:0:0:0:
200,89,191486,1,8,0:0:0:0:
198,89,191758,1,0,0:0:0:0:
200,89,192031,1,0,0:0:0:0:
200,89,192304,1,8,0:0:0:0:
198,89,192577,1,0,0:0:0:0:
198,89,192713,1,0,0:0:0:0:
198,89,192849,1,0,0:0:0:0:
182,93,193122,1,0,0:0:0:0:
221,83,193667,1,8,0:0:0:0:
221,83,193940,1,0,0:0:0:0:
221,83,194213,1,8,0:0:0:0:
221,83,194485,1,8,0:0:0:0:
221,83,194622,1,8,0:0:0:0:
221,83,194758,1,8,0:0:0:0:
221,83,195031,1,0,0:0:0:0:
221,83,195304,1,8,0:0:0:0:
150,84,195849,1,8,0:0:0:0:
150,84,196122,1,0,0:0:0:0:
150,84,196395,1,0,0:0:0:0:
215,153,196668,1,8,0:0:0:0:
215,153,196940,1,0,0:0:0:0:
215,153,197213,1,8,0:0:0:0:
247,149,197485,1,0,0:0:0:0:
177,213,197758,1,0,0:0:0:0:
177,213,198031,1,0,0:0:0:0:
224,113,198167,1,0,0:0:0:0:
224,113,198303,1,0,0:0:0:0:
247,149,198576,1,0,0:0:0:0:
311,147,199394,1,6,0:0:0:0:
206,211,199667,1,4,0:0:0:0:
162,277,200076,1,8,0:0:0:0:
134,234,200485,1,8,0:0:0:0:
134,234,200758,1,0,0:0:0:0:
134,234,201030,1,8,0:0:0:0:
134,234,201303,1,0,0:0:0:0:
86,112,201576,1,8,0:0:0:0:
31,165,201849,1,0,0:0:0:0:
31,165,202394,1,0,0:0:0:0:
86,112,202803,1,8,0:0:0:0:
176,141,203212,1,0,0:0:0:0:
176,141,203485,1,0,0:0:0:0:
176,141,204030,1,0,0:0:0:0:
176,141,204440,1,0,0:0:0:0:
178,160,204849,1,8,0:0:0:0:
184,136,205394,1,8,0:0:0:0:
184,136,205667,1,0,0:0:0:0:
184,136,205940,1,0,0:0:0:0:
184,136,206212,1,0,0:0:0:0:
184,136,206485,1,8,0:0:0:0:
184,136,206758,1,0,0:0:0:0:
184,136,207030,1,8,0:0:0:0:
184,136,207303,1,0,0:0:0:0:
184,136,207849,1,8,0:0:0:0:
29,149,208121,1,8,0:0:0:0:
206,211,208394,1,4,0:0:0:0:
162,277,208803,1,8,0:0:0:0:
134,234,209212,1,8,0:0:0:0:
134,234,209485,1,0,0:0:0:0:
134,234,209757,1,8,0:0:0:0:
134,234,210030,1,0,0:0:0:0:
86,112,210303,1,8,0:0:0:0:
31,165,210576,1,0,0:0:0:0:
31,165,211121,1,0,0:0:0:0:
86,112,211530,1,8,0:0:0:0:
176,141,211939,1,0,0:0:0:0:
176,141,212212,1,0,0:0:0:0:
176,141,212757,1,0,0:0:0:0:
176,141,213167,1,0,0:0:0:0:
178,160,213576,1,8,0:0:0:0:
184,136,214121,1,8,0:0:0:0:
184,136,214394,1,0,0:0:0:0:
184,136,214667,1,0,0:0:0:0:
184,136,214939,1,0,0:0:0:0:
184,136,215212,1,8,0:0:0:0:
184,136,215485,1,0,0:0:0:0:
184,136,215757,1,8,0:0:0:0:
184,136,216031,1,0,0:0:0:0:
184,136,216576,1,8,0:0:0:0:
29,149,216848,1,8,0:0:0:0:
158,198,217121,1,4,0:0:0:0:
211,107,217530,1,0,0:0:0:0:
211,107,217940,1,8,0:0:0:0:
211,107,218212,1,0,0:0:0:0:
