osu file format v14

[General]
AudioFilename: audio.mp3
AudioLeadIn: 0
PreviewTime: 26962
Countdown: 0
SampleSet: Soft
StackLeniency: 0.7
Mode: 0
LetterboxInBreaks: 0
WidescreenStoryboard: 0

[Editor]
Bookmarks: 1122,9849,27303,30576,36031,39303,44758,53485,70940,79667,88394,98758,108031,116758,125485,145122,164758
DistanceSpacing: 0.3
BeatDivisor: 4
GridSize: 32
TimelineZoom: 1.799999

[Metadata]
Title:Toumei Elegy
TitleUnicode:透明エレジー
Artist:nameless
ArtistUnicode:nameless
Creator:Sotarks
Version:Mir's Extra
Source:
Tags:櫻花アリス ナブナmegpoid gumi utau vocaloid konuko utaite akitoshi corinn kalibe irohas mugiwarasekai mir snownino_ milan-
BeatmapID:1538458
BeatmapSetID:723730

[Difficulty]
HPDrainRate:6
CircleSize:4
OverallDifficulty:8.5
ApproachRate:9.5
SliderMultiplier:2
SliderTickRate:1

[Events]
//Background and Video events
0,0,"Ittai.jpg",0,0
//Break Periods
//Storyboard Layer 0 (Background)
//Storyboard Layer 1 (Fail)
//Storyboard Layer 2 (Pass)
//Storyboard Layer 3 (Foreground)
//Storyboard Sound Samples

[TimingPoints]
1122,272.727272727273,4,2,22,50,1,0
1122,-153.846153846153,4,2,22,50,0,0
5212,-100,4,2,22,50,0,0
5758,-153.846153846153,4,2,22,50,0,0
9849,-100,4,2,22,70,0,0
27303,-133.333333333333,4,2,22,50,0,0
32485,-66.6666666666667,4,2,22,50,0,0
33576,-200,4,2,22,50,0,0
33849,-133.333333333333,4,2,22,50,0,0
41212,-100,4,2,22,50,0,0
42303,-133.333333333333,4,2,22,50,0,0
44758,-125,4,2,22,50,0,0
52940,-100,4,2,22,50,0,0
53212,-333.333333333333,4,2,22,50,0,0
53485,-83.3333333333333,4,2,22,90,0,1
61394,-66.6666666666667,4,2,22,90,0,1
61667,-83.3333333333333,4,2,22,90,0,1
62076,-83.3333333333333,4,2,22,90,0,0
62212,-83.3333333333333,4,2,22,90,0,1
70940,-83.3333333333333,4,2,22,80,0,0
88394,-125,4,2,22,50,0,0
91667,-83.3333333333333,4,2,22,50,0,0
91803,-66.6666666666667,4,2,22,5,0,0
92349,-125,4,2,22,50,0,0
108031,-125,4,2,22,30,0,0
116758,-166.666666666667,4,2,22,50,0,0
125485,-83.3333333333333,4,2,22,90,0,1
133394,-66.6666666666667,4,2,22,90,0,1
133494,-83.3333333333333,4,2,22,90,0,1
134212,-83.3333333333333,4,2,22,90,0,1
144303,-200,4,2,22,70,0,0
145122,-100,4,2,22,70,0,0
162576,-200,4,2,22,70,0,0

[Colours]
Combo1 : 253,216,159
Combo2 : 204,200,200
Combo3 : 108,108,108
Combo4 : 252,158,160

[HitObjects]
88,123,1122,6,0,L|178:114,1,64.9999970245363,6|0,1:2|0:0,0:0:0:0:
209,58,1394,2,0,L|283:63,1,64.9999970245363,2|0,0:0|1:2,0:0:0:0:
365,66,1667,2,0,P|385:119|352:200,1,129.999994049073,2|10,0:0|0:0,0:0:0:0:
364,186,2076,1,2,0:0:0:0:
282,216,2212,6,0,P|279:248|298:283,1,64.9999970245363,2|2,1:0|0:0,0:0:0:0:
223,320,2485,2,0,P|243:344|281:356,1,64.9999970245363,2|2,0:0|1:0,0:0:0:0:
196,239,2758,2,0,P|120:231|63:263,1,129.999994049073,2|10,0:0|0:0,0:0:0:0:
73,253,3167,1,2,0:0:0:0:
101,80,3303,6,0,P|111:121|117:170,1,64.9999970245363,2|0,1:0|0:0,0:0:0:0:
124,323,3576,1,2,0:0:0:0:
124,323,3712,1,2,1:0:0:0:
210,175,3849,2,0,P|201:206|195:238,1,64.9999970245363,2|0,0:0|0:0,0:0:0:0:
290,77,4122,2,0,P|298:108|304:140,1,64.9999970245363,10|0,0:0|0:0,0:0:0:0:
314,290,4394,5,2,1:0:0:0:
300,77,4667,2,0,P|308:108|314:140,1,64.9999970245363,2|0,0:0|1:0,0:0:0:0:
313,301,4939,5,2,0:0:0:0:
304,55,5212,2,0,P|312:86|319:178,1,100,10|0,0:0|0:0,0:0:0:0:
308,375,5484,5,6,1:0:0:0:
308,375,5894,2,0,P|235:349|155:363,1,129.999994049073,0|0,1:0|0:0,0:0:0:0:
103,373,6303,2,0,P|88:329|84:302,1,64.9999970245363,10|2,0:0|0:0,0:0:0:0:
200,212,6576,6,0,P|126:212|75:172,1,129.999994049073,2|2,1:0|0:0,0:0:0:0:
81,181,6985,1,0,1:0:0:0:
151,62,7122,2,0,P|162:110|159:147,1,64.9999970245363,2|0,0:0|0:0,0:0:0:0:
25,248,7394,1,10,0:0:0:0:
254,137,7667,6,0,P|307:137|393:163,1,129.999994049073,2|0,1:0|0:0,0:0:0:0:
380,157,8076,1,0,1:0:0:0:
304,364,8212,2,0,L|310:210,1,129.999994049073,2|10,0:0|0:0,0:0:0:0:
308,234,8758,5,2,1:0:0:0:
193,251,8894,1,2,0:0:0:0:
123,156,9031,1,2,0:0:0:0:
172,55,9167,1,2,0:0:0:0:
204,187,9303,6,0,P|202:215|183:268,1,64.9999970245363,2|0,0:0|0:0,0:0:0:0:
99,324,9576,2,0,P|89:293|87:260,1,64.9999970245363,2|0,0:0|0:0,0:0:0:0:
371,272,9849,6,0,B|267:251|308:374|155:333,1,200,6|10,1:0|0:0,0:0:0:0:
91,341,10258,2,0,P|81:310|80:234,1,100,2|0,1:0|0:0,0:0:0:0:
143,187,10531,1,2,1:0:0:0:
0,236,10667,1,10,0:0:0:0:
56,159,10803,1,2,0:0:0:0:
160,271,10940,6,0,P|228:270|269:250,1,100,2|2,1:0|0:0,0:0:0:0:
277,243,11144,1,0,0:0:0:0:
289,221,11212,2,0,L|308:122,1,100,10|0,0:0|1:0,0:0:0:0:
308,122,11485,1,2,0:0:0:0:
286,42,11622,1,2,0:0:0:0:
195,183,11758,1,10,0:0:0:0:
174,7,11894,1,2,0:0:0:0:
110,84,12031,6,0,P|188:100|224:95,1,100,6|0,1:0|0:0,0:0:0:0:
286,42,12303,1,10,0:0:0:0:
286,42,12440,1,4,1:0:0:0:
438,109,12576,6,0,P|360:125|324:120,1,100,2|0,0:0|1:0,0:0:0:0:
286,42,12849,1,10,0:0:0:0:
207,98,12985,2,0,P|191:176|196:212,1,100,2|0,0:0|1:0,0:0:0:0:
231,287,13258,1,0,0:0:0:0:
397,238,13394,6,0,P|336:225|257:223,1,100,8|0,0:0|1:0,0:0:0:0:
42,287,13667,2,0,P|103:274|182:272,1,100,0|0,0:0|1:0,0:0:0:0:
281,384,13940,1,8,0:0:0:0:
231,287,14076,1,0,0:0:0:0:
311,180,14212,6,0,P|318:106|196:48,1,200,6|8,1:0|0:0,0:0:0:0:
39,132,14622,2,0,B|83:161|132:139|132:133|132:128|181:106|235:144,1,200,0|0,1:0|1:0,0:0:0:0:
145,307,15031,2,0,P|150:248|191:197,1,100,8|0,0:0|0:0,0:0:0:0:
231,287,15303,5,0,1:0:0:0:
59,277,15440,2,0,P|60:326|84:369,1,100,0|8,0:0|0:0,0:0:0:0:
326,281,15712,2,0,P|267:272|217:297,2,100,0|0|0,1:0|0:0|1:0,0:0:0:0:
409,370,16122,2,0,L|419:183,1,150,8|0,0:0|0:0,0:0:0:0:
417,220,16394,6,0,P|463:204|512:214,1,100,0|0,1:0|0:0,0:0:0:0:
467,297,16667,1,8,0:0:0:0:
358,50,16803,2,0,L|354:177,1,100,0|0,0:0|0:0,0:0:0:0:
417,220,17076,1,0,1:0:0:0:
163,137,17212,2,0,P|209:121|258:131,1,100,8|0,0:0|0:0,0:0:0:0:
219,311,17485,6,0,L|210:186,1,100,4|0,1:0|0:0,0:0:0:0:
82,69,17758,2,0,L|74:168,1,100,8|0,0:0|1:0,0:0:0:0:
219,311,18031,2,0,P|145:286|88:319,1,100,0|0,0:0|1:0,0:0:0:0:
44,333,18303,1,8,0:0:0:0:
332,341,18576,5,6,1:0:0:0:
293,249,18712,1,2,0:0:0:0:
341,161,18849,1,10,0:0:0:0:
439,147,18985,1,2,1:0:0:0:
439,147,19258,1,2,1:0:0:0:
341,161,19394,1,10,0:0:0:0:
264,95,19531,1,2,0:0:0:0:
341,161,19667,5,2,1:0:0:0:
264,95,19803,1,2,0:0:0:0:
171,134,19940,2,0,P|106:129|44:134,1,100,10|0,0:0|1:0,0:0:0:0:
17,206,20212,1,2,0:0:0:0:
75,46,20349,1,2,0:0:0:0:
116,206,20485,1,10,0:0:0:0:
71,130,20622,1,2,0:0:0:0:
128,236,20758,6,0,P|201:252|251:249,1,100,6|0,1:0|0:0,0:0:0:0:
317,183,21031,1,10,0:0:0:0:
317,183,21167,1,4,1:0:0:0:
482,263,21303,6,0,P|409:279|359:276,1,100,2|0,0:0|1:0,0:0:0:0:
317,183,21576,1,10,0:0:0:0:
407,25,21712,2,0,L|402:152,2,100,2|0|0,0:0|1:0|0:0,0:0:0:0:
219,167,22122,2,0,P|292:183|342:180,1,100,10|0,0:0|1:0,0:0:0:0:
112,141,22394,2,0,P|134:212|162:254,1,100,2|0,0:0|1:0,0:0:0:0:
237,293,22667,1,10,0:0:0:0:
219,167,22803,1,2,0:0:0:0:
41,248,22940,6,0,P|19:182|17:81,1,150,6|0,1:0|0:0,0:0:0:0:
14,102,23212,1,8,0:0:0:0:
197,55,23349,2,0,P|126:58|89:46,1,100,2|0,1:0|0:0,0:0:0:0:
34,1,23622,1,0,1:0:0:0:
277,9,23758,6,0,B|307:68|276:103|271:103|267:103|247:148|274:222,1,200,10|0,0:0|1:0,0:0:0:0:
267,201,24167,1,2,0:0:0:0:
342,153,24303,1,8,0:0:0:0:
191,254,24440,2,0,P|135:255|64:224,1,100,2|0,1:0|0:0,0:0:0:0:
32,136,24712,1,2,1:0:0:0:
99,336,24849,1,10,0:0:0:0:
143,162,24985,1,2,0:0:0:0:
226,341,25122,6,0,P|300:338|368:307,1,150,6|0,1:0|0:0,0:0:0:0:
368,307,25394,1,10,0:0:0:0:
455,379,25531,1,2,1:0:0:0:
380,220,25667,2,0,P|381:159|393:100,1,100,2|0,0:0|1:0,0:0:0:0:
480,17,25940,2,0,P|487:66|487:116,1,100,10|0,0:0|0:0,0:0:0:0:
124,76,26212,5,6,1:0:0:0:
124,76,26485,1,8,0:0:0:0:
149,154,26622,2,0,P|213:151|258:141,1,100,0|0,1:0|0:0,0:0:0:0:
263,63,26894,1,0,1:0:0:0:
68,194,27031,1,8,0:0:0:0:
361,360,27303,6,0,L|373:188,1,150.000005722046,6|2,1:0|0:0,0:0:0:0:
343,76,27712,2,0,L|353:225,1,150.000005722046,0|0,1:0|0:0,0:0:0:0:
371,210,28122,1,10,0:0:0:0:
199,199,28394,5,2,1:0:0:0:
199,199,28667,1,2,0:0:0:0:
199,199,28940,1,2,0:0:0:0:
199,199,29212,1,2,0:0:0:0:
49,215,29485,6,0,L|228:195,1,150.000005722046,2|0,1:0|0:0,0:0:0:0:
353,245,29894,2,0,L|174:225,1,150.000005722046,0|0,1:0|0:0,0:0:0:0:
198,198,30303,1,10,0:0:0:0:
358,349,30576,5,2,1:0:0:0:
358,349,30849,1,2,0:0:0:0:
358,349,31122,1,2,0:0:0:0:
358,349,31394,1,2,0:0:0:0:
482,313,31667,6,0,B|493:266|493:266|456:150,1,150.000005722046,2|0,1:0|0:0,0:0:0:0:
456,5,32076,2,0,B|425:101|425:101|436:148,1,150.000005722046,0|0,1:0|0:0,0:0:0:0:
462,169,32485,2,0,P|374:152|258:219,1,225.000008583069,8|0,0:0|0:0,0:0:0:0:
260,215,32758,5,0,1:0:0:0:
260,215,33576,2,0,P|274:168|265:131,1,75,0|0,0:0|0:0,0:0:0:0:
267,121,33849,6,0,L|87:134,1,150.000005722046,0|0,1:0|0:0,0:0:0:0:
0,105,34258,2,0,L|180:118,1,150.000005722046,0|0,1:0|0:0,0:0:0:0:
117,131,34667,1,8,0:0:0:0:
118,323,34940,1,0,1:0:0:0:
118,323,35212,6,0,P|179:309|269:355,1,150.000005722046,2|0,3:0|0:0,0:0:0:0:
296,361,35576,2,0,P|340:354|388:316,1,100.000003814697,0|8,1:0|0:0,0:0:0:0:
416,72,36031,6,0,P|329:114|348:173,1,150.000005722046,6|2,1:0|1:0,0:0:0:0:
378,256,36440,2,0,P|364:186|294:175,1,150.000005722046,0|0,1:0|1:0,0:0:0:0:
260,199,36849,1,8,0:0:0:0:
260,199,37122,6,0,P|250:249|254:288,1,75.0000028610231,2|0,1:0|1:0,0:0:0:0:
170,95,37394,2,0,P|180:145|176:184,1,75.0000028610231,2|0,1:0|1:0,0:0:0:0:
91,247,37667,2,0,P|81:197|85:158,1,75.0000028610231,2|0,0:0|1:0,0:0:0:0:
1,351,37940,1,10,0:0:0:0:
1,351,38212,6,0,P|78:328|152:348,1,150.000005722046,6|0,1:0|0:0,0:0:0:0:
318,356,38622,2,0,P|241:379|167:359,1,150.000005722046,0|0,1:0|0:0,0:0:0:0:
144,343,39031,1,10,0:0:0:0:
144,343,39303,6,0,P|144:286|152:247,1,75.0000028610231,2|0,1:0|1:0,0:0:0:0:
230,250,39576,2,0,P|230:193|222:154,1,75.0000028610231,2|0,1:0|1:0,0:0:0:0:
316,353,39849,2,0,P|316:296|324:257,1,75.0000028610231,2|0,0:0|1:0,0:0:0:0:
402,260,40122,2,0,P|402:203|394:164,1,75.0000028610231,10|0,0:0|0:0,0:0:0:0:
197,89,40394,6,0,P|272:89|353:69,1,150.000005722046,6|0,1:0|0:0,0:0:0:0:
512,71,40803,2,0,P|437:71|356:51,1,150.000005722046,0|0,1:0|0:0,0:0:0:0:
344,72,41212,2,0,P|331:155|370:235,1,150,10|0,0:0|0:0,0:0:0:0:
359,224,41485,5,2,1:0:0:0:
359,224,41894,1,0,1:0:0:0:
359,224,42303,2,0,P|321:235|255:232,1,75.0000028610231,10|0,0:0|0:0,0:0:0:0:
192,320,42576,6,0,P|194:270|203:220,1,75.0000028610231,2|0,1:0|0:0,0:0:0:0:
187,18,42849,2,0,P|191:55|192:92,1,75.0000028610231,2|4,0:0|3:0,0:0:0:0:
51,222,43122,1,8,3:0:0:0:
51,222,43394,2,0,P|104:214|147:225,1,75.0000028610231,10|0,0:0|0:0,0:0:0:0:
285,236,43667,5,2,1:0:0:0:
285,236,43940,1,8,3:0:0:0:
366,271,44076,1,8,3:0:0:0:
441,225,44212,2,0,P|450:170|444:138,1,75.0000028610231,12|0,3:0|0:0,0:0:0:0:
372,32,44485,2,0,P|369:69|378:105,1,75.0000028610231,12|0,0:0|0:0,0:0:0:0:
423,344,44758,6,0,P|318:316|249:334,1,160,6|0,1:0|0:0,0:0:0:0:
173,367,45167,1,0,0:0:0:0:
173,367,45303,2,0,P|166:316|173:255,1,80,8|0,0:0|0:0,0:0:0:0:
250,156,45576,2,0,P|250:195|244:235,1,80,2|0,0:0|1:0,0:0:0:0:
239,244,45781,1,8,0:0:0:0:
233,252,45849,1,2,1:0:0:0:
26,94,46122,5,2,0:0:0:0:
26,94,46258,1,0,0:0:0:0:
100,56,46394,2,0,P|145:64|178:79,1,80,2|0,1:0|0:0,0:0:0:0:
224,145,46667,2,0,P|259:145|285:136,2,60,2|0|0,1:0|0:0|0:0,0:0:0:0:
194,155,46940,6,0,B|179:202|189:260,1,80,6|0,1:0|0:0,0:0:0:0:
267,358,47212,2,0,B|273:325|258:278,1,80,2|0,0:0|1:0,0:0:0:0:
100,56,47485,1,10,0:0:0:0:
100,56,47758,1,10,0:0:0:0:
152,133,47894,1,0,1:0:0:0:
152,133,48031,6,0,P|233:115|299:131,1,120,2|0,1:0|0:0,0:0:0:0:
268,120,48303,1,12,0:0:0:0:
337,182,48440,1,0,1:0:0:0:
411,125,48576,2,0,P|420:74|420:40,1,80,2|0,0:0|1:0,0:0:0:0:
448,270,48849,1,10,3:0:0:0:
480,184,48985,1,4,3:0:0:0:
373,325,49122,6,0,P|288:292|196:311,1,160,2|0,1:0|0:0,0:0:0:0:
136,289,49531,1,4,1:0:0:0:
136,289,49667,2,0,P|123:221|131:191,1,80,0|0,0:0|0:0,0:0:0:0:
219,94,49940,2,0,P|220:133|207:171,1,80,2|0,0:0|1:0,0:0:0:0:
203,179,50144,1,8,0:0:0:0:
199,185,50212,5,2,1:0:0:0:
298,160,50485,2,0,P|349:155|389:164,1,80,2|0,0:0|0:0,0:0:0:0:
423,87,50758,2,0,P|462:119|484:154,1,80,2|0,0:0|0:0,0:0:0:0:
35,85,51031,1,10,3:0:0:0:
35,85,51303,6,0,P|113:95|193:55,1,160,0|8,1:0|0:0,0:0:0:0:
185,62,51712,1,0,1:0:0:0:
154,168,51849,2,0,P|144:222|149:263,1,80,0|0,0:0|1:0,0:0:0:0:
70,346,52122,2,0,P|70:306|61:267,1,80,8|4,0:0|3:0,0:0:0:0:
287,249,52394,6,0,P|207:216|140:252,1,160,2|10,1:0|0:0,0:0:0:0:
215,302,52803,1,0,0:0:0:0:
360,205,52940,2,0,P|361:163|330:102,1,100,2|0,1:0|0:0,0:0:0:0:
372,214,53212,6,0,P|373:177|371:163,1,44.999998626709,2|0,0:0|0:0,0:0:0:0:
382,169,53485,6,0,P|380:243|343:327,1,119.999996337891,6|0,1:0|0:0,0:0:0:0:
299,348,53758,1,8,0:0:0:0:
217,162,53894,1,2,0:0:0:0:
217,162,54031,2,0,P|216:221|232:279,1,119.999996337891,2|0,1:0|0:0,0:0:0:0:
289,92,54303,1,8,0:0:0:0:
130,211,54440,1,2,0:0:0:0:
130,211,54576,6,0,P|52:210|1:178,1,119.999996337891,6|0,1:0|0:0,0:0:0:0:
175,72,54849,2,0,P|234:68|288:91,1,119.999996337891,10|0,0:0|0:0,0:0:0:0:
348,319,55122,2,0,L|333:162,1,119.999996337891,2|0,1:0|0:0,0:0:0:0:
444,37,55394,2,0,L|434:156,1,119.999996337891,10|2,0:0|0:0,0:0:0:0:
240,235,55667,6,0,B|155:208|150:279|48:235,1,179.999994506836,6|0,1:0|0:0,0:0:0:0:
38,226,55940,2,0,P|31:300|57:358,1,119.999996337891,10|0,0:0|0:0,0:0:0:0:
204,312,56212,1,2,1:0:0:0:
107,161,56349,1,0,0:0:0:0:
61,350,56485,1,10,0:0:0:0:
240,235,56622,6,0,P|257:178|248:119,1,119.999996337891,2|2,0:0|1:0,0:0:0:0:
164,48,56894,1,2,1:0:0:0:
34,180,57031,2,0,L|184:162,1,119.999996337891,10|0,0:0|0:0,0:0:0:0:
367,133,57303,2,0,L|247:118,1,119.999996337891,2|0,1:0|1:0,0:0:0:0:
164,48,57576,1,10,0:0:0:0:
240,235,57712,1,2,0:0:0:0:
418,205,57849,6,0,B|444:182|451:147|451:147|508:245|416:323,1,239.999992675781,6|8,1:0|0:0,0:0:0:0:
347,263,58258,1,2,0:0:0:0:
367,133,58394,2,0,L|347:14,1,119.999996337891,2|0,1:0|0:0,0:0:0:0:
418,205,58667,1,8,0:0:0:0:
266,67,58803,1,2,0:0:0:0:
44,203,58940,6,0,P|129:203|182:186,1,119.999996337891,6|0,1:0|0:0,0:0:0:0:
266,67,59212,2,0,P|181:67|128:84,1,119.999996337891,10|0,0:0|0:0,0:0:0:0:
261,301,59485,2,0,L|265:162,1,119.999996337891,2|0,1:0|0:0,0:0:0:0:
147,76,59758,1,10,0:0:0:0:
44,203,59894,1,2,0:0:0:0:
264,181,60031,6,0,P|321:185|426:173,1,119.999996337891,6|0,1:0|0:0,0:0:0:0:
325,94,60303,1,10,0:0:0:0:
385,270,60440,1,2,0:0:0:0:
488,92,60576,2,0,L|474:211,1,119.999996337891,10|2,0:0|1:0,0:0:0:0:
448,353,60849,1,10,0:0:0:0:
383,180,60985,1,2,1:0:0:0:
201,333,61122,5,2,0:0:0:0:
201,333,61394,2,0,B|215:295|193:257|193:257|211:211|211:211|175:169|193:63,1,225.000008583069,14|0,0:0|0:0,0:0:0:0:
298,99,61667,2,0,P|225:128|171:111,1,119.999996337891,6|0,1:0|0:0,0:0:0:0:
56,40,61940,2,0,B|82:97|82:97|71:180,1,119.999996337891,14|0,0:0|0:0,0:0:0:0:
305,324,62212,6,0,B|248:370|181:329|182:324|182:320|133:289|78:327,1,239.999992675781,6|8,1:0|0:0,0:0:0:0:
241,140,62622,1,2,0:0:0:0:
241,140,62758,2,0,P|252:220|233:286,1,119.999996337891,2|0,1:0|0:0,0:0:0:0:
190,351,63031,1,8,0:0:0:0:
94,113,63167,1,2,0:0:0:0:
94,113,63303,6,0,P|83:193|102:259,1,119.999996337891,6|0,1:0|0:0,0:0:0:0:
316,105,63576,2,0,P|265:61|180:84,1,119.999996337891,10|0,0:0|0:0,0:0:0:0:
244,257,63849,2,0,L|401:249,1,119.999996337891,2|0,1:0|0:0,0:0:0:0:
495,239,64122,1,10,0:0:0:0:
421,104,64258,1,2,0:0:0:0:
368,368,64394,6,0,P|356:309|363:250,1,119.999996337891,6|0,1:0|0:0,0:0:0:0:
474,215,64667,1,10,0:0:0:0:
305,168,64803,1,0,0:0:0:0:
413,21,64940,2,0,P|420:80|408:138,1,119.999996337891,2|0,1:0|0:0,0:0:0:0:
208,161,65212,1,10,0:0:0:0:
131,108,65349,6,0,P|206:71|303:188,1,239.999992675781,2|2,0:0|1:0,0:0:0:0:
197,280,65758,2,0,P|201:206|209:154,1,119.999996337891,10|0,0:0|0:0,0:0:0:0:
240,55,66031,1,2,1:0:0:0:
131,108,66167,1,0,1:0:0:0:
304,167,66303,1,10,0:0:0:0:
124,215,66440,1,2,0:0:0:0:
314,148,66576,6,0,B|388:100|488:129|488:129|460:194,1,239.999992675781,6|8,1:0|0:0,0:0:0:0:
390,228,66985,1,2,0:0:0:0:
349,41,67122,1,2,1:0:0:0:
198,171,67258,2,0,P|258:170|313:147,1,119.999996337891,0|8,0:0|0:0,0:0:0:0:
339,20,67531,1,2,0:0:0:0:
125,224,67667,6,0,P|116:136|157:86,1,119.999996337891,6|0,1:0|0:0,0:0:0:0:
373,220,67940,2,0,P|392:275|377:332,1,119.999996337891,10|0,0:0|0:0,0:0:0:0:
180,290,68212,2,0,L|346:277,1,119.999996337891,2|0,1:0|0:0,0:0:0:0:
440,144,68485,2,0,L|320:134,1,119.999996337891,10|2,0:0|0:0,0:0:0:0:
95,223,68758,6,0,B|85:147|85:147|141:11,1,179.999994506836,6|0,1:0|0:0,0:0:0:0:
124,51,69031,1,10,0:0:0:0:
13,119,69167,1,2,0:0:0:0:
187,204,69303,2,0,P|271:219|341:216,1,119.999996337891,10|2,0:0|1:0,0:0:0:0:
448,168,69576,1,10,0:0:0:0:
325,72,69712,1,2,1:0:0:0:
469,179,69849,6,0,B|485:238|461:328,1,119.999996337891,6|0,1:0|0:0,0:0:0:0:
170,353,70122,1,8,0:0:0:0:
170,353,70394,2,0,P|268:333|399:343,1,179.999994506836,0|0,1:0|0:0,0:0:0:0:
372,351,70667,1,8,0:0:0:0:
151,264,70803,1,0,0:0:0:0:
251,101,70940,6,0,P|174:74|99:78,1,119.999996337891,6|0,1:0|0:0,0:0:0:0:
5,202,71212,2,0,P|82:175|157:179,1,119.999996337891,10|2,0:0|1:0,0:0:0:0:
291,233,71485,1,0,0:0:0:0:
239,103,71622,1,0,1:0:0:0:
169,272,71758,1,10,0:0:0:0:
359,177,71894,6,0,P|376:271|350:313,1,119.999996337891,2|0,0:0|1:0,0:0:0:0:
155,255,72167,2,0,L|28:263,2,119.999996337891,2|10|2,0:0|0:0|1:0,0:0:0:0:
260,342,72576,1,2,0:0:0:0:
260,342,72644,1,2,0:0:0:0:
260,342,72712,1,2,1:0:0:0:
367,289,72849,1,10,0:0:0:0:
155,255,72985,1,2,0:0:0:0:
246,93,73122,5,0,1:0:0:0:
246,93,73258,2,0,P|250:154|235:230,1,119.999996337891,2|8,0:0|0:0,0:0:0:0:
28,125,73531,1,2,1:0:0:0:
28,125,73667,2,0,P|24:64|39:-12,1,119.999996337891,2|0,0:0|1:0,0:0:0:0:
122,173,73940,1,10,0:0:0:0:
122,173,74076,1,2,0:0:0:0:
93,336,74212,5,2,1:0:0:0:
93,336,74349,1,2,1:0:0:0:
31,253,74485,1,10,0:0:0:0:
31,253,74622,1,2,1:0:0:0:
177,260,74758,2,0,P|249:269|314:285,1,119.999996337891,0|2,0:0|1:0,0:0:0:0:
476,122,75031,2,0,P|404:131|339:147,1,119.999996337891,10|0,0:0|0:0,0:0:0:0:
343,382,75303,6,0,L|359:135,1,239.999992675781,6|8,1:0|0:0,0:0:0:0:
151,114,75712,2,0,P|223:105|288:89,1,119.999996337891,2|0,0:0|0:0,0:0:0:0:
335,18,75985,1,2,1:0:0:0:
256,190,76122,1,10,0:0:0:0:
174,28,76258,1,2,0:0:0:0:
358,142,76394,2,0,P|416:154|476:161,2,119.999996337891,2|2|10,1:0|1:0|0:0,0:0:0:0:
144,237,76803,6,0,P|272:226|331:333,1,239.999992675781,2|0,1:0|1:0,0:0:0:0:
248,132,77212,1,8,0:0:0:0:
224,310,77349,1,0,0:0:0:0:
95,158,77485,5,2,1:0:0:0:
95,158,77553,1,2,0:0:0:0:
95,158,77622,1,2,0:0:0:0:
99,322,77758,1,10,0:0:0:0:
168,226,77894,1,2,1:0:0:0:
95,158,78031,2,0,L|71:99,2,59.9999981689454,2|2|2,1:0|0:0|0:0,0:0:0:0:
251,287,78303,1,8,0:0:0:0:
281,286,78372,1,0,0:0:0:0:
309,277,78440,1,2,0:0:0:0:
335,263,78508,1,0,0:0:0:0:
356,241,78576,6,0,L|348:63,1,119.999996337891,6|2,1:0|0:0,0:0:0:0:
238,21,78849,1,10,0:0:0:0:
95,158,78985,2,0,P|187:147|233:134,1,119.999996337891,2|0,1:0|0:0,0:0:0:0:
356,241,79258,2,0,P|414:253|474:258,2,119.999996337891,2|14|0,1:0|0:0|0:0,0:0:0:0:
360,14,79667,5,6,1:0:0:0:
357,127,79803,1,2,0:0:0:0:
453,178,79940,1,10,0:0:0:0:
360,14,80076,5,2,1:0:0:0:
357,127,80212,1,2,0:0:0:0:
356,241,80349,1,2,1:0:0:0:
457,68,80485,5,10,0:0:0:0:
357,127,80622,1,2,0:0:0:0:
261,58,80758,6,0,P|183:30|111:65,1,119.999996337891,6|2,1:0|0:0,0:0:0:0:
149,37,80962,1,2,0:0:0:0:
149,37,81031,1,10,0:0:0:0:
65,285,81167,1,2,1:0:0:0:
65,285,81303,2,0,P|61:222|72:152,1,119.999996337891,6|2,0:0|1:0,0:0:0:0:
242,236,81576,2,0,P|249:295|245:355,1,119.999996337891,10|2,0:0|0:0,0:0:0:0:
244,91,81849,5,6,1:0:0:0:
401,52,81985,1,2,0:0:0:0:
353,198,82122,1,10,0:0:0:0:
308,14,82258,1,2,1:0:0:0:
472,178,82394,5,2,0:0:0:0:
332,106,82531,1,2,1:0:0:0:
242,236,82667,1,10,0:0:0:0:
472,171,82803,5,2,0:0:0:0:
328,106,82940,1,2,1:0:0:0:
245,241,83076,1,2,0:0:0:0:
471,165,83212,5,10,0:0:0:0:
325,108,83349,1,2,1:0:0:0:
249,246,83485,5,2,0:0:0:0:
381,283,83622,1,2,1:0:0:0:
237,361,83758,2,0,P|167:345|110:307,1,119.999996337891,8|0,0:0|0:0,0:0:0:0:
381,283,84031,6,0,L|417:16,1,239.999992675781,6|8,1:0|0:0,0:0:0:0:
413,45,84440,1,0,1:0:0:0:
116,88,84712,1,0,1:0:0:0:
289,181,84849,2,0,P|221:183|161:169,1,119.999996337891,10|2,0:0|0:0,0:0:0:0:
27,42,85122,5,6,1:0:0:0:
66,229,85258,1,2,0:0:0:0:
202,57,85394,2,0,P|260:45|320:48,1,119.999996337891,10|0,0:0|1:0,0:0:0:0:
293,185,85667,1,2,0:0:0:0:
293,185,85803,1,2,1:0:0:0:
505,141,85940,2,0,P|445:144|386:132,1,119.999996337891,10|0,0:0|0:0,0:0:0:0:
95,79,86212,5,6,1:0:0:0:
192,195,86349,1,2,1:0:0:0:
205,41,86485,5,10,0:0:0:0:
196,180,86622,1,2,1:0:0:0:
309,71,86758,5,2,1:0:0:0:
200,167,86894,1,2,1:0:0:0:
199,59,87031,1,10,0:0:0:0:
296,190,87167,1,2,1:0:0:0:
93,170,87303,6,0,B|76:237|76:237|116:380,1,179.999994506836,6|0,1:0|0:0,0:0:0:0:
105,343,87576,1,10,0:0:0:0:
0,287,87712,1,2,1:0:0:0:
195,296,87849,2,0,L|328:301,1,119.999996337891,2|0,1:0|1:0,0:0:0:0:
422,75,88122,2,0,P|400:142|434:257,1,179.999994506836,10|0,0:0|0:0,0:0:0:0:
425,245,88394,6,0,P|438:190|434:155,1,80,6|0,1:0|0:0,0:0:0:0:
352,180,88667,2,0,P|339:124|343:89,1,80,0|0,0:0|0:0,0:0:0:0:
247,221,88940,2,0,P|259:165|255:130,1,80,0|0,0:0|0:0,0:0:0:0:
46,353,89212,1,8,0:0:0:0:
46,353,89485,6,0,P|119:348|140:355,1,80,0|0,1:0|0:0,0:0:0:0:
153,254,89758,1,0,0:0:0:0:
153,254,89894,2,0,P|91:281|137:351,1,160,0|0,0:0|0:0,0:0:0:0:
204,334,90303,1,0,1:0:0:0:
15,248,90440,1,8,0:0:0:0:
204,334,90576,6,0,P|258:333|370:323,1,160,0|0,1:0|0:0,0:0:0:0:
247,244,90985,1,0,0:0:0:0:
342,154,91122,2,0,P|342:204|324:254,1,80
134,27,91394,1,8,0:0:0:0:
134,27,91667,6,0,B|155:82|155:82|144:184,1,119.999996337891,0|0,1:0|0:0,0:0:0:0:
148,142,92349,1,8,0:0:0:0:
90,306,92485,1,4,3:0:0:0:
152,234,92622,1,8,3:0:0:0:
261,275,92758,6,0,P|267:320|262:370,1,80,4|0,3:0|0:0,0:0:0:0:
353,199,93031,2,0,P|347:244|352:294,1,80,0|0,0:0|0:0,0:0:0:0:
422,151,93303,2,0,P|388:122|272:167,1,160,0|0,0:0|1:0,0:0:0:0:
457,66,93712,1,8,0:0:0:0:
210,183,93849,5,0,1:0:0:0:
210,183,93985,2,0,P|204:129|212:93,1,80,0|0,0:0|1:0,0:0:0:0:
149,332,94258,2,0,P|155:278|147:242,1,80,0|0,0:0|0:0,0:0:0:0:
64,78,94531,1,8,0:0:0:0:
64,78,94667,1,0,1:0:0:0:
208,104,94803,1,8,0:0:0:0:
35,178,94940,6,0,P|107:171|140:178,1,80,0|0,1:0|0:0,0:0:0:0:
150,253,95212,1,0,1:0:0:0:
150,253,95349,1,0,0:0:0:0:
290,200,95485,2,0,P|218:193|185:200,1,80,8|0,0:0|0:0,0:0:0:0:
150,253,95758,1,0,1:0:0:0:
366,147,95894,1,8,0:0:0:0:
279,359,96031,6,0,L|291:180,1,160,0|8,1:0|3:0,0:0:0:0:
289,199,96576,1,0,3:0:0:0:
68,52,97122,6,0,P|154:45|181:49,1,80,0|0,1:0|0:0,0:0:0:0:
229,17,97394,2,0,P|268:17|308:24,1,80,0|0,0:0|0:0,0:0:0:0:
479,91,97667,2,0,P|373:94|302:124,1,160,0|8,0:0|0:0,0:0:0:0:
369,279,98076,6,0,P|375:239|376:199,1,80,0|0,0:0|1:0,0:0:0:0:
376,199,98349,1,0,0:0:0:0:
376,199,98622,1,0,0:0:0:0:
365,294,99031,5,0,1:0:0:0:
485,202,99167,1,8,0:0:0:0:
352,318,99303,6,0,P|292:325|194:270,1,160,0|0,1:0|0:0,0:0:0:0:
165,209,99712,1,0,0:0:0:0:
165,209,99849,2,0,P|163:146|168:115,1,80,0|0,0:0|0:0,0:0:0:0:
189,364,100122,1,8,0:0:0:0:
189,364,100258,1,0,0:0:0:0:
40,302,100394,6,0,P|120:302|142:309,1,80,0|0,1:0|0:0,0:0:0:0:
189,364,100667,1,0,0:0:0:0:
189,364,100803,1,0,0:0:0:0:
226,282,100940,1,0,0:0:0:0:
80,378,101076,1,8,0:0:0:0:
226,282,101212,1,4,3:0:0:0:
294,355,101349,1,8,3:0:0:0:
397,347,101485,5,4,3:0:0:0:
397,347,102303,1,0,1:0:0:0:
464,192,102440,1,8,0:0:0:0:
402,328,102576,6,0,P|339:316|243:362,1,160,0|0,1:0|1:0,0:0:0:0:
256,356,103258,1,8,0:0:0:0:
321,173,103394,1,0,1:0:0:0:
256,356,103531,1,8,0:0:0:0:
181,296,103667,6,0,P|177:235|185:197,1,80,0|0,1:0|0:0,0:0:0:0:
120,140,103940,2,0,P|124:79|116:41,1,80,0|0,1:0|0:0,0:0:0:0:
20,229,104212,2,0,L|203:214,1,160,8|0,0:0|1:0,0:0:0:0:
35,142,104622,1,8,0:0:0:0:
181,296,104758,5,0,1:0:0:0:
212,143,104894,1,8,0:0:0:0:
181,296,105031,2,0,P|177:335|182:375,1,80,4|0,3:0|0:0,0:0:0:0:
266,328,105303,2,0,P|291:358|322:383,1,80,8|0,3:0|0:0,0:0:0:0:
358,306,105576,1,0,1:0:0:0:
358,306,105712,1,8,0:0:0:0:
437,304,107212,5,0,0:0:0:0:
445,290,107485,1,0,0:0:0:0:
448,274,107758,1,0,0:0:0:0:
140,384,108031,5,6,1:0:0:0:
140,384,108576,1,2,0:0:0:0:
207,294,109122,5,2,0:0:0:0:
207,294,109667,1,2,0:0:0:0:
155,204,110212,5,2,0:0:0:0:
155,204,110757,1,2,0:0:0:0:
222,114,111303,5,2,0:0:0:0:
222,114,111848,1,2,0:0:0:0:
155,204,112394,5,2,0:0:0:0:
155,204,112939,1,2,0:0:0:0:
222,294,113485,5,2,0:0:0:0:
222,294,114030,1,2,0:0:0:0:
289,200,114576,5,2,0:0:0:0:
289,200,115121,1,2,0:0:0:0:
374,271,115667,6,0,B|378:297|368:308|368:308|371:315|371:315|366:325|365:357,5,80,6|0|0|0|0|0,1:0|0:0|0:0|0:0|0:0|0:0,0:0:0:0:
353,120,116485,1,8,0:0:0:0:
353,120,116758,6,0,P|422:125|481:164,1,119.999996337891,4|0,1:0|0:0,0:0:0:0:
274,179,117167,1,0,1:0:0:0:
274,179,117303,2,0,P|259:134|276:41,1,119.999996337891,0|8,0:0|0:0,0:0:0:0:
265,62,117712,1,0,0:0:0:0:
114,117,117849,6,0,P|169:114|195:114,1,59.9999981689454,0|0,1:0|0:0,0:0:0:0:
67,190,118122,2,0,P|12:187|-14:187,1,59.9999981689454,0|0,0:0|1:0,0:0:0:0:
117,260,118394,2,0,P|172:257|198:257,1,59.9999981689454
58,323,118667,1,8,0:0:0:0:
375,260,118940,6,0,P|292:252|244:262,1,119.999996337891,0|0,1:0|0:0,0:0:0:0:
319,171,119349,1,0,1:0:0:0:
192,314,119485,2,0,P|176:257|176:240,1,59.9999981689454,0|0,0:0|0:0,0:0:0:0:
444,320,119758,1,8,0:0:0:0:
444,320,120031,6,0,P|460:263|460:246,1,59.9999981689454,0|0,1:0|0:0,0:0:0:0:
396,126,120303,2,0,P|400:155|412:183,1,59.9999981689454,0|0,0:0|1:0,0:0:0:0:
475,90,120576,2,0,P|486:62|491:32,1,59.9999981689454,0|0,0:0|0:0,0:0:0:0:
319,171,120849,1,8,0:0:0:0:
319,171,121122,6,0,B|235:135|234:215|131:169,2,179.999994506836,4|0|8,1:0|1:0|0:0,0:0:0:0:
319,171,122076,1,0,0:0:0:0:
193,104,122212,6,0,P|190:68|200:26,2,59.9999981689454,0|0|0,1:0|0:0|0:0,0:0:0:0:
227,180,122622,1,0,1:0:0:0:
270,256,122758,2,0,P|273:285|270:315,1,59.9999981689454,0|0,0:0|0:0,0:0:0:0:
193,104,123031,1,8,0:0:0:0:
193,104,123303,6,0,P|120:97|59:118,1,119.999996337891,0|0,1:0|0:0,0:0:0:0:
32,186,123712,2,0,L|50:325,1,119.999996337891,0|0,1:0|0:0,0:0:0:0:
118,366,124122,2,0,P|191:373|252:352,1,119.999996337891,8|0,0:0|0:0,0:0:0:0:
235,361,124667,5,2,0:0:0:0:
235,361,124940,1,2,0:0:0:0:
235,361,125212,1,2,0:0:0:0:
449,203,125485,6,0,B|388:163|338:194|338:198|338:203|291:241|203:182,1,239.999992675781,6|8,1:0|0:0,0:0:0:0:
290,18,125894,1,2,0:0:0:0:
290,18,126031,2,0,P|292:87|271:148,1,119.999996337891,2|0,1:0|0:0,0:0:0:0:
181,266,126303,1,8,0:0:0:0:
65,98,126440,1,2,0:0:0:0:
65,98,126577,6,0,P|63:167|85:233,1,119.999996337891,6|0,1:0|0:0,0:0:0:0:
170,384,126849,2,0,P|184:326|181:266,1,119.999996337891,10|0,0:0|0:0,0:0:0:0:
290,98,127122,2,0,P|292:167|270:233,1,119.999996337891,2|0,1:0|0:0,0:0:0:0:
230,28,127394,2,0,P|284:8|361:43,1,119.999996337891,10|2,0:0|0:0,0:0:0:0:
488,235,127667,6,0,L|346:219,1,119.999996337891,6|0,1:0|0:0,0:0:0:0:
169,135,127940,2,0,L|311:119,1,119.999996337891,10|0,0:0|0:0,0:0:0:0:
403,117,128212,1,2,1:0:0:0:
403,117,128349,1,0,0:0:0:0:
343,21,128485,1,10,0:0:0:0:
512,30,128622,6,0,L|503:159,1,119.999996337891,2|2,0:0|1:0,0:0:0:0:
492,336,128894,1,2,1:0:0:0:
369,237,129031,2,0,P|451:228|511:242,1,119.999996337891,10|0,0:0|0:0,0:0:0:0:
327,339,129303,2,0,P|267:346|208:336,1,119.999996337891,2|0,1:0|1:0,0:0:0:0:
108,176,129576,1,10,0:0:0:0:
148,264,129712,1,2,0:0:0:0:
168,90,129849,6,0,B|223:60|276:94|276:98|276:102|319:141|398:102,1,239.999992675781,6|8,1:0|0:0,0:0:0:0:
331,24,130258,1,2,0:0:0:0:
233,173,130394,2,0,P|236:259|250:316,1,119.999996337891,2|0,1:0|0:0,0:0:0:0:
307,371,130667,1,8,0:0:0:0:
341,277,130803,1,2,0:0:0:0:
133,297,130940,6,0,L|-11:318,1,119.999996337891,6|0,1:0|0:0,0:0:0:0:
134,158,131212,2,0,L|278:179,1,119.999996337891,10|0,0:0|0:0,0:0:0:0:
341,277,131485,2,0,L|197:298,1,119.999996337891,2|0,1:0|0:0,0:0:0:0:
392,170,131758,1,10,0:0:0:0:
392,170,131894,1,2,0:0:0:0:
483,341,132031,6,0,L|491:214,1,119.999996337891,6|0,1:0|0:0,0:0:0:0:
490,221,132303,1,10,0:0:0:0:
326,89,132440,1,2,0:0:0:0:
464,101,132576,1,10,0:0:0:0:
464,101,132712,1,2,1:0:0:0:
392,170,132849,1,10,0:0:0:0:
395,16,132985,1,2,1:0:0:0:
140,98,133122,5,2,0:0:0:0:
140,98,133394,2,0,B|96:58|96:58|144:266,1,225.000008583069,14|0,0:0|0:0,0:0:0:0:
152,296,133667,2,0,L|291:288,1,119.999996337891,6|0,1:0|0:0,0:0:0:0:
400,384,133940,2,0,L|261:376,1,119.999996337891,14|0,0:0|0:0,0:0:0:0:
312,116,134212,6,0,P|388:108|462:255,1,239.999992675781,6|8,1:0|0:0,0:0:0:0:
215,138,134622,1,2,0:0:0:0:
215,138,134758,2,0,P|242:46|302:18,1,119.999996337891,2|0,1:0|0:0,0:0:0:0:
166,0,135031,1,8,0:0:0:0:
146,259,135167,1,2,0:0:0:0:
146,259,135303,6,0,P|119:167|59:139,1,119.999996337891,6|0,1:0|0:0,0:0:0:0:
125,353,135576,2,0,P|217:326|245:266,1,119.999996337891,10|0,0:0|0:0,0:0:0:0:
358,226,135849,2,0,L|214:219,1,119.999996337891,2|0,1:0|0:0,0:0:0:0:
146,259,136122,1,10,0:0:0:0:
265,135,136258,1,2,0:0:0:0:
433,304,136394,6,0,L|448:173,1,119.999996337891,6|0,1:0|0:0,0:0:0:0:
312,48,136667,1,10,0:0:0:0:
358,226,136803,1,0,0:0:0:0:
492,107,136940,2,0,P|412:98|359:147,1,119.999996337891,2|0,1:0|0:0,0:0:0:0:
446,184,137212,1,10,0:0:0:0:
308,30,137349,1,2,0:0:0:0:
182,201,137485,5,2,1:0:0:0:
289,132,137622,1,2,1:0:0:0:
140,53,137758,2,0,P|50:57|1:73,1,119.999996337891,10|0,0:0|0:0,0:0:0:0:
15,276,138031,2,0,P|73:288|133:287,1,119.999996337891,2|0,1:0|1:0,0:0:0:0:
193,178,138303,1,10,0:0:0:0:
283,350,138440,1,2,0:0:0:0:
483,242,138576,6,0,B|397:238|397:238|338:263|338:263|236:254,1,239.999992675781,6|8,1:0|0:0,0:0:0:0:
416,140,138985,1,2,0:0:0:0:
430,331,139122,1,2,1:0:0:0:
313,160,139258,2,0,P|304:87|308:22,1,119.999996337891,0|8,0:0|0:0,0:0:0:0:
414,28,139531,1,2,0:0:0:0:
206,59,139667,6,0,L|52:64,1,119.999996337891,6|0,1:0|0:0,0:0:0:0:
313,160,139940,2,0,L|467:165,1,119.999996337891,10|0,0:0|0:0,0:0:0:0:
202,346,140212,2,0,P|193:286|194:226,1,119.999996337891,2|0,1:0|0:0,0:0:0:0:
313,160,140485,1,10,0:0:0:0:
323,311,140622,1,2,0:0:0:0:
94,155,140758,6,0,P|92:214|101:274,1,119.999996337891,6|0,1:0|0:0,0:0:0:0:
202,346,141031,1,10,0:0:0:0:
0,250,141167,1,2,0:0:0:0:
194,226,141303,2,0,L|331:214,1,119.999996337891,10|2,0:0|1:0,0:0:0:0:
444,199,141576,1,10,0:0:0:0:
402,341,141712,1,2,1:0:0:0:
366,131,141849,6,0,L|351:2,1,119.999996337891,0|0,1:0|0:0,0:0:0:0:
194,226,142122,1,4,1:0:0:0:
194,226,142394,2,0,P|170:153|176:89,1,119.999996337891,0|0,1:0|0:0,0:0:0:0:
241,32,142667,1,10,0:0:0:0:
73,122,142803,1,2,1:0:0:0:
240,316,142940,6,0,P|167:321|114:283,1,119.999996337891,6|0,1:0|0:0,0:0:0:0:
171,110,143212,1,10,0:0:0:0:
68,363,143349,1,2,0:0:0:0:
194,226,143485,1,2,1:0:0:0:
18,260,143622,1,6,3:0:0:0:
219,323,143758,1,10,0:0:0:0:
110,194,143894,1,10,3:0:0:0:
242,314,144031,6,0,P|329:314|378:309,1,119.999996337891,2|0,1:0|0:0,0:0:0:0:
462,192,144303,6,0,P|465:244|464:259,1,50,0|0,0:0|0:0,0:0:0:0:
381,199,144576,2,0,P|381:174|384:149,1,50,0|0,0:0|1:0,0:0:0:0:
453,62,144849,2,0,P|455:86|456:111,1,50,4|0,0:0|0:0,0:0:0:0:
297,223,145122,6,0,B|227:235|227:235|175:205|175:205|70:222,1,200,6|10,1:0|0:0,0:0:0:0:
242,47,145531,2,0,L|252:146,1,100,2|0,1:0|0:0,0:0:0:0:
149,296,145804,1,2,1:0:0:0:
84,132,145940,1,10,0:0:0:0:
252,146,146076,1,2,0:0:0:0:
146,319,146212,6,0,P|80:319|35:307,1,100,2|2,1:0|0:0,0:0:0:0:
37,299,146417,1,0,0:0:0:0:
28,286,146485,2,0,L|21:175,1,100,10|0,0:0|1:0,0:0:0:0:
21,186,146758,1,2,0:0:0:0:
196,245,146894,1,2,0:0:0:0:
91,374,147031,1,10,0:0:0:0:
124,193,147167,1,2,0:0:0:0:
270,313,147303,6,0,P|359:313|401:299,1,100,6|0,1:0|0:0,0:0:0:0:
360,144,147576,1,10,0:0:0:0:
360,144,147713,1,4,1:0:0:0:
512,211,147849,2,0,P|434:227|398:222,1,100,2|0,0:0|1:0,0:0:0:0:
253,5,148122,1,10,0:0:0:0:
345,46,148258,6,0,P|361:124|356:160,2,100,2|0|0,0:0|1:0|0:0,0:0:0:0:
149,134,148667,2,0,P|210:121|289:119,1,100,8|0,0:0|1:0,0:0:0:0:
320,242,148940,2,0,P|259:229|180:227,1,100,0|0,0:0|1:0,0:0:0:0:
131,291,149213,1,8,0:0:0:0:
149,134,149349,1,0,0:0:0:0:
188,362,149485,6,0,P|100:377|40:279,1,200,6|8,1:0|0:0,0:0:0:0:
205,235,149894,2,0,P|254:239|303:250,1,100,0|0,1:0|0:0,0:0:0:0:
369,336,150167,1,0,1:0:0:0:
436,151,150303,2,0,P|431:200|420:249,1,100,8|0,0:0|0:0,0:0:0:0:
364,355,150576,5,0,1:0:0:0:
312,160,150712,2,0,P|263:148|213:144,1,100,0|8,0:0|0:0,0:0:0:0:
35,189,150985,2,0,P|19:117|47:56,2,100,0|0|0,1:0|0:0|1:0,0:0:0:0:
207,291,151395,2,0,P|222:220|197:104,1,150,8|0,0:0|0:0,0:0:0:0:
212,143,151667,6,0,P|166:127|117:137,1,100,0|0,1:0|0:0,0:0:0:0:
209,34,151940,1,8,0:0:0:0:
35,189,152076,1,0,0:0:0:0:
2,52,152212,2,0,P|48:36|97:46,1,100,0|0,0:0|1:0,0:0:0:0:
161,213,152485,1,8,0:0:0:0:
298,102,152622,1,0,0:0:0:0:
298,102,152758,6,0,B|311:144|317:225,1,100,4|0,1:0|0:0,0:0:0:0:
226,355,153031,2,0,B|229:298|242:256,1,100,8|0,0:0|1:0,0:0:0:0:
438,282,153303,2,0,L|318:295,1,100,0|0,0:0|1:0,0:0:0:0:
119,186,153576,2,0,L|218:175,1,100,8|0,0:0|0:0,0:0:0:0:
359,4,153849,5,6,1:0:0:0:
320,96,153985,1,2,0:0:0:0:
368,184,154122,1,10,0:0:0:0:
466,198,154258,1,2,1:0:0:0:
466,198,154531,1,2,1:0:0:0:
368,184,154667,1,10,0:0:0:0:
291,250,154804,1,2,0:0:0:0:
368,184,154940,5,2,1:0:0:0:
291,250,155076,1,2,0:0:0:0:
198,211,155213,2,0,P|133:216|71:211,1,100,10|0,0:0|1:0,0:0:0:0:
286,93,155485,1,2,0:0:0:0:
368,184,155622,1,2,0:0:0:0:
397,44,155758,1,10,0:0:0:0:
378,208,155895,1,2,0:0:0:0:
276,80,156031,6,0,P|202:73|152:83,1,100,6|0,1:0|0:0,0:0:0:0:
98,136,156304,1,10,0:0:0:0:
98,136,156440,1,0,0:0:0:0:
27,240,156576,6,0,P|100:256|150:253,1,100,2|0,0:0|1:0,0:0:0:0:
195,183,156849,1,10,0:0:0:0:
267,264,156985,2,0,L|272:391,2,100,2|0|0,0:0|1:0|0:0,0:0:0:0:
341,153,157394,2,0,P|414:137|464:140,1,100,10|0,0:0|1:0,0:0:0:0:
272,55,157667,2,0,P|199:39|149:42,1,100,2|0,0:0|1:0,0:0:0:0:
97,116,157940,1,10,0:0:0:0:
206,205,158076,1,2,0:0:0:0:
71,368,158213,6,0,P|49:302|47:201,1,150,6|0,1:0|0:0,0:0:0:0:
44,222,158485,1,8,0:0:0:0:
272,298,158622,2,0,P|223:308|173:302,1,100,2|0,1:0|0:0,0:0:0:0:
155,184,158895,1,0,1:0:0:0:
356,171,159031,6,0,B|350:241|350:241|370:285|370:285|359:384,1,200,10|0,0:0|1:0,0:0:0:0:
361,365,159440,1,2,0:0:0:0:
263,215,159576,1,8,0:0:0:0:
450,230,159712,1,2,1:0:0:0:
276,122,159849,1,2,0:0:0:0:
358,252,159985,1,2,1:0:0:0:
445,137,160122,2,0,P|447:69|427:17,1,100,10|2,0:0|0:0,0:0:0:0:
197,100,160395,6,0,P|271:97|339:66,1,150,6|0,1:0|0:0,0:0:0:0:
339,66,160667,1,10,0:0:0:0:
143,8,160804,1,2,1:0:0:0:
109,164,160940,2,0,P|101:213|101:263,1,100,2|0,0:0|1:0,0:0:0:0:
236,384,161213,2,0,P|236:334|229:284,1,100,10|0,0:0|0:0,0:0:0:0:
43,91,161485,5,4,1:1:0:0:
43,91,161758,1,8,0:0:0:0:
293,184,161895,2,0,P|229:181|184:171,1,100,0|0,1:0|0:0,0:0:0:0:
179,93,162167,1,0,1:0:0:0:
346,256,162303,2,0,P|410:253|455:243,1,100,8|0,0:0|0:0,0:0:0:0:
463,14,162576,6,0,L|455:128,1,100,0|0,1:0|0:0,0:0:0:0:
455,113,162985,2,0,L|450:180,1,50,0|0,1:0|0:0,0:0:0:0:
445,245,163258,1,0,0:0:0:0:
322,188,163394,2,0,P|352:188|389:193,1,50,8|0,0:0|0:0,0:0:0:0:
226,209,163667,6,0,P|226:178|231:142,1,50,0|0,1:0|0:0,0:0:0:0:
247,71,163940,1,0,0:0:0:0:
232,71,164076,1,0,0:0:0:0:
224,58,164212,1,0,0:0:0:0:
232,45,164349,1,0,0:0:0:0:
247,45,164485,1,0,0:0:0:0:
254,58,164622,1,0,0:0:0:0:
