osu file format v14

[General]
AudioFilename: audio.mp3
AudioLeadIn: 0
PreviewTime: 26962
Countdown: 0
SampleSet: Soft
StackLeniency: 0.7
Mode: 0
LetterboxInBreaks: 0
WidescreenStoryboard: 0

[Editor]
Bookmarks: 1122,9849,27303,30576,36031,39303,44758,53485,58940,70940,79667,88394,98758,108031,116758,125485,145122,164758
DistanceSpacing: 0.1
BeatDivisor: 4
GridSize: 8
TimelineZoom: 1.999999

[Metadata]
Title:Toumei Elegy
TitleUnicode:透明エレジー
Artist:nameless
ArtistUnicode:nameless
Creator:Sotarks
Version:Boundless Tragedy
Source:
Tags:櫻花アリス ナブナmegpoid gumi utau vocaloid konuko utaite akitoshi corinn kalibe irohas mugiwarasekai mir snownino_ milan-
BeatmapID:1527884
BeatmapSetID:723730

[Difficulty]
HPDrainRate:6
CircleSize:4.2
OverallDifficulty:9
ApproachRate:9.4
SliderMultiplier:2.22
SliderTickRate:1

[Events]
//Background and Video events
0,0,"Ittai.jpg",0,0
//Break Periods
2,105912,107491
//Storyboard Layer 0 (Background)
//Storyboard Layer 1 (Fail)
//Storyboard Layer 2 (Pass)
//Storyboard Layer 3 (Foreground)
//Storyboard Sound Samples

[TimingPoints]
1122,272.727272727273,4,2,22,62,1,0
1122,-192.307692307692,4,2,22,62,0,0
9508,-192.307692307692,4,2,22,5,0,0
9576,-192.307692307692,4,2,22,62,0,0
9781,-192.307692307692,4,2,22,5,0,0
9849,-98.0392156862744,4,2,22,82,0,0
27303,-161.290322580645,4,2,22,72,0,0
28462,-161.290322580645,4,2,22,52,0,0
29485,-161.290322580645,4,2,22,72,0,0
30644,-161.290322580645,4,2,22,52,0,0
31667,-161.290322580645,4,2,22,72,0,0
35690,-161.290322580645,4,2,22,5,0,0
35758,-108.695652173913,4,2,22,62,0,0
35962,-108.695652173913,4,2,22,5,0,0
36031,-161.290322580645,4,2,22,62,0,0
44758,-138.888888888889,4,2,22,62,0,0
51712,-192.307692307693,4,2,22,42,0,0
52394,-161.290322580645,4,2,22,42,0,0
52599,-161.290322580645,4,2,22,5,0,0
52667,-108.695652173913,4,2,22,52,0,0
52872,-108.695652173913,4,2,22,5,0,0
52940,-89.2857142857144,4,2,22,62,0,0
53144,-89.2857142857144,4,2,22,5,0,0
53212,-192.307692307692,4,2,22,42,0,0
53417,-192.307692307692,4,2,22,5,0,0
53485,-81.967213114754,4,2,22,92,0,1
61122,-192.307692307692,4,2,22,42,0,0
61326,-192.307692307692,4,2,22,5,0,0
61394,-75.7575757575758,4,2,22,92,0,1
61599,-75.7575757575758,4,2,22,5,0,1
61667,-81.9672131147541,4,2,22,82,0,1
61872,-81.9672131147541,4,2,22,5,0,1
61940,-89.2857142857143,4,2,22,72,0,1
62144,-89.2857142857143,4,2,22,5,0,1
62212,-81.9672131147541,4,2,22,92,0,1
69849,-121.951219512195,4,2,22,92,0,1
70122,-89.2857142857143,4,2,22,92,0,1
70394,-138.888888888889,4,2,22,92,0,1
70667,-108.695652173913,4,2,22,92,0,1
70940,-89.2857142857143,4,2,22,82,0,0
83962,-89.2857142857143,4,2,22,5,0,0
84031,-89.2857142857143,4,2,22,82,0,0
88394,-192.307692307692,4,2,22,62,0,0
116485,-98.0392156862744,4,2,22,62,0,0
116690,-98.0392156862744,4,2,22,5,0,0
116758,-121.951219512195,4,2,22,72,0,0
124667,-192.307692307692,4,2,22,42,0,0
124872,-192.307692307692,4,2,22,5,0,0
124940,-138.888888888889,4,2,22,52,0,0
125144,-138.888888888889,4,2,22,5,0,0
125212,-108.695652173913,4,2,22,62,0,0
125417,-108.695652173913,4,2,22,5,0,0
125485,-81.967213114754,4,2,22,92,0,1
133122,-192.307692307692,4,2,22,42,0,0
133326,-192.307692307692,4,2,22,5,0,0
133394,-75.7575757575758,4,2,22,92,0,1
133599,-75.7575757575758,4,2,22,5,0,1
133667,-81.9672131147541,4,2,22,92,0,1
133872,-81.9672131147541,4,2,22,5,0,1
133940,-89.2857142857143,4,2,22,82,0,1
134144,-89.2857142857143,4,2,22,5,0,1
134212,-81.9672131147541,4,2,22,92,0,1
144849,-192.307692307692,4,2,22,92,0,1
145122,-98.0392156862745,4,2,22,82,0,0
162576,-98.0392156862745,4,2,22,62,0,0
163940,-450.307692307692,4,2,22,22,0,0

[Colours]
Combo1 : 244,230,123
Combo2 : 204,200,200
Combo3 : 108,108,108
Combo4 : 252,158,160
Combo5 : 253,216,159
Combo6 : 200,100,100
SliderBorder : 255,255,255
SliderTrackOverride : 0,0,0

[HitObjects]
72,341,1122,6,0,P|136:325|150:326,1,57.7199996477051,6|0,1:2|0:0,0:0:0:0:
146,237,1394,2,0,P|202:270|211:281,1,57.7199996477051,2|0,0:0|1:2,0:0:0:0:
213,348,1667,1,2,0:0:0:0:
319,110,1940,6,0,P|361:89|380:87,1,57.7199996477051,10|2,0:0|0:0,0:0:0:0:
453,124,2212,2,0,P|461:82|455:55,2,57.7199996477051,2|2|2,1:0|0:0|0:0,0:0:0:0:
396,191,2622,1,2,1:0:0:0:
396,191,2758,2,0,P|394:219|401:247,1,57.7199996477051,2|0,0:0|0:0,0:0:0:0:
494,357,3031,1,10,0:0:0:0:
411,323,3167,1,2,0:0:0:0:
337,353,3303,70,0,P|293:361|214:315,1,115.43999929541,2|2,1:0|0:0,0:0:0:0:
178,264,3712,1,2,1:0:0:0:
203,144,3849,1,2,0:0:0:0:
34,356,4122,5,10,0:0:0:0:
305,183,4394,69,2,1:0:0:0:
52,73,4667,5,2,0:0:0:0:
110,179,4803,1,0,1:0:0:0:
180,136,4940,2,0,P|215:121|241:121,1,57.7199996477051,2|0,0:0|0:0,0:0:0:0:
423,280,5212,1,10,0:0:0:0:
423,280,5485,70,0,B|349:271|386:320|296:306,1,115.43999929541,6|0,1:0|0:0,0:0:0:0:
162,243,5894,2,0,P|154:212|188:126,1,115.43999929541,0|0,1:0|0:0,0:0:0:0:
253,74,6303,1,10,0:0:0:0:
345,96,6440,1,2,0:0:0:0:
262,218,6576,2,0,P|253:254|249:283,1,57.7199996477051,2|0,1:0|0:0,0:0:0:0:
162,243,6849,1,2,0:0:0:0:
103,135,6985,1,0,1:0:0:0:
47,199,7122,2,0,P|50:236|64:269,1,57.7199996477051,2|0,0:0|0:0,0:0:0:0:
173,70,7394,2,0,P|220:56|247:60,1,57.7199996477051,10|0,0:0|0:0,0:0:0:0:
328,97,7667,5,2,1:0:0:0:
241,329,8076,69,0,1:0:0:0:
313,273,8212,1,2,0:0:0:0:
35,333,8485,5,10,0:0:0:0:
122,357,8622,1,0,0:0:0:0:
93,206,8758,2,0,P|89:166|99:142,2,57.7199996477051,2|2|2,1:0|0:0|0:0,0:0:0:0:
170,186,9167,1,2,0:0:0:0:
170,186,9303,2,0,P|213:171|272:181,1,86.5799994715576,2|0,0:0|0:0,0:0:0:0:
252,174,9576,2,0,P|295:176|336:162,1,86.5799994715576,2|0,0:0|0:0,0:0:0:0:
373,80,9849,6,0,L|364:266,1,169.83000103656,6|0,1:0|0:0,0:0:0:0:
394,323,10122,1,10,0:0:0:0:
242,215,10258,2,0,P|152:216|83:259,1,169.83000103656,2|0,1:0|0:0,0:0:0:0:
41,314,10531,1,2,1:0:0:0:
139,114,10667,1,10,0:0:0:0:
148,329,10803,1,2,0:0:0:0:
67,148,10940,1,2,1:0:0:0:
247,52,11076,1,2,0:0:0:0:
237,271,11212,2,0,P|225:213|234:144,1,113.22000069104,10|0,0:0|1:0,0:0:0:0:
327,17,11485,5,2,0:0:0:0:
312,220,11622,1,2,0:0:0:0:
312,220,11690,1,0,0:0:0:0:
312,220,11758,1,10,0:0:0:0:
321,100,11894,1,2,0:0:0:0:
411,274,12031,70,0,P|343:255|255:329,1,169.83000103656,6|0,1:0|0:0,0:0:0:0:
237,376,12303,1,10,0:0:0:0:
103,234,12440,2,0,P|96:178|111:111,1,113.22000069104,4|2,1:0|0:0,0:0:0:0:
249,33,12712,1,0,1:0:0:0:
189,278,12849,1,10,0:0:0:0:
159,61,12985,2,0,P|94:33|36:32,2,113.22000069104,2|0|0,0:0|1:0|0:0,0:0:0:0:
260,224,13394,2,0,P|326:226|371:206,1,113.22000069104,8|0,0:0|1:0,0:0:0:0:
487,71,13667,2,0,P|424:67|376:89,1,113.22000069104,0|0,0:0|1:0,0:0:0:0:
376,306,13940,1,8,0:0:0:0:
442,147,14076,1,0,0:0:0:0:
452,351,14212,6,0,L|246:323,1,169.83000103656,6|0,1:0|0:0,0:0:0:0:
212,354,14485,1,8,0:0:0:0:
41,233,14622,2,0,P|119:283|258:209,1,226.44000138208,0|0,1:0|1:0,0:0:0:0:
156,51,15031,2,0,P|138:103|150:187,1,113.22000069104,8|0,0:0|0:0,0:0:0:0:
317,245,15303,1,0,1:0:0:0:
425,128,15440,2,0,P|427:71|409:18,1,113.22000069104,0|8,0:0|0:0,0:0:0:0:
278,177,15712,1,0,1:0:0:0:
360,315,15849,1,0,0:0:0:0:
350,153,15985,1,0,1:0:0:0:
286,359,16122,2,0,P|205:349|173:318,1,113.22000069104,8|0,0:0|0:0,0:0:0:0:
198,65,16394,70,0,P|247:104|262:236,1,169.83000103656,0|0,1:0|0:0,0:0:0:0:
254,280,16667,1,8,0:0:0:0:
350,153,16803,1,0,0:0:0:0:
173,246,16940,2,0,L|52:218,1,113.22000069104,0|0,0:0|1:0,0:0:0:0:
198,65,17212,2,0,L|319:37,1,113.22000069104,8|0,0:0|0:0,0:0:0:0:
405,243,17485,2,0,P|351:176|356:124,1,113.22000069104,4|0,1:0|0:0,0:0:0:0:
198,370,17758,2,0,P|252:303|247:251,1,113.22000069104,8|0,0:0|1:0,0:0:0:0:
460,333,18031,2,0,P|406:266|411:214,1,113.22000069104,0|0,0:0|1:0,0:0:0:0:
274,105,18303,2,0,B|224:107|224:107|173:148|178:253,1,169.83000103656,8|0,0:0|0:0,0:0:0:0:
173,291,18576,5,6,1:0:0:0:
125,118,18712,1,2,0:0:0:0:
252,278,18849,1,10,0:0:0:0:
158,43,18985,2,0,P|93:39|53:150,1,169.83000103656,2|0,1:0|0:0,0:0:0:0:
87,189,19258,1,2,1:0:0:0:
256,29,19394,1,10,0:0:0:0:
298,185,19531,1,2,0:0:0:0:
125,118,19667,1,2,1:0:0:0:
274,105,19803,1,2,0:0:0:0:
294,293,19940,2,0,P|309:239|297:184,1,113.22000069104,10|0,0:0|1:0,0:0:0:0:
214,342,20212,69,2,0:0:0:0:
385,319,20349,1,2,0:0:0:0:
134,355,20485,1,10,0:0:0:0:
225,238,20622,1,2,0:0:0:0:
385,319,20758,6,0,B|412:283|395:241|391:238|388:235|371:180|424:135,1,169.83000103656,6|0,1:0|0:0,0:0:0:0:
471,108,21031,2,0,P|415:78|333:74,1,113.22000069104,10|4,0:0|1:0,0:0:0:0:
133,80,21303,2,0,P|189:50|256:50,1,113.22000069104,2|0,0:0|1:0,0:0:0:0:
225,238,21576,1,10,0:0:0:0:
46,111,21712,2,0,P|49:34|82:0,2,113.22000069104,2|0|0,0:0|1:0|0:0,0:0:0:0:
166,244,22122,2,0,P|197:316|184:377,1,113.22000069104,10|0,0:0|1:0,0:0:0:0:
304,151,22394,2,0,P|302:101|336:40,1,113.22000069104,2|0,0:0|1:0,0:0:0:0:
442,299,22667,1,10,0:0:0:0:
392,118,22803,1,2,0:0:0:0:
166,244,22940,70,0,P|74:222|67:109,1,169.83000103656,6|0,1:0|0:0,0:0:0:0:
68,87,23212,1,8,0:0:0:0:
292,130,23349,2,0,L|272:322,1,169.83000103656,2|0,1:0|0:0,0:0:0:0:
263,373,23622,1,0,1:0:0:0:
200,132,23758,2,0,P|234:61|376:98,1,226.44000138208,10|0,0:0|1:0,0:0:0:0:
438,249,24167,1,2,0:0:0:0:
292,130,24303,1,8,0:0:0:0:
477,177,24440,1,2,1:0:0:0:
399,325,24576,1,2,0:0:0:0:
366,153,24712,1,2,1:0:0:0:
505,312,24849,1,10,0:0:0:0:
315,340,24985,1,2,0:0:0:0:
477,177,25122,6,0,P|469:102|378:41,1,169.83000103656,6|0,1:0|0:0,0:0:0:0:
325,53,25394,1,10,0:0:0:0:
342,233,25531,1,2,1:0:0:0:
249,61,25667,2,0,L|121:47,1,113.22000069104,2|0,0:0|1:0,0:0:0:0:
154,279,25940,2,0,L|282:265,1,113.22000069104,10|0,0:0|0:0,0:0:0:0:
86,116,26212,2,0,B|120:192|76:225|73:229|69:233|43:299|96:345,1,226.44000138208,6|8,1:0|0:0,0:0:0:0:
243,189,26622,2,0,P|328:207|342:273,1,113.22000069104,0|0,1:0|0:0,0:0:0:0:
423,358,26894,1,0,1:0:0:0:
456,122,27031,1,8,0:0:0:0:
456,122,27303,54,0,P|386:88|315:101,1,137.639994539429,6|2,1:0|0:0,0:0:0:0:
219,56,27712,1,0,1:0:0:0:
219,56,27849,2,0,P|157:67|138:90,1,68.8199972697145,2|0,0:0|0:0,0:0:0:0:
63,229,28122,1,10,0:0:0:0:
345,342,28394,69,2,1:0:0:0:
348,333,28666,1,2,0:0:0:0:
350,324,28939,1,2,0:0:0:0:
352,314,29212,1,2,0:0:0:0:
166,20,29485,6,0,P|147:79|183:164,1,137.639994539429,2|0,1:0|0:0,0:0:0:0:
203,345,29894,2,0,P|225:281|206:216,1,137.639994539429,0|0,1:0|0:0,0:0:0:0:
52,71,30303,1,10,0:0:0:0:
316,167,30576,69,2,1:0:0:0:
319,158,30848,1,2,0:0:0:0:
321,149,31121,1,2,0:0:0:0:
323,139,31394,1,2,0:0:0:0:
41,252,31667,6,0,P|89:227|180:245,1,137.639994539429,2|0,1:0|0:0,0:0:0:0:
363,280,32076,2,0,P|315:305|224:287,1,137.639994539429,0|0,1:0|0:0,0:0:0:0:
100,148,32485,1,8,0:0:0:0:
397,56,32758,69,0,1:0:0:0:
397,56,33576,1,0,0:0:0:0:
471,275,33849,6,0,P|435:236|404:228,1,68.8199972697145,0|0,1:0|0:0,0:0:0:0:
299,184,34122,2,0,P|335:223|366:231,1,68.8199972697145,0|0,0:0|1:0,0:0:0:0:
301,105,34394,2,0,P|265:66|234:58,1,68.8199972697145,0|0,0:0|0:0,0:0:0:0:
62,65,34667,1,8,0:0:0:0:
162,343,34940,69,0,1:0:0:0:
223,139,35212,2,0,B|277:85|331:126|335:128|340:131|392:195|469:140,1,240.869990444001,2|0,3:0|0:0,0:0:0:0:
476,81,35758,2,0,L|459:282,1,153.179994857849,12|0,0:0|0:0,0:0:0:0:
462,312,36031,6,0,P|412:294|371:301,1,68.8199972697145,6|0,1:0|1:0,0:0:0:0:
263,311,36303,2,0,P|293:325|327:328,1,68.8199972697145,2|0,1:0|1:0,0:0:0:0:
224,239,36576,2,0,P|193:224|159:221,1,68.8199972697145,2|0,0:0|1:0,0:0:0:0:
16,352,36849,1,8,0:0:0:0:
53,90,37122,70,0,P|103:72|144:79,1,68.8199972697145,2|0,1:0|1:0,0:0:0:0:
252,89,37394,2,0,P|221:103|187:106,1,68.8199972697145,2|0,1:0|1:0,0:0:0:0:
291,17,37667,2,0,P|321:2|355:0,1,68.8199972697145,2|0,0:0|1:0,0:0:0:0:
499,130,37940,1,10,0:0:0:0:
292,364,38212,6,0,P|279:307|315:222,1,137.639994539429,6|0,1:0|0:0,0:0:0:0:
389,69,38622,2,0,P|402:126|366:211,1,137.639994539429,0|0,1:0|0:0,0:0:0:0:
202,312,39031,1,10,0:0:0:0:
60,57,39303,70,0,P|99:92|112:132,1,68.8199972697145,2|0,1:0|1:0,0:0:0:0:
154,232,39575,2,0,P|126:211|107:182,1,68.8199972697145,2|0,1:0|1:0,0:0:0:0:
236,232,39848,2,0,P|263:252|282:281,1,68.8199972697145,2|0,0:0|1:0,0:0:0:0:
333,103,40121,1,10,0:0:0:0:
346,348,40394,6,0,P|366:290|336:215,1,137.639994539429,6|0,1:0|0:0,0:0:0:0:
266,41,40803,2,0,P|246:99|276:174,1,137.639994539429,0|0,1:0|0:0,0:0:0:0:
441,289,41212,1,10,0:0:0:0:
232,262,41485,70,0,L|99:296,1,137.639994539429,2|0,1:0|0:0,0:0:0:0:
32,164,41894,2,0,L|165:198,1,137.639994539429,0|0,1:0|0:0,0:0:0:0:
78,32,42303,1,10,0:0:0:0:
252,181,42576,6,0,P|299:176|323:151,1,68.8199972697145,2|0,1:0|0:0,0:0:0:0:
418,81,42849,2,0,P|371:86|347:111,1,68.8199972697145,2|4,0:0|3:0,0:0:0:0:
425,226,43122,2,0,P|421:177|409:153,1,68.8199972697145,8|0,3:0|0:0,0:0:0:0:
244,40,43394,2,0,P|248:89|260:113,1,68.8199972697145,10|0,0:0|0:0,0:0:0:0:
390,298,43667,69,2,1:0:0:0:
55,232,43940,1,8,3:0:0:0:
243,186,44076,1,8,3:0:0:0:
55,232,44212,1,12,3:0:0:0:
480,130,44485,5,12,0:0:0:0:
311,339,44758,70,0,B|340:275|296:230|292:227|288:223|240:170|303:98,1,240.869990444001,6|0,1:0|0:0,0:0:0:0:
234,301,45303,2,0,P|180:325|87:255,1,159.840003902344,8|2,0:0|0:0,0:0:0:0:
163,160,45712,1,0,1:0:0:0:
163,160,45781,1,8,0:0:0:0:
163,160,45849,2,0,P|179:215|166:255,1,79.9200019511719,2|0,1:0|0:0,0:0:0:0:
84,180,46122,2,0,P|80:140|96:104,1,79.9200019511719,2|0,0:0|0:0,0:0:0:0:
242,82,46394,2,0,L|157:71,1,79.9200019511719,2|0,1:0|0:0,0:0:0:0:
247,168,46667,2,0,L|326:157,1,79.9200019511719,2|0,1:0|0:0,0:0:0:0:
426,54,46940,6,0,L|407:251,1,159.840003902344,6|2,1:0|0:0,0:0:0:0:
445,301,47349,1,0,1:0:0:0:
316,251,47485,2,0,P|265:246|225:276,1,79.9200019511719,10|0,0:0|0:0,0:0:0:0:
135,123,47758,2,0,P|95:155|88:205,1,79.9200019511719,10|0,0:0|1:0,0:0:0:0:
180,361,48031,1,2,1:0:0:0:
310,78,48303,1,12,0:0:0:0:
352,151,48440,1,0,1:0:0:0:
388,47,48576,2,0,P|360:9|305:2,1,79.9200019511719,2|0,0:0|1:0,0:0:0:0:
232,113,48849,1,10,3:0:0:0:
310,78,48985,1,4,3:0:0:0:
164,63,49122,70,0,P|149:133|237:198,1,159.840003902344,2|0,1:0|0:0,0:0:0:0:
332,344,49531,2,0,P|347:274|259:209,1,159.840003902344,4|0,1:0|0:0,0:0:0:0:
190,298,49940,2,0,P|248:303|275:280,1,79.9200019511719,2|0,0:0|1:0,0:0:0:0:
224,232,50144,1,8,0:0:0:0:
224,232,50212,5,2,1:0:0:0:
61,66,50485,69,2,0:0:0:0:
92,151,50758,5,2,0:0:0:0:
222,142,51031,69,10,3:0:0:0:
331,48,51303,6,0,P|392:49|443:98,1,119.880002926758,0|0,1:0|0:0,0:0:0:0:
454,158,51576,1,8,0:0:0:0:
395,282,51712,70,0,L|384:206,1,57.7199996477051,0|0,1:0|0:0,0:0:0:0:
366,125,51985,1,0,1:0:0:0:
322,321,52122,1,8,0:0:0:0:
212,252,52258,1,4,3:0:0:0:
111,327,52394,6,0,P|91:280|102:218,1,103.229995904572,2|0,1:0|0:0,0:0:0:0:
143,168,52667,70,0,P|162:113|129:22,1,153.179994857849,10|0,0:0|0:0,0:0:0:0:
73,73,52940,6,0,L|277:53,1,186.480002276367,2|0,1:0|0:0,0:0:0:0:
318,11,53212,38,0,P|337:60|323:95,1,86.5799994715576,2|0,0:0|0:0,0:0:0:0:
280,151,53485,54,0,P|280:238|302:299,1,135.419994420868,6|0,1:0|0:0,0:0:0:0:
454,349,53758,1,8,0:0:0:0:
237,350,53894,1,2,0:0:0:0:
460,262,54031,2,0,P|470:199|457:124,1,135.419994420868,2|0,1:0|0:0,0:0:0:0:
258,54,54303,1,8,0:0:0:0:
391,199,54440,1,2,0:0:0:0:
177,71,54576,2,0,B|121:86|121:86|75:184,1,135.419994420868,6|0,1:0|0:0,0:0:0:0:
390,299,54849,2,0,B|446:284|446:284|492:186,1,135.419994420868,10|0,0:0|0:0,0:0:0:0:
258,54,55122,2,0,L|247:298,1,203.129991631302,2|0,1:0|0:0,0:0:0:0:
272,328,55394,1,10,0:0:0:0:
349,118,55531,1,2,0:0:0:0:
184,300,55667,6,0,L|24:278,1,135.419994420868,6|0,1:0|0:0,0:0:0:0:
123,72,55940,2,0,L|283:50,1,135.419994420868,10|0,0:0|0:0,0:0:0:0:
446,213,56212,2,0,L|286:191,1,135.419994420868,2|0,1:0|0:0,0:0:0:0:
91,149,56485,1,10,0:0:0:0:
337,44,56622,1,2,0:0:0:0:
300,276,56758,1,2,1:0:0:0:
172,170,56894,1,2,1:0:0:0:
336,355,57031,2,0,P|384:299|369:229,1,135.419994420868,10|0,0:0|0:0,0:0:0:0:
97,134,57303,2,0,P|92:199|138:247,1,135.419994420868,2|0,1:0|1:0,0:0:0:0:
376,167,57576,1,10,0:0:0:0:
172,170,57712,1,2,0:0:0:0:
436,80,57849,70,0,B|456:182|456:182|419:250|419:250|443:348,1,270.839988841736,6|8,1:0|0:0,0:0:0:0:
298,172,58258,1,2,0:0:0:0:
149,329,58394,2,0,P|71:310|56:233,1,135.419994420868,2|0,1:0|0:0,0:0:0:0:
200,92,58667,1,8,0:0:0:0:
234,306,58803,1,2,0:0:0:0:
281,87,58940,2,0,P|359:106|384:178,1,135.419994420868,6|0,1:0|0:0,0:0:0:0:
421,329,59212,2,0,P|343:310|328:233,1,135.419994420868,10|0,0:0|0:0,0:0:0:0:
465,137,59485,2,0,B|447:219|447:219|393:257,1,135.419994420868,2|0,1:0|0:0,0:0:0:0:
171,213,59758,1,10,0:0:0:0:
383,150,59894,1,2,0:0:0:0:
172,306,60031,6,0,P|95:266|107:145,1,203.129991631302,6|0,1:0|0:0,0:0:0:0:
169,128,60303,1,10,0:0:0:0:
242,257,60440,1,2,0:0:0:0:
94,159,60576,69,10,0:0:0:0:
260,76,60712,1,2,1:0:0:0:
171,213,60849,5,10,0:0:0:0:
164,49,60985,1,2,1:0:0:0:
250,173,61122,70,0,P|291:177|334:151,1,86.5799994715576,2|0,0:0|0:0,0:0:0:0:
373,63,61394,6,0,B|358:128|358:128|377:197|377:197|355:288,1,219.779999329285,14|0,0:0|0:0,0:0:0:0:
409,333,61667,70,0,P|329:285|222:302,1,203.129991631302,6|0,1:0|0:0,0:0:0:0:
163,345,61940,6,0,P|89:344|64:211,1,186.480002276367,14|0,0:0|0:0,0:0:0:0:
58,176,62212,70,0,L|216:153,1,135.419994420868,6|0,1:0|0:0,0:0:0:0:
434,218,62485,1,8,0:0:0:0:
251,86,62622,1,2,0:0:0:0:
360,330,62758,2,0,L|347:187,1,135.419994420868,2|0,1:0|0:0,0:0:0:0:
432,25,63031,1,8,0:0:0:0:
434,218,63167,1,2,0:0:0:0:
284,12,63303,2,0,P|202:22|168:90,1,135.419994420868,6|0,1:0|0:0,0:0:0:0:
160,242,63576,2,0,P|242:232|276:164,1,135.419994420868,10|0,0:0|0:0,0:0:0:0:
61,83,63849,2,0,B|15:99|15:99|-24:202|61:289,1,203.129991631302,2|0,1:0|0:0,0:0:0:0:
74,311,64122,1,10,0:0:0:0:
192,158,64258,1,2,0:0:0:0:
293,328,64394,6,0,L|431:305,1,135.419994420868,6|0,1:0|0:0,0:0:0:0:
285,117,64667,1,10,0:0:0:0:
227,286,64803,1,0,0:0:0:0:
364,83,64940,2,0,P|296:34|223:62,1,135.419994420868,2|0,1:0|0:0,0:0:0:0:
120,196,65212,1,10,0:0:0:0:
285,117,65349,1,2,0:0:0:0:
84,119,65485,1,2,1:0:0:0:
199,157,65622,1,2,1:0:0:0:
161,266,65758,1,10,0:0:0:0:
163,81,65894,1,0,0:0:0:0:
245,227,66031,69,2,1:0:0:0:
249,42,66167,1,0,1:0:0:0:
328,195,66303,5,10,0:0:0:0:
120,196,66440,1,2,0:0:0:0:
285,117,66576,70,0,P|379:120|333:284,1,270.839988841736,6|8,1:0|0:0,0:0:0:0:
205,343,66985,1,2,0:0:0:0:
328,195,67122,1,2,1:0:0:0:
432,337,67258,1,0,0:0:0:0:
281,309,67394,1,8,0:0:0:0:
382,266,67531,1,2,0:0:0:0:
128,307,67667,2,0,P|82:250|113:165,1,135.419994420868,6|0,1:0|0:0,0:0:0:0:
289,80,67940,2,0,P|335:137|304:222,1,135.419994420868,10|0,0:0|0:0,0:0:0:0:
9,155,68212,2,0,P|128:114|154:257,1,270.839988841736,2|10,1:0|0:0,0:0:0:0:
91,378,68622,1,2,0:0:0:0:
255,224,68758,6,0,P|328:221|372:291,1,135.419994420868,6|0,1:0|0:0,0:0:0:0:
483,371,69031,1,10,0:0:0:0:
422,178,69167,1,2,0:0:0:0:
311,341,69303,2,0,L|160:324,1,135.419994420868,10|2,0:0|1:0,0:0:0:0:
317,132,69576,1,10,0:0:0:0:
479,287,69712,1,2,1:0:0:0:
377,81,69849,70,0,P|312:52|240:110,1,136.530002083283,6|0,1:0|0:0,0:0:0:0:
203,129,70122,6,0,P|137:174|51:91,1,186.480002276367,8|0,0:0|0:0,0:0:0:0:
132,96,70394,70,0,L|142:225,1,119.880002926758,0|0,1:0|0:0,0:0:0:0:
111,291,70667,6,0,B|202:264|159:328|290:307,1,153.179994857849,8|0,0:0|0:0,0:0:0:0:
307,253,70940,6,0,P|363:231|430:260,1,124.320001517578,6|0,1:0|0:0,0:0:0:0:
316,126,71212,1,10,0:0:0:0:
365,319,71349,1,2,1:0:0:0:
372,67,71485,2,0,P|316:45|249:74,1,124.320001517578,0|0,0:0|1:0,0:0:0:0:
258,310,71758,1,10,0:0:0:0:
185,39,71894,6,0,P|189:115|240:147,1,124.320001517578,2|0,0:0|1:0,0:0:0:0:
436,111,72167,1,2,0:0:0:0:
246,231,72303,1,10,0:0:0:0:
399,256,72440,1,2,1:0:0:0:
459,34,72576,1,2,0:0:0:0:
499,61,72644,1,2,0:0:0:0:
512,107,72712,1,2,1:0:0:0:
445,321,72849,1,10,0:0:0:0:
299,104,72985,70,0,P|248:64|179:73,1,124.320001517578,2|0,0:0|1:0,0:0:0:0:
436,111,73258,1,2,0:0:0:0:
223,142,73394,1,8,0:0:0:0:
410,36,73531,1,2,1:0:0:0:
493,260,73667,2,0,P|483:334|425:370,1,124.320001517578,2|0,0:0|1:0,0:0:0:0:
201,276,73940,1,10,0:0:0:0:
408,283,74076,1,2,0:0:0:0:
174,353,74212,5,2,1:0:0:0:
223,197,74349,1,2,1:0:0:0:
260,354,74485,1,10,0:0:0:0:
145,183,74622,1,2,1:0:0:0:
91,354,74758,2,0,B|62:333|62:333|41:284|74:219,1,124.320001517578,0|2,0:0|1:0,0:0:0:0:
195,90,75031,2,0,B|222:110|222:110|243:159|222:196,1,124.320001517578,10|0,0:0|0:0,0:0:0:0:
98,47,75303,70,0,L|338:26,1,186.480002276367,6|0,1:0|0:0,0:0:0:0:
359,44,75576,1,8,0:0:0:0:
479,266,75712,2,0,P|359:217|363:129,1,186.480002276367,2|0,0:0|0:0,0:0:0:0:
397,114,75985,1,2,1:0:0:0:
336,356,76122,1,10,0:0:0:0:
441,185,76258,1,2,0:0:0:0:
197,233,76394,1,2,1:0:0:0:
343,168,76531,1,2,1:0:0:0:
119,206,76667,1,10,0:0:0:0:
380,91,76803,6,0,B|312:61|273:122|269:124|265:127|208:178|127:114,1,248.640003035156,2|0,1:0|1:0,0:0:0:0:
343,168,77212,1,8,0:0:0:0:
207,60,77349,1,0,0:0:0:0:
482,249,77485,69,2,1:0:0:0:
430,229,77553,1,2,0:0:0:0:
376,239,77621,1,2,0:0:0:0:
334,275,77689,1,0,0:0:0:0:
308,318,77758,1,10,0:0:0:0:
256,338,77826,1,2,0:0:0:0:
202,328,77894,1,2,1:0:0:0:
160,292,77962,1,0,0:0:0:0:
157,236,78031,1,2,1:0:0:0:
168,181,78099,1,2,0:0:0:0:
151,138,78167,6,0,P|90:117|83:117,1,62.1600007587891,2|2,0:0|0:0,0:0:0:0:
241,247,78303,2,0,P|302:226|309:226,1,62.1600007587891,8|0,0:0|0:0,0:0:0:0:
80,280,78440,2,0,P|49:273|22:259,1,62.1600007587891,2|0,0:0|0:0,0:0:0:0:
228,57,78576,69,6,1:0:0:0:
77,201,78712,1,2,0:0:0:0:
252,246,78849,1,10,0:0:0:0:
133,18,78985,1,2,1:0:0:0:
133,18,79258,5,2,1:0:0:0:
160,292,79394,1,14,0:0:0:0:
202,107,79531,1,0,0:0:0:0:
74,336,79667,69,6,1:0:0:0:
329,205,79803,1,2,0:0:0:0:
79,116,79940,5,10,0:0:0:0:
412,94,80076,1,2,1:0:0:0:
352,365,80212,69,2,0:0:0:0:
310,48,80349,1,2,1:0:0:0:
226,360,80485,5,10,0:0:0:0:
500,128,80622,1,2,0:0:0:0:
167,149,80758,69,6,1:0:0:0:
457,246,80894,1,2,0:0:0:0:
457,246,80962,1,2,0:0:0:0:
457,246,81031,5,10,0:0:0:0:
202,279,81167,1,2,1:0:0:0:
412,94,81303,69,6,0:0:0:0:
141,63,81440,1,2,1:0:0:0:
371,261,81576,5,10,0:0:0:0:
84,301,81712,1,2,0:0:0:0:
331,83,81849,69,6,1:0:0:0:
306,355,81985,1,2,0:0:0:0:
16,152,82122,5,10,0:0:0:0:
275,180,82258,1,2,1:0:0:0:
152,352,82394,69,2,0:0:0:0:
171,104,82531,1,2,1:0:0:0:
435,310,82667,5,10,0:0:0:0:
192,223,82803,1,2,0:0:0:0:
405,50,82940,69,2,1:0:0:0:
355,284,83076,1,2,0:0:0:0:
218,35,83212,5,10,0:0:0:0:
271,253,83349,1,2,1:0:0:0:
58,169,83485,69,2,0:0:0:0:
312,44,83622,1,2,1:0:0:0:
172,327,83758,2,0,B|142:279|164:245|166:242|168:237|195:204|157:121,1,186.480002276367,8|0,0:0|0:0,0:0:0:0:
102,87,84031,6,0,B|182:71|182:71|259:103|259:103|360:85,1,248.640003035156,6|8,1:0|0:0,0:0:0:0:
483,242,84440,2,0,P|385:197|289:322,1,248.640003035156,0|0,1:0|1:0,0:0:0:0:
424,95,84849,1,10,0:0:0:0:
394,300,84985,1,2,0:0:0:0:
341,88,85122,69,6,1:0:0:0:
264,348,85258,1,2,0:0:0:0:
257,79,85394,2,0,P|197:42|122:48,1,124.320001517578,10|0,0:0|1:0,0:0:0:0:
371,195,85667,1,2,0:0:0:0:
119,257,85803,1,2,1:0:0:0:
366,111,85940,2,0,P|440:146|445:223,1,124.320001517578,10|0,0:0|0:0,0:0:0:0:
416,367,86212,6,0,P|424:315|414:290,1,62.1600007587891,6|0,1:0|0:0,0:0:0:0:
371,195,86349,2,0,P|363:247|373:272,1,62.1600007587891,2|0,1:0|0:0,0:0:0:0:
321,332,86485,70,0,P|289:289|265:278,1,62.1600007587891,10|0,0:0|0:0,0:0:0:0:
119,257,86622,2,0,P|150:299|174:310,1,62.1600007587891,2|0,1:0|0:0,0:0:0:0:
304,149,86758,6,0,P|252:141|227:150,1,62.1600007587891,2|0,1:0|0:0,0:0:0:0:
44,178,86895,2,0,P|96:186|121:176,1,62.1600007587891,2|0,1:0|0:0,0:0:0:0:
340,64,87031,69,10,0:0:0:0:
39,99,87167,1,2,1:0:0:0:
449,170,87303,6,0,P|331:181|277:284,1,186.480002276367,6|0,1:0|0:0,0:0:0:0:
273,308,87576,69,10,0:0:0:0:
135,29,87712,1,2,1:0:0:0:
402,292,87849,1,2,1:0:0:0:
373,27,87985,1,0,1:0:0:0:
144,264,88122,2,0,P|134:187|162:143,1,124.320001517578,10|0,0:0|0:0,0:0:0:0:
273,30,88394,21,6,1:0:0:0:
191,341,89212,5,8,0:0:0:0:
128,115,89485,1,0,1:0:0:0:
363,179,90167,69,0,0:0:0:0:
201,226,90303,1,0,1:0:0:0:
359,96,90440,1,8,0:0:0:0:
369,288,90576,1,0,1:0:0:0:
56,46,91394,5,8,0:0:0:0:
452,166,91667,1,0,1:0:0:0:
86,286,92349,69,8,0:0:0:0:
223,205,92485,1,4,3:0:0:0:
298,267,92622,1,8,3:0:0:0:
91,203,92758,1,4,3:0:0:0:
351,33,93576,5,0,1:0:0:0:
391,215,93712,1,8,0:0:0:0:
443,68,93849,69,0,1:0:0:0:
342,152,93985,1,0,0:0:0:0:
456,279,94122,1,0,1:0:0:0:
448,148,94258,1,0,0:0:0:0:
208,318,94531,5,8,0:0:0:0:
73,246,94667,1,0,1:0:0:0:
294,268,94803,1,8,0:0:0:0:
124,180,94940,1,0,1:0:0:0:
448,148,95212,69,0,1:0:0:0:
83,106,95485,5,8,0:0:0:0:
479,70,95758,69,0,1:0:0:0:
407,233,95894,1,8,0:0:0:0:
389,70,96031,1,0,1:0:0:0:
329,126,96303,5,8,3:0:0:0:
250,137,96576,69,0,3:0:0:0:
171,121,96849,6,0,P|161:94|164:75,3,28.8599998238525,0|0|0|0,0:0|0:0|0:0|0:0,0:0:0:0:
228,57,97122,69,0,1:0:0:0:
379,333,97940,5,8,0:0:0:0:
100,251,98212,1,0,1:0:0:0:
321,117,98894,69,0,0:0:0:0:
483,70,99030,1,0,1:0:0:0:
325,200,99167,1,8,0:0:0:0:
314,8,99303,1,0,1:0:0:0:
66,340,100122,5,8,0:0:0:0:
380,246,100394,1,0,1:0:0:0:
49,85,101076,69,8,0:0:0:0:
229,110,101212,1,4,3:0:0:0:
70,166,101349,1,8,3:0:0:0:
245,188,101485,1,4,3:0:0:0:
470,31,102303,5,0,1:0:0:0:
505,211,102440,1,8,0:0:0:0:
415,95,102576,1,0,1:0:0:0:
306,361,102849,69,0,1:0:0:0:
66,101,103258,5,8,0:0:0:0:
223,126,103394,1,0,1:0:0:0:
34,182,103531,1,8,0:0:0:0:
184,53,103667,1,0,1:0:0:0:
283,220,103940,69,0,1:0:0:0:
476,37,104212,5,8,0:0:0:0:
417,315,104485,69,0,1:0:0:0:
385,122,104622,1,8,0:0:0:0:
467,236,104758,1,0,1:0:0:0:
476,37,104894,1,8,0:0:0:0:
397,199,105031,1,4,3:0:0:0:
264,55,105303,5,8,3:0:0:0:
472,152,105576,69,0,1:0:0:0:
281,274,105712,1,8,0:0:0:0:
196,262,108031,5,6,1:0:0:0:
196,262,108576,1,2,0:0:0:0:
196,262,109122,1,2,0:0:0:0:
196,262,109667,1,2,0:0:0:0:
196,262,110212,1,2,0:0:0:0:
196,262,110758,1,2,0:0:0:0:
196,262,111303,1,2,0:0:0:0:
196,262,111849,1,2,0:0:0:0:
431,301,112394,69,2,0:0:0:0:
431,301,112939,1,2,0:0:0:0:
431,301,113485,1,2,0:0:0:0:
431,301,114030,1,2,0:0:0:0:
431,301,114575,1,2,0:0:0:0:
431,301,115121,1,2,0:0:0:0:
259,154,115667,6,0,L|252:83,5,57.7199996477051,6|0|0|0|0|0,1:0|0:0|0:0|0:0|0:0|0:0,0:0:0:0:
327,218,116485,70,0,B|217:216|282:289|148:281,1,169.83000103656,8|0,0:0|0:0,0:0:0:0:
101,261,116758,6,0,P|83:200|159:106,1,182.04000277771,4|0,1:0|0:0,0:0:0:0:
397,31,117167,2,0,P|363:85|243:91,1,182.04000277771,0|0,1:0|0:0,0:0:0:0:
46,26,117576,1,8,0:0:0:0:
46,26,117849,70,0,B|62:100|62:100|42:141|42:141|55:234,1,182.04000277771,0|0,1:0|0:0,0:0:0:0:
151,350,118258,2,0,B|159:289|159:289|139:248|139:248|155:174,1,182.04000277771,0|0,1:0|0:0,0:0:0:0:
290,30,118667,1,8,0:0:0:0:
290,30,118940,6,0,B|340:34|340:34|401:74|401:172,1,182.04000277771,0|0,1:0|0:0,0:0:0:0:
475,342,119349,2,0,B|425:338|425:338|364:298|364:200,1,182.04000277771,0|0,1:0|0:0,0:0:0:0:
457,54,119758,1,8,0:0:0:0:
457,54,120031,70,0,B|412:97|412:97|271:74,1,182.04000277771,0|0,1:0|0:0,0:0:0:0:
62,145,120440,2,0,B|107:102|107:102|248:125,1,182.04000277771,0|0,1:0|0:0,0:0:0:0:
446,199,120849,1,8,0:0:0:0:
446,199,121122,6,0,B|322:224|419:261|258:295,1,182.04000277771,4|0,1:0|0:0,0:0:0:0:
131,289,121531,2,0,B|255:314|158:351|319:385,1,182.04000277771,0|0,1:0|0:0,0:0:0:0:
452,290,121940,1,8,0:0:0:0:
452,290,122212,70,0,P|377:272|337:164,1,182.04000277771,0|0,1:0|0:0,0:0:0:0:
136,65,122622,2,0,P|220:90|253:171,1,182.04000277771,0|0,1:0|0:0,0:0:0:0:
176,352,123031,1,8,0:0:0:0:
176,352,123303,5,0,1:0:0:0:
405,176,123712,69,0,1:0:0:0:
63,103,124122,5,8,0:0:0:0:
483,115,124394,69,0,0:0:0:0:
483,115,124667,6,0,P|406:96|387:109,1,86.5799994715576,2|0,0:0|0:0,0:0:0:0:
345,141,124940,70,0,P|264:152|227:122,1,119.880002926758,2|0,0:0|0:0,0:0:0:0:
161,84,125212,54,0,L|176:262,1,153.179994857849,2|0,0:0|0:0,0:0:0:0:
101,282,125485,54,0,B|219:248|174:337|308:304,1,203.129991631302,6|0,1:0|0:0,0:0:0:0:
360,270,125758,1,8,0:0:0:0:
296,81,125894,1,2,0:0:0:0:
420,326,126031,2,0,P|439:250|394:196,1,135.419994420868,2|0,1:0|0:0,0:0:0:0:
235,132,126303,1,8,0:0:0:0:
468,144,126440,1,2,0:0:0:0:
245,217,126576,2,0,P|172:195|160:116,1,135.419994420868,6|0,1:0|0:0,0:0:0:0:
376,71,126849,2,0,P|449:93|461:172,1,135.419994420868,10|0,0:0|0:0,0:0:0:0:
327,340,127122,2,0,L|321:106,1,203.129991631302,2|0,1:0|0:0,0:0:0:0:
283,73,127394,1,10,0:0:0:0:
400,254,127531,1,2,0:0:0:0:
235,132,127667,6,0,B|175:136|171:197|169:201|166:205|156:279|68:261,1,203.129991631302,6|0,1:0|0:0,0:0:0:0:
28,233,127940,2,0,P|15:154|59:100,1,135.419994420868,10|0,0:0|0:0,0:0:0:0:
261,215,128212,1,2,1:0:0:0:
94,177,128349,1,0,0:0:0:0:
309,103,128485,1,10,0:0:0:0:
236,291,128622,1,2,0:0:0:0:
235,132,128758,1,2,1:0:0:0:
307,329,128894,1,2,1:0:0:0:
165,155,129031,2,0,P|178:81|235:57,1,135.419994420868,10|0,0:0|0:0,0:0:0:0:
383,81,129303,2,0,P|370:155|313:179,1,135.419994420868,2|0,1:0|1:0,0:0:0:0:
227,57,129576,1,10,0:0:0:0:
367,243,129712,1,2,0:0:0:0:
165,155,129849,70,0,P|80:175|98:310,1,203.129991631302,6|0,1:0|0:0,0:0:0:0:
103,347,130122,1,8,0:0:0:0:
246,166,130258,1,2,0:0:0:0:
394,323,130394,2,0,P|445:263|428:191,1,135.419994420868,2|0,1:0|0:0,0:0:0:0:
332,43,130667,1,8,0:0:0:0:
367,243,130803,1,2,0:0:0:0:
249,75,130940,2,0,P|180:41|119:62,1,135.419994420868,6|0,1:0|0:0,0:0:0:0:
123,275,131212,2,0,P|187:289|245:256,1,135.419994420868,10|0,0:0|0:0,0:0:0:0:
27,94,131485,2,0,L|44:335,1,203.129991631302,2|0,1:0|0:0,0:0:0:0:
96,355,131758,1,10,0:0:0:0:
175,204,131894,1,2,0:0:0:0:
340,316,132031,6,0,P|415:311|440:244,1,135.419994420868,6|0,1:0|0:0,0:0:0:0:
316,76,132303,1,10,0:0:0:0:
367,243,132440,1,2,0:0:0:0:
401,62,132576,69,10,0:0:0:0:
298,199,132712,1,2,1:0:0:0:
447,184,132849,5,10,0:0:0:0:
316,76,132985,1,2,1:0:0:0:
213,217,133122,70,0,P|172:220|138:188,1,86.5799994715576,2|0,0:0|0:0,0:0:0:0:
219,115,133394,6,0,L|240:337,1,219.779999329285,14|0,0:0|0:0,0:0:0:0:
164,356,133667,70,0,B|235:335|235:335|289:363|289:363|404:339,1,203.129991631302,6|0,1:0|0:0,0:0:0:0:
434,367,133940,6,0,B|391:252|478:317|426:154,1,186.480002276367,14|0,0:0|0:0,0:0:0:0:
391,124,134212,70,0,B|320:86|320:86|240:85|196:152,1,203.129991631302,6|0,1:0|0:0,0:0:0:0:
200,207,134485,1,8,0:0:0:0:
159,39,134622,1,2,0:0:0:0:
142,263,134758,2,0,P|205:291|273:241,1,135.419994420868,2|0,1:0|0:0,0:0:0:0:
125,118,135031,1,8,0:0:0:0:
99,333,135167,1,2,0:0:0:0:
210,132,135303,2,0,L|356:115,1,135.419994420868,6|0,1:0|0:0,0:0:0:0:
394,278,135576,2,0,L|248:261,1,135.419994420868,10|0,0:0|0:0,0:0:0:0:
459,87,135849,2,0,L|478:335,1,203.129991631302,2|0,1:0|0:0,0:0:0:0:
427,353,136122,1,10,0:0:0:0:
370,193,136258,1,2,0:0:0:0:
287,358,136394,6,0,P|198:336|197:189,1,203.129991631302,6|0,1:0|0:0,0:0:0:0:
197,165,136667,1,10,0:0:0:0:
112,371,136803,1,0,0:0:0:0:
116,123,136940,2,0,P|206:77|290:149,1,203.129991631302,2|0,1:0|0:0,0:0:0:0:
293,203,137212,1,10,0:0:0:0:
350,34,137349,1,2,0:0:0:0:
350,34,137417,1,0,0:0:0:0:
350,34,137485,1,2,1:0:0:0:
197,165,137622,2,0,L|212:329,1,135.419994420868,2|10,1:0|0:0,0:0:0:0:
368,114,137894,1,0,0:0:0:0:
304,279,138031,69,2,1:0:0:0:
274,54,138167,1,0,1:0:0:0:
391,294,138303,5,10,0:0:0:0:
287,139,138440,1,2,0:0:0:0:
209,299,138576,70,0,B|162:321|162:321|98:302|87:225|127:176,1,203.129991631302,6|0,1:0|0:0,0:0:0:0:
156,133,138849,2,0,P|179:58|150:14,1,135.419994420868,8|2,0:0|0:0,0:0:0:0:
210,215,139122,1,2,1:0:0:0:
102,75,139258,1,0,0:0:0:0:
291,229,139394,1,8,0:0:0:0:
113,197,139531,1,2,0:0:0:0:
342,158,139667,2,0,P|380:247|354:298,1,135.419994420868,6|0,1:0|0:0,0:0:0:0:
66,280,139940,2,0,P|28:191|54:140,1,135.419994420868,10|0,0:0|0:0,0:0:0:0:
303,26,140212,2,0,L|288:266,1,203.129991631302,2|0,1:0|0:0,0:0:0:0:
282,304,140485,1,10,0:0:0:0:
223,83,140622,1,2,0:0:0:0:
223,358,140758,6,0,P|314:378|356:326,1,135.419994420868,6|0,1:0|0:0,0:0:0:0:
153,312,141031,1,10,0:0:0:0:
392,296,141167,1,2,0:0:0:0:
139,232,141303,1,10,0:0:0:0:
397,217,141440,1,2,1:0:0:0:
125,153,141576,1,10,0:0:0:0:
404,137,141712,1,2,1:0:0:0:
72,320,141849,69,0,1:0:0:0:
485,290,142122,5,4,1:0:0:0:
39,159,142394,69,0,1:0:0:0:
490,129,142667,5,10,0:0:0:0:
257,142,142803,1,2,1:0:0:0:
411,1,142940,6,0,L|403:148,1,135.419994420868,6|0,1:0|0:0,0:0:0:0:
387,343,143212,1,10,0:0:0:0:
321,84,143349,1,2,0:0:0:0:
286,323,143485,5,2,1:0:0:0:
501,206,143622,1,6,3:0:0:0:
257,142,143758,69,10,0:0:0:0:
213,372,143894,1,10,3:0:0:0:
156,106,144031,5,2,1:0:0:0:
156,106,144712,5,0,1:0:0:0:
182,180,144849,2,0,P|220:150|273:142,1,86.5799994715576,4|0,0:0|0:0,0:0:0:0:
331,167,145122,21,6,1:0:0:0:
171,268,145258,1,2,0:0:0:0:
317,84,145394,1,10,0:0:0:0:
386,354,145531,2,0,L|410:172,1,169.83000103656,2|0,1:0|0:0,0:0:0:0:
395,108,145803,1,2,1:0:0:0:
308,325,145940,1,10,0:0:0:0:
256,141,146076,1,2,0:0:0:0:
228,348,146212,1,2,1:0:0:0:
474,263,146349,1,2,0:0:0:0:
239,228,146485,2,0,P|181:220|99:266,1,113.22000069104,10|0,0:0|1:0,0:0:0:0:
333,114,146758,5,2,0:0:0:0:
308,325,146894,1,2,0:0:0:0:
308,325,146962,1,0,0:0:0:0:
308,325,147031,1,10,0:0:0:0:
256,141,147167,1,2,0:0:0:0:
105,317,147303,70,0,P|54:262|115:154,1,169.83000103656,6|0,1:0|0:0,0:0:0:0:
125,120,147576,2,0,P|148:56|129:0,1,113.22000069104,10|4,0:0|1:0,0:0:0:0:
207,211,147849,2,0,P|197:265|219:317,1,113.22000069104,2|0,0:0|1:0,0:0:0:0:
320,67,148122,1,10,0:0:0:0:
380,312,148258,2,0,L|392:191,1,113.22000069104,2|0,0:0|1:0,0:0:0:0:
406,43,148531,1,0,0:0:0:0:
234,91,148667,2,0,L|110:123,1,113.22000069104,8|0,0:0|1:0,0:0:0:0:
109,345,148940,2,0,L|233:313,1,113.22000069104,0|0,0:0|1:0,0:0:0:0:
45,143,149212,1,8,0:0:0:0:
294,294,149349,1,0,0:0:0:0:
406,43,149485,6,0,P|370:123|417:227,1,169.83000103656,6|0,1:0|0:0,0:0:0:0:
436,257,149758,1,8,0:0:0:0:
257,171,149894,2,0,B|135:154|135:154|105:197,1,169.83000103656,0|0,1:0|0:0,0:0:0:0:
69,257,150167,1,0,1:0:0:0:
233,92,150303,2,0,P|316:112|316:229,1,169.83000103656,8|0,0:0|0:0,0:0:0:0:
299,247,150576,2,0,P|289:318|324:363,1,113.22000069104,0|0,1:0|0:0,0:0:0:0:
257,171,150849,1,8,0:0:0:0:
369,292,150985,1,0,1:0:0:0:
207,228,151122,1,0,0:0:0:0:
418,175,151258,1,0,1:0:0:0:
208,309,151394,2,0,P|146:285|135:211,1,113.22000069104,8|0,0:0|0:0,0:0:0:0:
199,82,151667,70,0,L|209:350,1,226.44000138208,4|8,1:0|0:0,0:0:0:0:
120,114,152076,1,0,0:0:0:0:
320,209,152212,2,0,P|394:201|424:158,1,113.22000069104,0|0,0:0|1:0,0:0:0:0:
222,3,152485,2,0,P|148:11|118:54,1,113.22000069104,8|0,0:0|0:0,0:0:0:0:
207,308,152758,2,0,L|202:168,1,113.22000069104,4|0,1:0|0:0,0:0:0:0:
355,22,153031,2,0,L|350:162,1,113.22000069104,8|0,0:0|1:0,0:0:0:0:
129,228,153303,1,0,0:0:0:0:
262,104,153440,1,0,1:0:0:0:
403,286,153576,1,12,0:0:0:0:
403,286,153849,5,6,1:0:0:0:
282,207,153985,1,2,0:0:0:0:
428,129,154122,1,10,0:0:0:0:
296,283,154258,2,0,P|224:261|218:163,1,169.83000103656,2|0,1:0|0:0,0:0:0:0:
272,130,154531,1,2,1:0:0:0:
312,355,154667,1,10,0:0:0:0:
210,176,154803,1,2,0:0:0:0:
155,357,154940,1,2,1:0:0:0:
365,246,155076,1,2,0:0:0:0:
128,282,155212,2,0,P|51:265|24:203,1,113.22000069104,10|0,0:0|1:0,0:0:0:0:
195,94,155485,69,6,0:0:0:0:
322,189,155622,1,2,0:0:0:0:
106,203,155758,1,10,0:0:0:0:
202,82,155894,1,2,0:0:0:0:
302,270,156031,6,0,P|374:260|400:198,1,113.22000069104,6|0,1:0|0:0,0:0:0:0:
358,22,156303,2,0,B|316:-7|316:-7|320:126,1,169.83000103656,10|0,0:0|0:0,0:0:0:0:
322,189,156576,2,0,L|199:180,1,113.22000069104,2|0,0:0|1:0,0:0:0:0:
64,325,156849,1,10,0:0:0:0:
156,115,156985,2,0,P|127:188|147:237,2,113.22000069104,2|0|0,0:0|1:0|0:0,0:0:0:0:
219,303,157394,2,0,L|331:311,1,113.22000069104,10|0,0:0|1:0,0:0:0:0:
432,103,157667,2,0,L|319:111,1,113.22000069104,2|0,0:0|1:0,0:0:0:0:
412,321,157940,1,10,0:0:0:0:
239,116,158076,1,2,0:0:0:0:
150,355,158212,70,0,P|132:287|228:217,1,169.83000103656,6|0,1:0|0:0,0:0:0:0:
271,224,158485,1,8,0:0:0:0:
80,194,158622,2,0,P|42:132|133:38,1,169.83000103656,2|0,1:0|0:0,0:0:0:0:
154,35,158894,1,0,1:0:0:0:
357,154,159031,2,0,L|98:121,1,226.44000138208,10|0,0:0|1:0,0:0:0:0:
332,52,159440,5,2,0:0:0:0:
384,245,159576,1,8,0:0:0:0:
251,62,159712,1,2,1:0:0:0:
199,255,159848,1,2,0:0:0:0:
348,35,159985,1,2,1:0:0:0:
400,228,160121,1,10,0:0:0:0:
235,41,160258,1,2,0:0:0:0:
262,304,160394,70,0,P|183:336|117:263,1,169.83000103656,6|0,1:0|0:0,0:0:0:0:
92,216,160667,1,10,0:0:0:0:
251,62,160803,1,2,1:0:0:0:
199,255,160940,2,0,P|185:179|223:124,1,113.22000069104,2|0,0:0|1:0,0:0:0:0:
321,11,161212,2,0,P|335:87|297:142,1,113.22000069104,10|0,0:0|0:0,0:0:0:0:
37,63,161485,6,0,P|105:12|205:31,1,169.83000103656,4|0,1:1|0:0,0:0:0:0:
251,62,161758,1,8,0:0:0:0:
62,180,161894,2,0,P|146:192|203:276,1,169.83000103656,0|0,1:0|0:0,0:0:0:0:
214,330,162167,1,0,1:0:0:0:
441,119,162303,2,0,P|356:131|299:215,1,169.83000103656,8|0,0:0|0:0,0:0:0:0:
289,269,162576,53,0,1:0:0:0:
128,36,162985,69,0,1:0:0:0:
418,232,163394,5,8,0:0:0:0:
23,185,163667,69,0,1:0:0:0:
305,145,163940,6,0,L|332:140,5,24.6498128653084,0|0|0|0|0|0,0:0|0:0|0:0|0:0|0:0|0:0,0:0:0:0:
