osu file format v14

[General]
AudioFilename: audio.mp3
AudioLeadIn: 0
PreviewTime: 26962
Countdown: 0
SampleSet: Soft
StackLeniency: 0.7
Mode: 0
LetterboxInBreaks: 0
WidescreenStoryboard: 0

[Editor]
Bookmarks: 1122,9849,27303,30576,36031,39303,44758,53485,58940,70940,79667,88394,98758,108031,116758,125485,145122,164758
DistanceSpacing: 0.8
BeatDivisor: 4
GridSize: 16
TimelineZoom: 1.999999

[Metadata]
Title:Toumei Elegy
TitleUnicode:透明エレジー
Artist:nameless
ArtistUnicode:nameless
Creator:Sotarks
Version:NiNo's Insane
Source:
Tags:櫻花アリス ナブナmegpoid gumi utau vocaloid konuko utaite akitoshi corinn kalibe irohas mugiwarasekai mir snownino_ milan-
BeatmapID:1536777
BeatmapSetID:723730

[Difficulty]
HPDrainRate:5
CircleSize:4
OverallDifficulty:8
ApproachRate:9
SliderMultiplier:1.8
SliderTickRate:1

[Events]
//Background and Video events
0,0,"Ittai.jpg",0,0
//Break Periods
2,108231,115885
//Storyboard Layer 0 (Background)
//Storyboard Layer 1 (Fail)
//Storyboard Layer 2 (Pass)
//Storyboard Layer 3 (Foreground)
//Storyboard Sound Samples

[TimingPoints]
1122,272.727272727273,4,2,22,40,1,0
9849,-100,4,2,22,60,0,0
27303,-133.333333333333,4,2,22,40,0,0
35758,-66.6666666666667,4,2,22,40,0,0
36031,-133.333333333333,4,2,22,40,0,0
53485,-83.3333333333333,4,2,22,80,0,1
61122,-200,4,2,22,80,0,0
61326,-200,4,2,22,5,0,0
61394,-66.6666666666667,4,2,22,80,0,1
61599,-66.6666666666667,4,2,22,5,0,1
61667,-66.6666666666667,4,2,22,80,0,1
61872,-66.6666666666667,4,2,22,5,0,1
61940,-66.6666666666667,4,2,22,80,0,1
62144,-66.6666666666667,4,2,22,5,0,1
62212,-83.3333333333333,4,2,22,80,0,1
70940,-100,4,2,22,60,0,0
89212,-133.333333333333,4,2,22,40,0,0
125485,-83.3333333333333,4,2,22,80,0,1
133122,-200,4,2,22,80,0,0
133326,-200,4,2,22,5,0,0
133394,-66.6666666666667,4,2,22,80,0,1
133599,-66.6666666666667,4,2,22,5,0,1
133667,-66.6666666666667,4,2,22,80,0,1
133872,-66.6666666666667,4,2,22,5,0,1
133940,-66.6666666666667,4,2,22,80,0,1
134144,-66.6666666666667,4,2,22,5,0,1
134212,-83.3333333333333,4,2,22,80,0,1
144849,-66.6666666666667,4,2,22,80,0,1
145122,-100,4,2,22,60,0,0
162576,-133.333333333333,4,2,22,40,0,0

[Colours]
Combo1 : 253,240,85
Combo2 : 204,200,200
Combo3 : 108,108,108
Combo4 : 252,158,160
Combo5 : 253,216,159
Combo6 : 255,43,43
SliderBorder : 255,255,255
SliderTrackOverride : 0,0,0

[HitObjects]
82,258,1122,6,0,B|149:252|149:252|185:275|185:275|271:270,1,180,6|2,1:2|0:0,0:0:0:0:
333,316,1531,2,0,P|290:256|339:168,1,180,0|0,1:2|0:0,0:0:0:0:
338,174,1940,1,10,0:0:0:0:
338,174,2212,6,0,L|134:163,1,180,2|2,1:0|0:0,0:0:0:0:
196,82,2622,2,0,L|399:71,1,180,2|0,1:0|0:0,0:0:0:0:
380,77,3031,1,10,0:0:0:0:
380,77,3303,6,0,L|370:273,1,180,2|2,1:0|0:0,0:0:0:0:
369,347,3712,2,0,P|359:296|238:274,1,180,2|0,1:0|0:0,0:0:0:0:
252,270,4122,1,10,0:0:0:0:
252,270,4394,6,0,L|147:261,1,90,2|0,1:0|0:0,0:0:0:0:
73,245,4667,2,0,L|82:140,1,90,2|0,0:0|1:0,0:0:0:0:
93,65,4940,2,0,L|198:74,1,90,2|0,0:0|0:0,0:0:0:0:
272,90,5213,2,0,L|263:195,1,90,10|0,0:0|0:0,0:0:0:0:
252,270,5485,6,0,P|283:222|412:240,1,180,6|0,1:0|0:0,0:0:0:0:
339,290,5894,2,0,L|135:284,1,180,0|0,1:0|0:0,0:0:0:0:
163,288,6303,1,10,0:0:0:0:
163,288,6576,6,0,B|99:263|99:263|94:124,1,180,2|2,1:0|0:0,0:0:0:0:
93,61,6985,2,0,P|124:115|245:105,1,180,0|0,1:0|0:0,0:0:0:0:
235,121,7394,1,10,0:0:0:0:
235,121,7667,6,0,L|429:113,1,180,2|0,1:0|0:0,0:0:0:0:
501,88,8076,2,0,P|446:99|447:226,1,180,0|0,1:0|0:0,0:0:0:0:
426,206,8485,1,10,0:0:0:0:
426,206,8758,5,2,1:0:0:0:
427,207,9849,6,0,L|319:202,1,90,6|0,1:0|0:0,0:0:0:0:
247,194,10122,1,10,0:0:0:0:
299,121,10258,2,0,P|334:171|271:281,1,180,2|2,1:0|1:0,0:0:0:0:
201,271,10667,1,10,0:0:0:0:
247,194,10803,1,2,0:0:0:0:
292,272,10940,6,0,L|299:375,1,90,2|2,1:0|0:0,0:0:0:0:
156,193,11212,2,0,L|163:90,1,90,10|0,0:0|1:0,0:0:0:0:
215,30,11485,1,2,0:0:0:0:
252,112,11622,1,2,0:0:0:0:
305,39,11758,1,10,0:0:0:0:
342,121,11894,1,2,0:0:0:0:
395,48,12031,6,0,L|501:38,1,90,6|0,1:0|0:0,0:0:0:0:
252,112,12303,2,0,L|146:102,1,90,10|4,0:0|1:0,0:0:0:0:
379,203,12576,2,0,L|485:193,1,90,2|0,0:0|1:0,0:0:0:0:
342,121,12849,1,10,0:0:0:0:
289,194,12985,6,0,L|299:375,1,180,2|0,0:0|0:0,0:0:0:0:
215,339,13394,2,0,L|210:242,1,90,8|0,0:0|1:0,0:0:0:0:
126,171,13667,2,0,L|121:268,1,90,0|0,0:0|1:0,0:0:0:0:
32,255,13940,1,8,0:0:0:0:
37,166,14076,1,0,0:0:0:0:
126,171,14212,6,0,B|189:158|189:158|232:182|232:182|309:165,1,180,6|8,1:0|0:0,0:0:0:0:
375,121,14622,2,0,P|329:150|358:271,1,180,0|0,1:0|1:0,0:0:0:0:
421,304,15031,2,0,L|223:285,1,180,8|0,0:0|1:0,0:0:0:0:
170,342,15440,6,0,B|222:315|222:315|209:176,1,180,0|0,0:0|1:0,0:0:0:0:
128,156,15849,2,0,L|139:54,1,90,0|0,0:0|1:0,0:0:0:0:
221,31,16122,1,8,0:0:0:0:
221,31,16394,6,0,P|285:23|354:115,1,180,0|8,1:0|0:0,0:0:0:0:
263,113,16803,1,0,0:0:0:0:
171,109,16940,2,0,P|137:72|132:20,1,90,0|0,0:0|1:0,0:0:0:0:
213,190,17212,2,0,P|197:237|155:268,1,90,8|0,0:0|0:0,0:0:0:0:
85,299,17485,6,0,L|290:288,1,180,4|8,1:0|0:0,0:0:0:0:
347,325,17894,1,0,1:0:0:0:
382,241,18031,2,0,L|389:136,1,90,0|0,0:0|1:0,0:0:0:0:
396,61,18303,2,0,L|306:55,1,90,8|0,0:0|0:0,0:0:0:0:
225,96,18576,5,6,1:0:0:0:
299,145,18712,1,2,0:0:0:0:
218,186,18849,1,10,0:0:0:0:
292,235,18985,2,0,L|381:240,1,90,2|0,1:0|0:0,0:0:0:0:
218,186,19258,1,2,1:0:0:0:
211,276,19394,1,10,0:0:0:0:
137,227,19531,1,2,0:0:0:0:
130,317,19667,6,0,L|40:311,1,90,2|2,1:0|0:0,0:0:0:0:
211,276,19940,2,0,L|300:270,1,90,10|0,0:0|1:0,0:0:0:0:
137,227,20212,1,2,0:0:0:0:
218,186,20348,1,2,0:0:0:0:
144,137,20485,2,0,L|54:131,1,90,10|2,0:0|0:0,0:0:0:0:
225,96,20758,6,0,B|298:90|298:90|336:107|336:107|425:102,1,180,6|10,1:0|0:0,0:0:0:0:
487,79,21167,1,4,1:0:0:0:
422,16,21303,2,0,P|400:54|480:172,1,180,2|10,0:0|0:0,0:0:0:0:
494,246,21712,6,0,L|280:223,1,180
250,162,22122,2,0,P|289:138|344:140,1,90,10|0,0:0|1:0,0:0:0:0:
223,246,22394,2,0,P|182:224|156:175,1,90,2|0,0:0|1:0,0:0:0:0:
315,226,22667,1,10,0:0:0:0:
288,310,22803,1,2,0:0:0:0:
250,162,22940,6,0,P|304:136|403:203,1,180,6|8,1:0|0:0,0:0:0:0:
315,226,23349,2,0,L|298:40,1,180,2|0,1:0|1:0,0:0:0:0:
214,14,23758,2,0,B|106:6|106:6|49:81,1,180,10|0,0:0|1:0,0:0:0:0:
76,152,24167,5,2,0:0:0:0:
147,97,24303,1,8,0:0:0:0:
161,186,24440,1,2,1:0:0:0:
232,131,24576,2,0,L|332:125,1,90,2|2,0:0|1:0,0:0:0:0:
328,239,24849,2,0,L|228:233,1,90,10|2,0:0|0:0,0:0:0:0:
161,186,25122,6,0,B|216:222|216:222|194:340,1,180,6|10,1:0|0:0,0:0:0:0:
109,362,25531,1,2,1:0:0:0:
86,275,25667,2,0,L|69:179,1,90,2|0,0:0|1:0,0:0:0:0:
161,186,25940,2,0,L|178:90,1,90,10|0,0:0|0:0,0:0:0:0:
238,31,26212,6,0,B|262:96|262:96|398:112,1,180,6|8,1:0|0:0,0:0:0:0:
462,95,26622,2,0,P|409:106|401:229,1,180,0|0,1:0|1:0,0:0:0:0:
454,277,27031,1,8,0:0:0:0:
256,192,27303,6,0,B|171:189|171:189|128:137,1,135.000005149842,6|2,1:0|0:0,0:0:0:0:
210,111,27712,2,0,B|295:114|295:114|338:166,1,135.000005149842,0|0,1:0|0:0,0:0:0:0:
242,258,28122,2,0,L|257:182,1,67.5000025749208,10|0,0:0|0:0,0:0:0:0:
255,191,28394,1,2,1:0:0:0:
255,191,29485,6,0,L|107:200,1,135.000005149842,2|0,1:0|0:0,0:0:0:0:
104,119,29894,2,0,P|150:123|202:204,1,135.000005149842,0|0,1:0|0:0,0:0:0:0:
110,266,30303,2,0,L|123:183,1,67.5000025749208,10|0,0:0|0:0,0:0:0:0:
120,199,30576,1,2,1:0:0:0:
120,199,31667,6,0,P|163:159|161:83,1,135.000005149842,2|0,1:0|0:0,0:0:0:0:
90,123,32076,2,0,L|242:141,1,135.000005149842,0|0,1:0|0:0,0:0:0:0:
344,107,32485,2,0,L|326:180,1,67.5000025749208,8|0,0:0|0:0,0:0:0:0:
327,172,32758,1,0,1:0:0:0:
327,172,33849,6,0,L|341:332,1,135.000005149842,0|0,1:0|0:0,0:0:0:0:
286,368,34258,2,0,P|288:317|218:257,1,135.000005149842,0|0,1:0|0:0,0:0:0:0:
134,352,34667,2,0,L|214:341,1,67.5000025749208,8|0,0:0|0:0,0:0:0:0:
200,342,34940,5,0,1:0:0:0:
311,41,35212,2,0,B|229:31|229:31|169:59|169:59|76:46,1,236.250009012223,2|0,3:0|0:0,0:0:0:0:
35,27,35758,6,0,L|51:171,1,135.000005149842,12|0,0:0|0:0,0:0:0:0:
31,240,36031,6,0,P|58:200|162:196,1,135.000005149842,6|2,1:0|1:0,0:0:0:0:
225,214,36440,2,0,P|198:254|94:258,1,135.000005149842,0|0,1:0|1:0,0:0:0:0:
208,125,36849,2,0,P|243:123|281:141,1,67.5000025749208,8|0,0:0|0:0,0:0:0:0:
313,205,37122,6,0,L|320:355,1,135.000005149842,2|2,1:0|1:0,0:0:0:0:
396,313,37531,2,0,L|389:178,1,135.000005149842,0|0,1:0|1:0,0:0:0:0:
247,191,37940,2,0,L|329:208,1,67.5000025749208,10|0,0:0|0:0,0:0:0:0:
327,125,38212,6,0,P|305:77|208:56,1,135.000005149842,6|0,1:0|0:0,0:0:0:0:
243,134,38622,2,0,P|221:182|124:203,1,135.000005149842,0|0,1:0|0:0,0:0:0:0:
89,103,39031,2,0,L|172:124,1,67.5000025749208,10|0,0:0|0:0,0:0:0:0:
147,209,39303,6,0,P|107:206|43:277,1,135.000005149842,2|2,1:0|1:0,0:0:0:0:
123,287,39712,2,0,L|272:296,1,135.000005149842,0|0,1:0|1:0,0:0:0:0:
396,282,40122,2,0,L|364:348,1,67.5000025749208,10|0,0:0|0:0,0:0:0:0:
288,362,40394,6,0,L|276:203,1,135.000005149842,6|0,1:0|0:0,0:0:0:0:
317,156,40803,2,0,P|282:200|186:196,1,135.000005149842,0|0,1:0|0:0,0:0:0:0:
220,64,41212,2,0,L|237:135,1,67.5000025749208,10|0,0:0|0:0,0:0:0:0:
207,207,41485,6,0,P|172:175|73:187,1,135.000005149842,2|0,1:0|0:0,0:0:0:0:
27,230,41894,2,0,L|35:370,1,135.000005149842,0|0,1:0|0:0,0:0:0:0:
191,351,42303,2,0,L|116:339,1,67.5000025749208,10|0,0:0|0:0,0:0:0:0:
145,261,42576,6,0,L|286:238,1,135.000005149842,2|2,1:0|0:0,0:0:0:0:
348,280,42985,2,0,P|316:249|331:148,1,135.000005149842,4|0,3:0|0:0,0:0:0:0:
453,195,43394,2,0,L|375:209,1,67.5000025749208,10|0,0:0|0:0,0:0:0:0:
322,167,43667,5,2,1:0:0:0:
322,167,43940,1,8,3:0:0:0:
287,88,44076,1,8,3:0:0:0:
212,119,44212,2,0,L|128:124,1,67.5000025749208,12|0,3:0|0:0,0:0:0:0:
243,194,44485,2,0,L|247:261,1,67.5000025749208,12|0,0:0|0:0,0:0:0:0:
261,341,44758,6,0,B|238:288|238:288|141:277,1,135.000005149842,6|0,1:0|0:0,0:0:0:0:
86,312,45167,1,0,0:0:0:0:
86,312,45303,2,0,P|117:289|115:187,1,135.000005149842,8|2,0:0|0:0,0:0:0:0:
57,152,45712,1,0,1:0:0:0:
57,152,45781,1,8,0:0:0:0:
57,152,45849,6,0,L|65:75,1,67.5000025749208,2|0,1:0|0:0,0:0:0:0:
144,92,46122,2,0,L|221:100,1,67.5000025749208,2|0,0:0|0:0,0:0:0:0:
290,116,46394,2,0,L|283:183,1,67.5000025749208,2|0,1:0|0:0,0:0:0:0:
363,191,46667,2,0,L|430:197,1,67.5000025749208,2|0,1:0|0:0,0:0:0:0:
511,192,46940,6,0,P|471:202|441:292,1,135.000005149842,6|2,1:0|0:0,0:0:0:0:
453,362,47349,1,0,1:0:0:0:
453,362,47485,2,0,L|371:340,1,67.5000025749208,10|0,0:0|0:0,0:0:0:0:
290,286,47758,2,0,L|371:264,1,67.5000025749208,10|0,0:0|1:0,0:0:0:0:
437,282,48031,6,0,B|397:250|397:250|385:152,1,135.000005149842,2|12,1:0|0:0,0:0:0:0:
374,86,48440,1,0,1:0:0:0:
310,136,48576,2,0,P|280:155|239:153,1,67.5000025749208,2|0,0:0|1:0,0:0:0:0:
195,55,48849,2,0,P|229:56|257:75,1,67.5000025749208,10|4,3:0|3:0,0:0:0:0:
249,156,49122,6,0,L|103:150,1,135.000005149842,2|0,1:0|0:0,0:0:0:0:
46,105,49531,1,4,1:0:0:0:
18,180,49667,2,0,L|24:258,1,67.5000025749208,0|0,0:0|0:0,0:0:0:0:
52,323,49940,1,2,0:0:0:0:
124,288,50076,1,0,1:0:0:0:
124,288,50144,1,8,0:0:0:0:
124,288,50212,6,0,L|194:284,1,67.5000025749208,2|0,1:0|0:0,0:0:0:0:
231,354,50485,2,0,L|301:358,1,67.5000025749208,2|0,0:0|0:0,0:0:0:0:
378,267,50758,2,0,L|308:271,1,67.5000025749208,2|0,0:0|0:0,0:0:0:0:
377,366,51031,2,0,L|447:370,1,67.5000025749208,10|0,3:0|0:0,0:0:0:0:
485,300,51303,6,0,P|499:263|496:227,1,67.5000025749208,0|0,1:0|0:0,0:0:0:0:
501,154,51576,2,0,L|357:140,1,135.000005149842,8|0,0:0|0:0,0:0:0:0:
298,96,51985,1,0,1:0:0:0:
258,167,52122,2,0,L|263:244,1,67.5000025749208,8|4,0:0|3:0,0:0:0:0:
222,304,52394,5,2,1:0:0:0:
158,253,52531,1,0,0:0:0:0:
158,253,52599,1,0,0:0:0:0:
158,253,52667,1,10,0:0:0:0:
118,323,52803,1,0,0:0:0:0:
54,272,52940,1,2,1:0:0:0:
54,272,53485,6,0,B|20:207|20:207|58:61,1,215.999993408203,6|8,1:0|0:0,0:0:0:0:
108,0,53894,1,2,0:0:0:0:
143,79,54031,2,0,P|191:105|252:98,1,107.999996704102,2|0,1:0|0:0,0:0:0:0:
301,38,54303,2,0,P|347:12|400:15,1,107.999996704102,8|2,0:0|0:0,0:0:0:0:
512,60,54576,6,0,P|444:74|454:205,1,215.999993408203,6|10,1:0|0:0,0:0:0:0:
500,265,54985,1,0,0:0:0:0:
414,276,55122,2,0,L|292:262,1,107.999996704102,2|0,1:0|0:0,0:0:0:0:
245,203,55394,1,10,0:0:0:0:
328,180,55531,1,2,0:0:0:0:
223,286,55667,6,0,L|101:272,1,107.999996704102,6|0,1:0|0:0,0:0:0:0:
30,255,55940,2,0,L|44:133,1,107.999996704102,10|0,0:0|0:0,0:0:0:0:
98,82,56212,1,2,1:0:0:0:
163,138,56349,1,0,0:0:0:0:
219,73,56485,2,0,L|326:85,1,107.999996704102,10|2,0:0|0:0,0:0:0:0:
409,104,56758,5,2,1:0:0:0:
386,21,56894,1,2,1:0:0:0:
326,85,57031,2,0,L|334:201,1,107.999996704102,10|0,0:0|0:0,0:0:0:0:
302,273,57303,1,2,1:0:0:0:
302,273,57440,1,0,1:0:0:0:
252,161,57576,1,10,0:0:0:0:
333,192,57712,1,2,0:0:0:0:
221,242,57849,6,0,B|85:231|85:231|37:147,1,215.999993408203,6|8,1:0|0:0,0:0:0:0:
82,83,58258,1,2,0:0:0:0:
135,150,58394,2,0,B|271:161|271:161|319:245,1,215.999993408203,2|8,1:0|0:0,0:0:0:0:
322,319,58803,1,2,0:0:0:0:
221,242,58940,6,0,L|109:233,1,107.999996704102,6|0,1:0|0:0,0:0:0:0:
310,230,59212,2,0,L|422:221,1,107.999996704102,10|0,0:0|0:0,0:0:0:0:
209,153,59485,2,0,L|97:144,1,107.999996704102,2|0,1:0|0:0,0:0:0:0:
298,141,59758,1,10,0:0:0:0:
310,230,59894,1,2,0:0:0:0:
209,153,60031,6,0,L|215:29,1,107.999996704102,6|0,1:0|0:0,0:0:0:0:
298,141,60303,1,10,0:0:0:0:
310,230,60440,1,2,0:0:0:0:
221,242,60576,2,0,L|109:233,1,107.999996704102,10|2,0:0|1:0,0:0:0:0:
40,185,60849,1,10,0:0:0:0:
116,145,60985,1,2,1:0:0:0:
113,233,61122,6,0,P|117:270|107:304,1,67.5,2|0,0:0|0:0,0:0:0:0:
70,328,61394,6,0,B|145:312|145:312|191:339|191:339|280:323,1,202.500007724762,14|0,0:0|0:0,0:0:0:0:
312,348,61667,2,0,P|268:280|364:205,1,202.500007724762,6|0,1:0|0:0,0:0:0:0:
393,216,61940,2,0,L|176:188,1,202.500007724762,14|0,0:0|0:0,0:0:0:0:
144,221,62212,6,0,B|197:160|197:160|186:8,1,215.999993408203,6|8,1:0|0:0,0:0:0:0:
101,9,62622,1,2,0:0:0:0:
70,89,62758,2,0,L|61:198,1,107.999996704102,2|0,1:0|0:0,0:0:0:0:
144,221,63031,2,0,L|153:330,1,107.999996704102,8|2,0:0|0:0,0:0:0:0:
229,368,63303,6,0,B|265:330|265:330|330:325,1,107.999996704102,6|0,1:0|0:0,0:0:0:0:
398,358,63576,2,0,L|406:240,1,107.999996704102,10|0,0:0|0:0,0:0:0:0:
479,205,63849,2,0,L|470:76,1,107.999996704102,2|0,1:0|0:0,0:0:0:0:
407,38,64122,1,10,0:0:0:0:
373,117,64258,1,2,0:0:0:0:
309,58,64394,6,0,L|199:49,1,107.999996704102,6|0,1:0|0:0,0:0:0:0:
133,102,64667,1,10,0:0:0:0:
199,156,64803,1,0,0:0:0:0:
131,209,64940,2,0,L|21:218,1,107.999996704102,2|0,1:0|0:0,0:0:0:0:
197,263,65212,1,10,0:0:0:0:
129,316,65348,1,2,0:0:0:0:
195,370,65485,6,0,L|305:379,1,107.999996704102,2|2,1:0|1:0,0:0:0:0:
336,298,65758,2,0,L|446:289,1,107.999996704102,10|0,0:0|0:0,0:0:0:0:
504,226,66031,1,2,1:0:0:0:
419,207,66167,1,0,1:0:0:0:
480,144,66303,2,0,L|472:30,1,107.999996704102,10|2,0:0|0:0,0:0:0:0:
388,15,66576,6,0,P|371:71|227:54,1,215.999993408203,6|8,1:0|0:0,0:0:0:0:
168,16,66985,1,2,0:0:0:0:
123,90,67122,2,0,L|114:208,1,107.999996704102,2|0,1:0|0:0,0:0:0:0:
31,220,67394,2,0,L|40:338,1,107.999996704102,8|2,0:0|0:0,0:0:0:0:
198,222,67667,6,0,L|206:114,1,107.999996704102,6|0,1:0|0:0,0:0:0:0:
115,197,67940,2,0,L|123:304,1,107.999996704102,10|0,0:0|0:0,0:0:0:0:
185,364,68212,2,0,B|225:328|225:328|306:323,1,107.999996704102,2|0,1:0|0:0,0:0:0:0:
359,357,68485,2,0,P|324:313|331:243,1,107.999996704102,10|2,0:0|0:0,0:0:0:0:
383,143,68758,6,0,P|365:202|220:186,1,215.999993408203,6|10,1:0|0:0,0:0:0:0:
216,117,69167,1,2,0:0:0:0:
298,148,69303,2,0,L|315:271,1,107.999996704102,10|2,0:0|1:0,0:0:0:0:
398,269,69576,2,0,L|381:392,1,107.999996704102,10|2,0:0|1:0,0:0:0:0:
296,369,69849,6,0,B|231:343|231:343|168:372|168:372|83:337,1,215.999993408203,6|8,1:0|0:0,0:0:0:0:
28,289,70258,1,0,0:0:0:0:
81,221,70394,2,0,L|310:207,1,215.999993408203,0|8,1:0|0:0,0:0:0:0:
383,202,70803,1,0,0:0:0:0:
291,120,70940,6,0,L|176:113,1,90,6|0,1:0|0:0,0:0:0:0:
148,41,71212,2,0,L|33:48,1,90,10|2,0:0|1:0,0:0:0:0:
14,125,71485,2,0,P|58:139|81:187,1,90,0|0,0:0|1:0,0:0:0:0:
101,262,71758,1,10,0:0:0:0:
14,239,71894,6,0,P|47:189|170:206,1,180,2|2,0:0|0:0,0:0:0:0:
189,275,72303,1,10,0:0:0:0:
245,205,72440,1,2,1:0:0:0:
277,288,72576,2,0,L|281:345,2,45,2|2|2,0:0|0:0|1:0,0:0:0:0:
333,218,72849,2,0,L|340:105,1,90,10|2,0:0|0:0,0:0:0:0:
350,38,73122,5,0,1:0:0:0:
268,74,73258,2,0,B|209:114|209:114|92:86,1,180,2|2,0:0|1:0,0:0:0:0:
30,35,73667,2,0,B|70:94|70:94|42:211,1,180,2|10,0:0|0:0,0:0:0:0:
14,284,74076,1,2,0:0:0:0:
99,314,74212,6,0,L|199:306,1,90,2|2,1:0|1:0,0:0:0:0:
244,235,74485,2,0,L|344:243,1,90,10|2,0:0|1:0,0:0:0:0:
410,290,74758,2,0,P|366:256|413:147,1,180,0|10,0:0|0:0,0:0:0:0:
479,111,75167,1,0,0:0:0:0:
361,46,75303,6,0,B|297:89|297:89|185:63,1,180,6|8,1:0|0:0,0:0:0:0:
107,54,75712,2,0,P|157:56|171:176,1,180,2|2,0:0|1:0,0:0:0:0:
127,236,76122,1,10,0:0:0:0:
97,151,76258,1,2,0:0:0:0:
39,222,76394,6,0,L|43:331,1,90,2|2,1:0|1:0,0:0:0:0:
115,365,76667,1,10,0:0:0:0:
185,309,76803,2,0,P|221:258|352:272,1,180,2|0,1:0|1:0,0:0:0:0:
392,319,77212,1,8,0:0:0:0:
456,257,77349,1,0,0:0:0:0:
394,192,77485,6,0,L|399:123,4,45,2|2|2|0|10,1:0|0:0|0:0|0:0|0:0,0:0:0:0:
330,254,77894,1,2,1:0:0:0:
268,189,78031,2,0,L|273:120,2,45,2|2|2,1:0|0:0|0:0,0:0:0:0:
204,251,78303,2,0,L|209:320,2,45,8|0|2,0:0|0:0|0:0,0:0:0:0:
142,186,78576,6,0,L|150:73,1,90,6|2,1:0|0:0,0:0:0:0:
157,6,78849,1,10,0:0:0:0:
231,59,78985,2,0,B|249:121|249:121|370:148,1,180,2|2,1:0|1:0,0:0:0:0:
444,109,79394,1,14,0:0:0:0:
392,34,79531,1,0,0:0:0:0:
361,146,79667,6,0,L|372:256,1,90,6|2,1:0|0:0,0:0:0:0:
275,292,79940,2,0,L|283:202,1,90,10|2,0:0|1:0,0:0:0:0:
189,144,80212,2,0,L|200:254,1,90,2|2,0:0|1:0,0:0:0:0:
103,290,80485,2,0,L|111:200,1,90,10|2,0:0|0:0,0:0:0:0:
17,142,80758,5,6,1:0:0:0:
27,231,80894,1,2,0:0:0:0:
27,231,80962,1,2,0:0:0:0:
27,231,81031,1,10,0:0:0:0:
111,200,81167,1,2,1:0:0:0:
121,289,81303,2,0,L|233:308,1,90,6|2,0:0|1:0,0:0:0:0:
267,373,81576,2,0,L|379:354,1,90,10|2,0:0|0:0,0:0:0:0:
355,249,81849,6,0,L|266:233,1,90,6|2,1:0|0:0,0:0:0:0:
209,304,82122,1,10,0:0:0:0:
177,220,82258,2,0,L|234:150,1,90,2|2,1:0|0:0,0:0:0:0:
202,66,82531,1,2,1:0:0:0:
291,81,82667,2,0,L|322:165,1,90,10|2,0:0|0:0,0:0:0:0:
411,179,82940,1,2,1:0:0:0:
355,249,83076,6,0,L|266:233,2,90,2|10|2,0:0|0:0|1:0,0:0:0:0:
444,263,83485,2,0,L|456:360,1,90,2|2,0:0|1:0,0:0:0:0:
411,179,83758,2,0,L|423:82,1,90,8|0,0:0|0:0,0:0:0:0:
484,24,84031,6,0,B|435:74|435:74|303:51,1,180,6|8,1:0|0:0,0:0:0:0:
237,38,84440,2,0,P|279:50|314:176,1,180,0|0,1:0|1:0,0:0:0:0:
239,216,84849,2,0,P|226:173|235:130,1,90,10|2,0:0|0:0,0:0:0:0:
321,260,85122,5,6,1:0:0:0:
242,309,85258,1,2,0:0:0:0:
324,353,85394,2,0,L|423:357,1,90,10|0,0:0|1:0,0:0:0:0:
410,263,85667,1,2,0:0:0:0:
321,260,85803,1,2,1:0:0:0:
324,353,85940,2,0,L|423:357,1,90,10|0,0:0|0:0,0:0:0:0:
493,307,86212,6,0,L|496:217,1,90,6|2,1:0|1:0,0:0:0:0:
504,123,86485,1,10,0:0:0:0:
504,123,86622,1,2,1:0:0:0:
414,116,86758,2,0,L|324:112,1,90,2|2,1:0|1:0,0:0:0:0:
233,111,87031,1,10,0:0:0:0:
233,111,87168,1,2,1:0:0:0:
323,203,87303,6,0,L|412:206,1,90,6|0,1:0|0:0,0:0:0:0:
504,123,87576,1,10,0:0:0:0:
414,116,87712,1,2,1:0:0:0:
412,206,87849,2,0,L|408:295,1,90,2|0,1:0|1:0,0:0:0:0:
324,112,88122,2,0,L|320:22,1,90,10|0,0:0|0:0,0:0:0:0:
323,203,88394,5,6,1:0:0:0:
323,203,89212,5,8,0:0:0:0:
140,129,89485,1,0,1:0:0:0:
140,129,90303,5,0,1:0:0:0:
230,129,90440,1,8,0:0:0:0:
254,42,90576,1,0,1:0:0:0:
254,42,91394,5,8,0:0:0:0:
258,342,91667,1,0,1:0:0:0:
258,342,92349,5,8,0:0:0:0:
210,265,92485,1,4,3:0:0:0:
145,327,92622,1,8,3:0:0:0:
97,250,92758,1,4,3:0:0:0:
97,250,93576,5,0,1:0:0:0:
126,125,93713,1,8,0:0:0:0:
174,202,93849,2,0,L|265:212,1,67.5000025749208,0|0,1:0|0:0,0:0:0:0:
241,209,94122,1,0,1:0:0:0:
241,209,94531,5,8,0:0:0:0:
234,120,94667,1,0,1:0:0:0:
329,254,94803,1,8,0:0:0:0:
314,158,94940,1,8,0:0:0:0:
115,217,95212,1,0,1:0:0:0:
115,217,95485,6,0,L|106:125,1,67.5000025749208,8|0,0:0|0:0,0:0:0:0:
103,54,95758,1,0,1:0:0:0:
199,138,95894,1,8,0:0:0:0:
193,48,96031,2,0,L|346:42,2,135.000005149842,0|8|0,1:0|3:0|3:0,0:0:0:0:
193,48,97122,5,0,1:0:0:0:
193,48,97940,5,8,0:0:0:0:
319,336,98212,1,0,1:0:0:0:
319,336,99031,5,0,1:0:0:0:
280,254,99168,1,8,0:0:0:0:
201,298,99304,1,0,1:0:0:0:
201,298,100122,5,8,0:0:0:0:
311,86,100394,1,0,1:0:0:0:
311,86,101076,5,8,0:0:0:0:
222,98,101212,1,4,3:0:0:0:
323,175,101348,1,8,3:0:0:0:
234,187,101485,1,4,3:0:0:0:
234,187,102303,5,0,1:0:0:0:
311,86,102440,1,8,0:0:0:0:
323,175,102576,2,0,L|319:245,1,67.5000025749208,0|0,1:0|0:0,0:0:0:0:
319,242,102849,1,0,1:0:0:0:
319,242,103258,5,8,0:0:0:0:
262,311,103394,1,0,1:0:0:0:
214,234,103531,1,8,0:0:0:0:
156,302,103667,6,0,B|70:314|70:314|15:276,2,135.000005149842,0|0|8,1:0|1:0|0:0,0:0:0:0:
156,302,104485,1,0,1:0:0:0:
215,236,104622,1,8,0:0:0:0:
263,313,104758,2,0,L|347:320,1,67.5000025749208,0|8,1:0|0:0,0:0:0:0:
442,329,105031,5,4,3:0:0:0:
352,56,105303,1,8,3:0:0:0:
161,271,105576,1,0,1:0:0:0:
161,271,105712,1,8,0:0:0:0:
159,291,107212,5,0,0:0:0:0:
130,113,107485,1,0,0:0:0:0:
55,216,107758,1,0,0:0:0:0:
233,187,108031,1,6,1:0:0:0:
233,187,116485,5,8,0:0:0:0:
233,187,116758,6,0,P|251:146|341:135,1,135.000005149842,4|0,1:0|0:0,0:0:0:0:
376,199,117167,2,0,L|384:53,1,135.000005149842,0|0,1:0|0:0,0:0:0:0:
468,162,117576,2,0,L|472:238,1,67.5000025749208,8|0,0:0|0:0,0:0:0:0:
482,310,117849,6,0,P|464:340|367:345,1,135.000005149842,0|0,1:0|0:0,0:0:0:0:
299,313,118258,2,0,L|307:167,1,135.000005149842,0|0,1:0|0:0,0:0:0:0:
202,94,118667,2,0,L|276:107,1,67.5000025749208,8|0,0:0|0:0,0:0:0:0:
306,178,118940,6,0,L|168:202,1,135.000005149842,0|0,1:0|0:0,0:0:0:0:
91,203,119349,2,0,P|140:214|177:300,1,135.000005149842,0|0,1:0|0:0,0:0:0:0:
81,352,119758,2,0,L|99:273,1,67.5000025749208,8|0,0:0|0:0,0:0:0:0:
178,284,120031,6,0,P|198:333|289:351,1,135.000005149842,0|0,1:0|0:0,0:0:0:0:
352,350,120440,2,0,P|332:301|241:283,1,135.000005149842,0|0,1:0|0:0,0:0:0:0:
111,292,120849,2,0,L|188:282,1,67.5000025749208,8|0,0:0|0:0,0:0:0:0:
258,277,121122,6,0,P|219:255|202:170,1,135.000005149842,4|0,1:0|0:0,0:0:0:0:
278,197,121531,2,0,L|422:210,1,135.000005149842,0|0,1:0|0:0,0:0:0:0:
330,111,121940,2,0,L|262:117,1,67.5000025749208,8|0,0:0|0:0,0:0:0:0:
201,171,122212,6,0,B|239:128|239:128|225:46,1,135.000005149842,0|0,1:0|0:0,0:0:0:0:
158,98,122622,2,0,B|120:141|120:141|134:223,1,135.000005149842,0|0,1:0|0:0,0:0:0:0:
268,178,123031,2,0,L|190:169,1,67.5000025749208,8|0,0:0|0:0,0:0:0:0:
206,252,123303,6,0,B|286:260|286:260|345:226,1,135.000005149842,0|0,1:0|0:0,0:0:0:0:
268,178,123712,2,0,B|188:170|188:170|129:204,1,135.000005149842,0|0,1:0|0:0,0:0:0:0:
210,319,124122,2,0,L|205:242,1,67.5000025749208,8|0,0:0|0:0,0:0:0:0:
205,251,124394,5,0,0:0:0:0:
298,220,125485,6,0,P|373:201|376:71,1,215.999993408203,6|8,1:0|0:0,0:0:0:0:
301,50,125894,1,2,0:0:0:0:
317,135,126031,2,0,L|458:158,1,107.999996704102,2|0,1:0|0:0,0:0:0:0:
298,220,126303,2,0,L|157:243,1,107.999996704102,8|2,0:0|0:0,0:0:0:0:
131,300,126576,6,0,B|192:237|192:237|151:94,1,215.999993408203,6|10,1:0|0:0,0:0:0:0:
74,85,126985,1,0,0:0:0:0:
41,165,127122,2,0,L|28:279,1,107.999996704102,2|0,1:0|0:0,0:0:0:0:
60,353,127394,2,0,P|118:386|173:376,1,107.999996704102,10|2,0:0|0:0,0:0:0:0:
280,339,127667,6,0,L|267:231,1,107.999996704102,6|0,1:0|0:0,0:0:0:0:
243,150,127940,2,0,L|255:42,1,107.999996704102,10|0,0:0|0:0,0:0:0:0:
159,131,128212,1,2,1:0:0:0:
184,213,128349,1,0,0:0:0:0:
243,150,128485,1,10,0:0:0:0:
268,232,128622,6,0,L|280:339,1,107.999996704102,2|2,0:0|1:0,0:0:0:0:
327,169,128894,1,2,1:0:0:0:
243,150,129031,2,0,L|143:106,1,107.999996704102,10|0,0:0|0:0,0:0:0:0:
60,86,129303,2,0,L|72:193,1,107.999996704102,2|0,1:0|1:0,0:0:0:0:
97,277,129576,1,10,0:0:0:0:
12,257,129712,1,2,0:0:0:0:
157,213,129849,6,0,L|378:230,1,215.999993408203,6|8,1:0|0:0,0:0:0:0:
451,264,130258,1,2,0:0:0:0:
381,315,130394,2,0,L|359:75,1,215.999993408203,2|8,1:0|0:0,0:0:0:0:
353,13,130803,1,2,0:0:0:0:
275,107,130940,6,0,L|265:214,1,107.999996704102,6|0,1:0|0:0,0:0:0:0:
189,115,131212,2,0,L|179:7,1,107.999996704102,10|0,0:0|0:0,0:0:0:0:
103,123,131485,2,0,L|93:230,1,107.999996704102,2|0,1:0|0:0,0:0:0:0:
54,308,131758,1,10,0:0:0:0:
6,236,131894,1,2,0:0:0:0:
93,230,132031,6,0,L|213:223,1,107.999996704102,6|0,1:0|0:0,0:0:0:0:
286,215,132303,1,10,0:0:0:0:
236,144,132440,1,2,0:0:0:0:
200,223,132576,1,10,0:0:0:0:
322,137,132712,1,2,1:0:0:0:
372,208,132849,1,10,0:0:0:0:
236,144,132985,1,2,1:0:0:0:
286,215,133122,6,0,P|295:255|287:289,1,67.5,2|0,0:0|0:0,0:0:0:0:
247,313,133394,6,0,P|298:269|403:357,1,202.500007724762,14|0,0:0|0:0,0:0:0:0:
363,368,133667,2,0,P|339:296|454:229,1,202.500007724762,6|0,1:0|0:0,0:0:0:0:
480,226,133940,2,0,L|268:177,1,202.500007724762,14|0,0:0|0:0,0:0:0:0:
234,205,134212,6,0,B|290:151|290:151|263:4,1,215.999993408203,6|8,1:0|0:0,0:0:0:0:
180,35,134622,1,2,0:0:0:0:
193,120,134758,2,0,B|137:174|137:174|164:321,1,215.999993408203,2|8,1:0|0:0,0:0:0:0:
218,375,135167,1,2,0:0:0:0:
270,269,135303,6,0,L|292:149,1,107.999996704102,6|0,1:0|0:0,0:0:0:0:
369,128,135576,2,0,L|347:8,1,107.999996704102,10|0,0:0|0:0,0:0:0:0:
263,12,135849,2,0,P|219:45|156:48,1,107.999996704102,2|0,1:0|0:0,0:0:0:0:
80,56,136122,1,10,0:0:0:0:
127,127,136258,1,2,0:0:0:0:
40,133,136394,6,0,P|13:180|18:255,1,107.999996704102,6|0,1:0|0:0,0:0:0:0:
62,302,136667,1,10,0:0:0:0:
98,223,136803,1,0,0:0:0:0:
148,293,136940,2,0,L|276:304,1,107.999996704102,2|0,1:0|0:0,0:0:0:0:
328,256,137212,2,0,L|456:245,1,107.999996704102,10|2,0:0|0:0,0:0:0:0:
252,216,137485,5,2,1:0:0:0:
325,170,137622,1,2,1:0:0:0:
249,130,137758,2,0,L|121:119,1,107.999996704102,10|0,0:0|0:0,0:0:0:0:
68,167,138031,1,2,1:0:0:0:
144,206,138167,1,0,1:0:0:0:
71,253,138303,1,10,0:0:0:0:
147,292,138440,1,2,0:0:0:0:
74,339,138576,6,0,L|304:323,1,215.999993408203,6|8,1:0|0:0,0:0:0:0:
362,276,138985,1,2,0:0:0:0:
301,213,139122,1,2,1:0:0:0:
374,165,139258,1,0,0:0:0:0:
313,102,139394,2,0,L|198:110,1,107.999996704102,8|2,0:0|0:0,0:0:0:0:
89,239,139667,5,6,1:0:0:0:
107,65,139803,1,0,0:0:0:0:
195,216,139940,2,0,L|185:334,1,107.999996704102,10|0,0:0|0:0,0:0:0:0:
35,145,140212,2,0,L|25:27,1,107.999996704102,2|0,1:0|0:0,0:0:0:0:
205,109,140485,1,10,0:0:0:0:
89,239,140622,1,2,0:0:0:0:
107,65,140758,6,0,L|347:51,1,215.999993408203,6|10,1:0|0:0,0:0:0:0:
405,78,141167,1,2,0:0:0:0:
353,149,141303,2,0,P|324:110|323:49,1,107.999996704102,10|2,0:0|1:0,0:0:0:0:
441,159,141576,1,10,0:0:0:0:
389,230,141712,1,2,1:0:0:0:
301,220,141849,6,0,L|171:211,1,107.999996704102,0|0,1:0|0:0,0:0:0:0:
353,149,142122,2,0,L|483:140,1,107.999996704102,4|0,1:0|0:0,0:0:0:0:
265,139,142394,2,0,L|274:9,1,107.999996704102,0|0,1:0|0:0,0:0:0:0:
353,149,142667,1,10,0:0:0:0:
301,220,142803,1,2,1:0:0:0:
389,230,142940,6,0,L|519:221,1,107.999996704102,6|0,1:0|0:0,0:0:0:0:
265,139,143212,2,0,L|135:130,1,107.999996704102,10|2,0:0|0:0,0:0:0:0:
72,151,143485,1,2,1:0:0:0:
132,213,143622,1,6,3:0:0:0:
97,69,143758,1,10,0:0:0:0:
157,131,143895,1,10,3:0:0:0:
182,49,144031,5,2,1:0:0:0:
182,49,144712,5,0,1:0:0:0:
224,124,144849,2,0,B|296:111|296:111|336:139|336:139|425:123,1,202.500007724762,4|0,0:0|0:0,0:0:0:0:
447,120,145122,6,0,L|438:224,1,90,6|2,1:0|0:0,0:0:0:0:
459,297,145394,1,10,0:0:0:0:
373,271,145531,2,0,P|334:222|220:226,1,180,2|2,1:0|1:0,0:0:0:0:
149,272,145940,1,10,0:0:0:0:
144,183,146076,1,2,0:0:0:0:
224,223,146212,6,0,L|229:318,1,90,2|2,1:0|0:0,0:0:0:0:
299,174,146485,2,0,L|304:79,1,90,10|0,0:0|1:0,0:0:0:0:
239,20,146758,1,2,0:0:0:0:
216,106,146894,1,2,0:0:0:0:
152,42,147031,2,0,L|43:32,1,90,10|2,0:0|0:0,0:0:0:0:
22,114,147303,6,0,P|73:129|82:258,1,180,6|10,1:0|0:0,0:0:0:0:
32,305,147712,1,4,1:0:0:0:
106,356,147849,2,0,L|212:351,1,90,2|0,0:0|1:0,0:0:0:0:
274,306,148122,1,10,0:0:0:0:
346,359,148258,6,0,P|312:305|398:217,1,180,2|0,0:0|0:0,0:0:0:0:
460,210,148667,2,0,L|453:104,1,90,8|0,0:0|1:0,0:0:0:0:
463,30,148940,2,0,L|373:35,1,90,0|0,0:0|1:0,0:0:0:0:
283,45,149212,1,8,0:0:0:0:
337,117,149349,1,0,0:0:0:0:
193,55,149485,6,0,L|-14:68,1,180,6|8,1:0|0:0,0:0:0:0:
15,157,149894,2,0,B|76:186|76:186|52:320,1,180,0|0,1:0|1:0,0:0:0:0:
3,370,150303,2,0,P|37:323|159:338,1,180,8|0,0:0|1:0,0:0:0:0:
227,373,150712,6,0,L|216:179,1,180,0|0,0:0|1:0,0:0:0:0:
279,127,151122,1,0,0:0:0:0:
320,206,151258,1,0,1:0:0:0:
383,140,151394,2,0,L|377:43,1,90,8|0,0:0|0:0,0:0:0:0:
424,219,151667,6,0,B|431:342|431:342|371:380,1,180,0|8,1:0|0:0,0:0:0:0:
293,363,152076,1,0,0:0:0:0:
296,273,152212,2,0,L|301:176,1,90,0|0,0:0|1:0,0:0:0:0:
225,134,152485,2,0,L|219:37,1,90,8|0,0:0|0:0,0:0:0:0:
157,194,152758,6,0,L|151:291,1,90,4|0,1:0|0:0,0:0:0:0:
81,145,153031,2,0,L|75:48,1,90,8|0,0:0|1:0,0:0:0:0:
178,199,153303,2,0,L|172:296,1,90,0|0,0:0|1:0,0:0:0:0:
60,150,153576,2,0,L|54:53,1,90,8|0,0:0|0:0,0:0:0:0:
193,26,153849,6,0,L|294:34,1,90,6|2,1:0|0:0,0:0:0:0:
372,42,154122,1,10,0:0:0:0:
320,116,154258,2,0,L|129:131,1,180,2|2,1:0|1:0,0:0:0:0:
53,107,154667,1,10,0:0:0:0:
116,43,154803,1,2,0:0:0:0:
140,130,154940,6,0,L|133:245,1,90,2|2,1:0|0:0,0:0:0:0:
86,295,155212,2,0,P|128:245|258:272,1,180,10|2,0:0|0:0,0:0:0:0:
295,317,155622,1,2,0:0:0:0:
369,266,155758,2,0,L|362:159,1,90,10|2,0:0|0:0,0:0:0:0:
413,100,156031,6,0,B|377:155|377:155|252:128,1,180,6|10,1:0|0:0,0:0:0:0:
177,110,156440,1,0,0:0:0:0:
205,194,156576,2,0,L|212:308,1,90,2|0,0:0|1:0,0:0:0:0:
217,374,156849,1,10,0:0:0:0:
291,323,156985,6,0,L|304:109,1,180,2|0,0:0|0:0,0:0:0:0:
199,104,157394,2,0,L|206:218,1,90,10|0,0:0|1:0,0:0:0:0:
302,143,157667,2,0,L|309:29,1,90,2|0,0:0|1:0,0:0:0:0:
193,14,157940,1,10,0:0:0:0:
199,104,158076,1,2,0:0:0:0:
307,53,158212,6,0,B|417:41|417:41|480:93,1,180,6|8,1:0|0:0,0:0:0:0:
498,171,158622,2,0,P|435:172|378:278,1,180,2|0,1:0|1:0,0:0:0:0:
466,256,159031,2,0,L|265:241,1,180,10|0,0:0|1:0,0:0:0:0:
206,200,159440,5,2,0:0:0:0:
273,141,159576,1,8,0:0:0:0:
193,99,159712,1,2,1:0:0:0:
260,40,159849,2,0,L|349:46,1,90,2|2,0:0|1:0,0:0:0:0:
393,125,160122,2,0,L|482:118,1,90,10|2,0:0|0:0,0:0:0:0:
502,205,160394,6,0,P|449:217|422:341,1,180,6|10,1:0|0:0,0:0:0:0:
494,365,160803,2,0,L|297:346,1,180,2|0,1:0|1:0,0:0:0:0:
232,238,161212,2,0,L|349:226,1,90,10|0,0:0|0:0,0:0:0:0:
228,336,161485,6,0,L|110:324,1,90,4|0,1:1|0:0,0:0:0:0:
48,316,161758,1,8,0:0:0:0:
59,226,161894,2,0,B|71:121|71:121|154:90,1,180,0|0,1:0|1:0,0:0:0:0:
149,237,162303,1,8,0:0:0:0:
149,237,162576,6,0,L|310:245,1,135.000005149842,0|0,1:0|0:0,0:0:0:0:
365,239,162985,2,0,L|291:95,1,135.000005149842,0|0,1:0|0:0,0:0:0:0:
259,51,163394,2,0,L|212:123,1,67.5000025749208,8|0,0:0|0:0,0:0:0:0:
145,134,163667,6,0,L|136:54,2,67.5000025749208,0|0|0,1:0|0:0|0:0,0:0:0:0:
206,186,164076,1,0,0:0:0:0:
267,238,164212,2,0,L|258:318,2,67.5000025749208,0|0|0,0:0|0:0|0:0,0:0:0:0:
206,186,164622,1,0,0:0:0:0:
