osu file format v14

[General]
AudioFilename: audio.mp3
AudioLeadIn: 0
PreviewTime: 26962
Countdown: 0
SampleSet: None
StackLeniency: 0.7
Mode: 0
LetterboxInBreaks: 0
WidescreenStoryboard: 1

[Editor]
DistanceSpacing: 1.2
BeatDivisor: 2
GridSize: 8
TimelineZoom: 1.199999

[Metadata]
Title:Toumei Elegy
TitleUnicode:透明エレジー
Artist:nameless
ArtistUnicode:nameless
Creator:Sotarks
Version:Easy
Source:
Tags:櫻花アリス ナブナmegpoid gumi utau vocaloid konuko utaite akitoshi corinn kalibe irohas mugiwarasekai mir snownino_ milan-
BeatmapID:1548983
BeatmapSetID:723730

[Difficulty]
HPDrainRate:2
CircleSize:3
OverallDifficulty:2
ApproachRate:3
SliderMultiplier:0.799999999999999
SliderTickRate:1

[Events]
//Background and Video events
0,0,"Ittai.jpg",0,0
//Break Periods
2,88594,95682
2,108031,115318
//Storyboard Layer 0 (Background)
//Storyboard Layer 1 (Fail)
//Storyboard Layer 2 (Pass)
//Storyboard Layer 3 (Foreground)
//Storyboard Sound Samples

[TimingPoints]
1122,272.727272727273,4,2,22,62,1,0
1122,-111.111111111111,4,2,22,62,0,0
9508,-111.111111111111,4,2,22,5,0,0
9576,-111.111111111111,4,2,22,62,0,0
9781,-111.111111111111,4,2,22,5,0,0
9849,-100,4,2,22,82,0,0
27303,-111.111111111111,4,2,22,72,0,0
28462,-111.111111111111,4,2,22,52,0,0
29485,-111.111111111111,4,2,22,72,0,0
30644,-111.111111111111,4,2,22,52,0,0
31667,-111.111111111111,4,2,22,72,0,0
35690,-111.111111111111,4,2,22,5,0,0
35758,-111.111111111111,4,2,22,62,0,0
35962,-111.111111111111,4,2,22,5,0,0
36031,-100,4,2,22,62,0,0
44758,-100,4,2,22,62,0,0
51712,-100,4,2,22,42,0,0
52394,-100,4,2,22,42,0,0
52599,-100,4,2,22,5,0,0
52667,-100,4,2,22,52,0,0
52872,-100,4,2,22,5,0,0
52940,-100,4,2,22,62,0,0
53144,-100,4,2,22,5,0,0
53212,-100,4,2,22,42,0,0
53417,-100,4,2,22,5,0,0
53485,-95.2380952380952,4,2,22,92,0,1
61122,-95.2380952380952,4,2,22,42,0,1
61326,-95.2380952380952,4,2,22,5,0,1
61394,-95.2380952380952,4,2,22,92,0,1
61599,-95.2380952380952,4,2,22,5,0,1
61667,-95.2380952380952,4,2,22,82,0,1
61872,-95.2380952380952,4,2,22,5,0,1
61940,-95.2380952380952,4,2,22,72,0,1
62144,-95.2380952380952,4,2,22,5,0,1
62212,-95.2380952380952,4,2,22,92,0,1
70940,-100,4,2,22,82,0,0
83962,-100,4,2,22,5,0,0
84031,-100,4,2,22,82,0,0
88394,-100,4,2,22,62,0,0
116485,-100,4,2,22,62,0,0
116690,-100,4,2,22,5,0,0
116758,-100,4,2,22,72,0,0
124667,-100,4,2,22,42,0,0
124872,-100,4,2,22,5,0,0
124940,-100,4,2,22,52,0,0
125144,-100,4,2,22,5,0,0
125212,-100,4,2,22,62,0,0
125417,-100,4,2,22,5,0,0
125485,-95.2380952380952,4,2,22,92,0,1
133122,-95.2380952380952,4,2,22,42,0,1
133326,-95.2380952380952,4,2,22,5,0,1
133394,-95.2380952380952,4,2,22,92,0,1
133599,-95.2380952380952,4,2,22,5,0,1
133667,-95.2380952380952,4,2,22,92,0,1
133872,-95.2380952380952,4,2,22,5,0,1
133940,-95.2380952380952,4,2,22,82,0,1
134144,-95.2380952380952,4,2,22,5,0,1
134212,-95.2380952380952,4,2,22,92,0,1
145122,-100,4,2,22,82,0,0
162576,-111.111111111111,4,2,22,62,0,0
163940,-111.111111111111,4,2,22,22,0,0

[Colours]
Combo1 : 223,189,142
Combo2 : 204,200,200
Combo3 : 108,108,108
Combo4 : 225,168,169
SliderBorder : 255,255,255
SliderTrackOverride : 0,0,0

[HitObjects]
168,227,1122,6,0,P|97:211|26:233,2,143.999995605469,6|2|2,1:2|0:0|1:0,0:0:0:0:
299,316,2758,1,2,0:0:0:0:
433,233,3303,2,0,L|441:76,2,143.999995605469,2|2|2,1:0|0:0|1:0,0:0:0:0:
299,316,4940,1,2,0:0:0:0:
168,227,5485,6,0,P|150:161|174:82,2,143.999995605469,6|0|2,1:0|0:0|1:0,0:0:0:0:
299,316,7122,1,2,0:0:0:0:
433,233,7667,2,0,B|401:184|401:184|360:169|308:175,1,143.999995605469,2|2,1:0|0:0,0:0:0:0:
168,227,8758,1,2,1:0:0:0:
168,227,9849,6,0,P|107:208|46:221,2,120,6|2|10,1:0|1:0|0:0,0:0:0:0:
237,280,10940,2,0,L|405:275,1,160,2|2,1:0|0:0,0:0:0:0:
453,207,11758,1,10,0:0:0:0:
380,157,12031,6,0,P|327:127|235:147,2,160,6|2|0,1:0|0:0|1:0,0:0:0:0:
453,207,13394,1,8,0:0:0:0:
509,139,13667,2,0,L|503:50,1,79.9999999999999,0|8,0:0|0:0,0:0:0:0:
422,24,14212,6,0,L|253:29,1,160,6|0,1:0|0:0,0:0:0:0:
174,39,15031,2,0,B|157:100|157:100|171:140|171:140|159:200,1,160,8|8,0:0|0:0,0:0:0:0:
77,222,15849,2,0,L|85:312,1,79.9999999999999,0|8,0:0|0:0,0:0:0:0:
159,347,16394,6,0,L|320:337,2,160,0|0|4,1:0|0:0|1:0,0:0:0:0:
84,301,17758,1,8,0:0:0:0:
60,216,18031,2,0,P|54:168|65:124,1,79.9999999999999,0|8,0:0|0:0,0:0:0:0:
110,66,18576,6,0,P|48:52|-9:85,2,120,6|2|10,1:0|1:0|0:0,0:0:0:0:
184,112,19667,2,0,B|280:100|245:157|337:146,1,160,2|2,1:0|0:0,0:0:0:0:
414,107,20485,1,10,0:0:0:0:
477,167,20758,6,0,P|495:251|461:331,2,160,6|2|0,1:0|0:0|1:0,0:0:0:0:
414,107,22122,1,10,0:0:0:0:
336,66,22394,2,0,L|246:71,1,79.9999999999999,2|10,0:0|0:0,0:0:0:0:
196,135,22940,6,0,B|178:189|214:235|214:235|199:295,1,160,6|0,1:0|0:0,0:0:0:0:
156,363,23758,2,0,P|83:370|21:312,1,160,10|8,0:0|0:0,0:0:0:0:
11,227,24576,2,0,L|17:138,1,79.9999999999999,2|10,0:0|0:0,0:0:0:0:
65,73,25122,6,0,L|236:66,1,160,6|2,1:0|0:0,0:0:0:0:
300,111,25940,1,10,0:0:0:0:
365,169,26212,2,0,P|423:155|485:169,2,120,6|0|8,1:0|1:0|0:0,0:0:0:0:
293,217,27303,6,0,P|229:188|88:326,1,287.999991210937,6|2,1:0|1:0,0:0:0:0:
87,315,29485,6,0,B|52:104|52:104|121:48,1,287.999991210937,2|2,1:0|1:0,0:0:0:0:
109,57,31667,6,0,P|139:139|199:28,1,287.999991210937,2|0,1:0|1:0,0:0:0:0:
200,28,33849,6,0,B|165:239|165:239|234:295,1,287.999991210937,0|0,1:0|1:0,0:0:0:0:
299,324,35212,2,0,P|367:339|435:307,1,143.999995605469,2|12,3:0|0:0,0:0:0:0:
471,229,36031,6,0,L|454:64,1,160,6|2,1:0|0:0,0:0:0:0:
373,35,36849,1,8,0:0:0:0:
289,62,37122,2,0,P|226:47|125:84,1,160,2|2,1:0|0:0,0:0:0:0:
85,145,37940,1,10,0:0:0:0:
115,227,38212,6,0,L|98:356,2,120,6|0|10,1:0|1:0|0:0,0:0:0:0:
194,189,39303,2,0,P|263:220|347:200,1,160,2|2,1:0|0:0,0:0:0:0:
401,136,40122,1,10,0:0:0:0:
388,49,40394,6,0,L|261:41,2,120,6|0|10,1:0|1:0|0:0,0:0:0:0:
473,68,41485,2,0,P|499:125|494:188,2,120,2|0|10,1:0|1:0|0:0,0:0:0:0:
388,49,42576,6,0,B|354:84|351:119|351:119|372:151|370:203,1,160,2|8,1:0|3:0,0:0:0:0:
311,260,43394,1,10,0:0:0:0:
228,291,43667,2,0,L|236:373,2,79.9999999999999,2|8|12,1:0|3:0|3:0,0:0:0:0:
142,270,44485,1,12,0:0:0:0:
97,193,44758,6,0,P|105:126|255:104,1,240,6|2,1:0|0:0,0:0:0:0:
324,149,45849,2,0,P|394:110|474:149,1,160,2|2,1:0|1:0,0:0:0:0:
504,215,46667,1,2,1:0:0:0:
438,274,46940,6,0,L|267:264,2,160,6|10|2,1:0|0:0|1:0,0:0:0:0:
491,106,48576,2,0,L|405:101,1,79.9999999999999,2|10,0:0|3:0,0:0:0:0:
330,65,49122,6,0,B|199:57|229:144|88:127,1,240,2|2,1:0|0:0,0:0:0:0:
18,114,50212,2,0,L|31:277,1,160,2|2,1:0|0:0,0:0:0:0:
99,329,51031,1,10,3:0:0:0:
180,296,51303,6,0,P|248:322|343:298,2,160,0|0|2,1:0|0:0|1:0,0:0:0:0:
141,123,52940,2,0,L|226:119,1,79.9999999999999,2|2,1:0|0:0,0:0:0:0:
285,53,53485,6,0,P|335:45|438:105,2,167.999994873047,6|2|6,1:0|1:0|1:0,0:0:0:0:
220,119,54849,1,10,0:0:0:0:
266,199,55122,2,0,L|263:291,1,83.9999974365234,2|10,1:0|0:0,0:0:0:0:
192,342,55667,6,0,P|132:354|39:309,1,167.999994873047,6|2,1:0|1:0,0:0:0:0:
16,219,56485,1,10,0:0:0:0:
72,145,56758,2,0,L|66:53,2,83.9999974365234,2|10|2,1:0|0:0|1:0,0:0:0:0:
147,198,57576,1,10,0:0:0:0:
224,146,57849,6,0,P|303:135|383:169,2,167.999994873047,6|2|6,1:0|1:0|1:0,0:0:0:0:
147,198,59212,1,10,0:0:0:0:
144,290,59485,2,0,P|150:326|181:369,1,83.9999974365234,2|10,1:0|0:0,0:0:0:0:
268,372,60031,6,0,L|446:355,1,167.999994873047,6|10,1:0|0:0,0:0:0:0:
499,289,60849,1,10,0:0:0:0:
444,214,61122,2,0,L|435:125,1,83.9999974365234,2|14,0:0|0:0,0:0:0:0:
374,61,61667,2,0,P|317:58|279:71,1,83.9999974365234,6|14,1:0|0:0,0:0:0:0:
214,116,62212,6,0,B|123:98|144:153|35:126,2,167.999994873047,6|2|6,1:0|1:0|1:0,0:0:0:0:
294,161,63576,1,10,0:0:0:0:
254,244,63849,2,0,L|265:342,1,83.9999974365234,2|10,1:0|0:0,0:0:0:0:
343,374,64394,6,0,P|427:370|485:312,1,167.999994873047,6|2,1:0|1:0,0:0:0:0:
488,221,65212,1,10,0:0:0:0:
426,151,65485,2,0,L|433:64,2,83.9999974365234,2|10|2,1:0|0:0|1:0,0:0:0:0:
360,216,66303,1,10,0:0:0:0:
269,233,66576,6,0,P|196:195|97:209,1,167.999994873047,6|2,1:0|1:0,0:0:0:0:
32,247,67394,1,8,0:0:0:0:
1,159,67667,2,0,L|10:64,1,83.9999974365234,6|10,1:0|0:0,0:0:0:0:
84,21,68212,2,0,L|179:30,1,83.9999974365234,2|10,1:0|0:0,0:0:0:0:
236,91,68758,6,0,P|314:66|407:92,2,167.999994873047,6|10|6,1:0|0:0|1:0,0:0:0:0:
162,147,70122,1,8,0:0:0:0:
127,232,70394,2,0,L|135:319,1,83.9999974365234,0|8,1:0|0:0,0:0:0:0:
211,360,70940,6,0,P|252:368|297:356,1,79.9999999999999,6|10,1:0|0:0,0:0:0:0:
354,301,71485,2,0,P|419:314|472:297,2,120,0|2|10,0:0|0:0|0:0,0:0:0:0:
307,226,72576,2,0,L|307:135,1,79.9999999999999,2|10,0:0|0:0,0:0:0:0:
309,57,73122,6,0,P|366:40|426:53,2,120,0|2|10,1:0|1:0|0:0,0:0:0:0:
230,95,74212,2,0,L|59:102,1,160,2|0,1:0|0:0,0:0:0:0:
14,170,75031,1,10,0:0:0:0:
68,239,75303,6,0,P|49:303|63:360,2,120,6|2|10,1:0|0:0|0:0,0:0:0:0:
147,200,76394,2,0,P|211:219|268:205,2,120,2|2|8,1:0|1:0|0:0,0:0:0:0:
121,115,77485,6,0,P|175:62|266:55,1,160,2|2,1:0|1:0,0:0:0:0:
336,87,78303,1,8,0:0:0:0:
380,162,78576,2,0,L|511:156,2,120,6|2|14,1:0|1:0|0:0,0:0:0:0:
304,207,79667,6,0,P|248:193|148:262,1,160,6|2,1:0|0:0,0:0:0:0:
118,315,80485,1,10,0:0:0:0:
190,364,80758,2,0,L|360:356,1,160,6|6,1:0|0:0,0:0:0:0:
437,348,81576,1,10,0:0:0:0:
489,277,81849,6,0,P|501:191|466:117,1,160,6|2,1:0|0:0,0:0:0:0:
404,70,82667,1,10,0:0:0:0:
316,79,82940,2,0,L|305:244,1,160,2|2,1:0|0:0,0:0:0:0:
229,282,83758,1,8,0:0:0:0:
142,264,84031,6,0,P|95:175|166:60,1,240,6|10,1:0|0:0,0:0:0:0:
246,53,85122,2,0,L|418:65,1,160,6|2,1:0|0:0,0:0:0:0:
476,115,85940,1,10,0:0:0:0:
472,202,86212,6,0,P|422:235|316:217,1,160,6|2,1:0|1:0,0:0:0:0:
247,184,87031,1,10,0:0:0:0:
216,101,87303,2,0,L|111:104,1,79.9999999999999,6|10,1:0|0:0,0:0:0:0:
73,165,87849,2,0,L|76:270,1,79.9999999999999,2|10,1:0|0:0,0:0:0:0:
77,333,88394,5,6,1:0:0:0:
224,145,97122,6,0,P|144:136|234:236,1,320,0|0,1:0|1:0,0:0:0:0:
225,245,99303,6,0,P|257:318|298:190,1,320,0|0,1:0|1:0,0:0:0:0:
311,193,101485,6,0,P|358:128|227:156,1,320,4|0,3:0|1:0,0:0:0:0:
256,192,103667,12,0,105712,1:0:0:0:
250,151,116758,6,0,P|168:136|75:255,1,240,4|8,1:0|0:0,0:0:0:0:
109,325,117849,2,0,L|371:304,1,240,0|8,1:0|0:0,0:0:0:0:
434,289,118940,6,0,P|460:189|420:48,1,240,0|8,1:0|0:0,0:0:0:0:
343,31,120031,2,0,P|228:64|113:38,1,240,0|8,1:0|0:0,0:0:0:0:
26,20,121122,6,0,L|37:264,1,240,4|8,1:0|0:0,0:0:0:0:
74,338,122212,2,0,P|178:373|283:306,1,240,0|8,1:0|0:0,0:0:0:0:
301,222,123303,6,0,B|288:166|323:108|323:108|316:52|238:16,1,240,0|8,1:0|0:0,0:0:0:0:
159,29,124394,1,0,0:0:0:0:
93,88,124667,2,0,L|-4:82,2,79.9999999999999,2|2|2,0:0|0:0|0:0,0:0:0:0:
146,163,125485,6,0,P|217:134|314:152,2,167.999994873047,6|2|6,1:0|1:0|1:0,0:0:0:0:
94,240,126849,1,10,0:0:0:0:
146,315,127122,2,0,L|247:320,1,83.9999974365234,2|10,1:0|0:0,0:0:0:0:
322,313,127667,6,0,P|401:302|467:228,1,167.999994873047,6|2,1:0|1:0,0:0:0:0:
474,150,128485,1,10,0:0:0:0:
401,92,128758,2,0,L|411:5,2,83.9999974365234,2|10|2,1:0|0:0|1:0,0:0:0:0:
310,112,129576,1,10,0:0:0:0:
243,176,129849,6,0,P|184:151|71:183,2,167.999994873047,6|2|6,1:0|1:0|1:0,0:0:0:0:
291,254,131212,1,10,0:0:0:0:
260,341,131485,2,0,L|150:349,1,83.9999974365234,2|10,1:0|0:0,0:0:0:0:
83,335,132031,6,0,B|65:232|65:232|90:155,1,167.999994873047,6|10,1:0|0:0,0:0:0:0:
130,91,132849,1,10,0:0:0:0:
206,38,133122,2,0,P|253:36|294:49,1,83.9999974365234,2|14,0:0|0:0,0:0:0:0:
355,110,133667,2,0,P|395:99|437:101,1,83.9999974365234,6|14,1:0|0:0,0:0:0:0:
499,170,134212,6,0,L|512:353,2,167.999994873047,6|2|6,1:0|1:0|1:0,0:0:0:0:
437,101,135576,1,10,0:0:0:0:
350,133,135849,2,0,P|305:146|240:129,1,83.9999974365234,2|10,1:0|0:0,0:0:0:0:
203,76,136394,6,0,P|149:57|32:103,1,167.999994873047,6|2,1:0|1:0,0:0:0:0:
3,170,137212,1,10,0:0:0:0:
53,247,137485,2,0,L|48:346,2,83.9999974365234,2|10|2,1:0|0:0|1:0,0:0:0:0:
129,195,138303,1,10,0:0:0:0:
211,236,138576,6,0,P|287:265|381:222,1,167.999994873047,6|2,1:0|1:0,0:0:0:0:
426,168,139394,1,8,0:0:0:0:
406,77,139667,2,0,P|362:52|315:53,1,83.9999974365234,6|10,1:0|0:0,0:0:0:0:
241,78,140212,2,0,P|205:100|164:104,1,83.9999974365234,2|10,1:0|0:0,0:0:0:0:
72,89,140758,6,0,B|38:126|35:184|35:184|50:263,2,167.999994873047,6|10|0,1:0|0:0|1:0,0:0:0:0:
132,18,142122,1,4,1:0:0:0:
222,34,142394,2,0,P|264:43|323:31,1,83.9999974365234,0|10,1:0|0:0,0:0:0:0:
395,20,142940,6,0,B|433:95|368:112|411:194,2,167.999994873047,6|2|2,1:0|1:0|1:0,0:0:0:0:
395,20,145122,6,0,L|263:13,2,120,6|2|10,1:0|1:0|0:0,0:0:0:0:
471,62,146212,2,0,P|491:140|460:234,1,160,2|2,1:0|0:0,0:0:0:0:
394,257,147031,1,10,0:0:0:0:
311,286,147303,6,0,B|235:304|235:304|136:278,2,160,6|2|0,1:0|0:0|1:0,0:0:0:0:
394,257,148667,1,8,0:0:0:0:
422,173,148940,2,0,P|426:133|411:86,1,79.9999999999999,0|8,0:0|0:0,0:0:0:0:
344,43,149485,6,0,B|255:43|283:86|183:86,1,160,6|0,1:0|0:0,0:0:0:0:
106,66,150303,2,0,B|60:131|60:131|83:215,1,160,8|8,0:0|0:0,0:0:0:0:
129,282,151122,2,0,L|234:280,1,79.9999999999999,0|8,0:0|0:0,0:0:0:0:
281,230,151667,6,0,P|354:197|445:216,2,160,4|0|4,1:0|0:0|1:0,0:0:0:0:
208,280,153031,1,8,0:0:0:0:
129,241,153303,2,0,P|120:191|124:157,1,79.9999999999999,0|12,0:0|0:0,0:0:0:0:
138,75,153849,6,0,P|89:57|5:55,2,120,6|2|10,1:0|1:0|0:0,0:0:0:0:
208,127,154940,2,0,L|383:112,1,160,2|6,1:0|0:0,0:0:0:0:
450,143,155758,1,10,0:0:0:0:
500,215,156031,6,0,P|504:296|465:370,2,160,6|2|0,1:0|0:0|1:0,0:0:0:0:
450,143,157394,1,10,0:0:0:0:
367,113,157667,2,0,P|324:122|270:116,1,79.9999999999999,2|10,0:0|0:0,0:0:0:0:
224,59,158212,6,0,L|60:74,1,160,6|0,1:0|0:0,0:0:0:0:
19,149,159031,2,0,B|8:214|8:214|21:244|21:244|13:325,1,160,10|8,0:0|0:0,0:0:0:0:
80,363,159849,2,0,P|123:368|181:357,1,79.9999999999999,2|10,0:0|0:0,0:0:0:0:
232,315,160394,6,0,P|291:343|407:323,2,160,6|2|4,1:0|0:0|1:1,0:0:0:0:
182,241,161758,2,0,L|194:148,1,79.9999999999999,8|0,0:0|0:0,0:0:0:0:
210,75,162303,1,8,0:0:0:0:
284,30,162576,6,0,P|338:28|406:68,2,107.999996704102,0|0|8,1:0|1:0|0:0,0:0:0:0:
210,75,163667,2,0,B|155:60|155:60|105:83|105:83|37:62|37:62|12:81|9:126,1,251.99999230957,0|0,1:0|0:0,0:0:0:0:
