osu file format v14

[General]
AudioFilename: audio.mp3
AudioLeadIn: 0
PreviewTime: 26962
Countdown: 0
SampleSet: Soft
StackLeniency: 0.7
Mode: 0
LetterboxInBreaks: 0
WidescreenStoryboard: 0

[Editor]
Bookmarks: 88394,97122,108031,116758
DistanceSpacing: 1
BeatDivisor: 4
GridSize: 8
TimelineZoom: 1.199999

[Metadata]
Title:Toumei Elegy
TitleUnicode:透明エレジー
Artist:nameless
ArtistUnicode:nameless
Creator:Sotarks
Version:Akitoshi's Normal
Source:
Tags:櫻花アリス ナブナmegpoid gumi utau vocaloid konuko utaite akitoshi corinn kalibe irohas mugiwarasekai mir snownino_ milan-
BeatmapID:1529702
BeatmapSetID:723730

[Difficulty]
HPDrainRate:4
CircleSize:3
OverallDifficulty:4
ApproachRate:5
SliderMultiplier:0.999999999999999
SliderTickRate:1

[Events]
//Background and Video events
0,0,"Ittai.jpg",0,0
//Break Periods
2,88594,95922
2,108031,115558
//Storyboard Layer 0 (Background)
//Storyboard Layer 1 (Fail)
//Storyboard Layer 2 (Pass)
//Storyboard Layer 3 (Foreground)
//Storyboard Sound Samples

[TimingPoints]
1122,272.727272727273,4,2,22,62,1,0
1122,-111.111111111111,4,2,22,62,0,0
9849,-100,4,2,22,82,0,0
27303,-111.111111111111,4,2,22,72,0,0
36031,-100,4,2,22,72,0,0
44758,-100,4,2,22,62,0,0
51712,-100,4,2,22,42,0,0
52394,-100,4,2,22,42,0,0
52599,-100,4,2,22,5,0,0
52667,-100,4,2,22,52,0,0
52872,-100,4,2,22,5,0,0
52940,-100,4,2,22,62,0,0
53144,-100,4,2,22,5,0,0
53212,-100,4,2,22,42,0,0
53417,-100,4,2,22,5,0,0
53485,-95.2380952380952,4,2,22,92,0,1
70940,-100,4,2,22,82,0,0
83962,-100,4,2,22,5,0,0
84031,-100,4,2,22,82,0,0
88394,-100,4,2,22,62,0,0
116485,-100,4,2,22,62,0,0
116690,-100,4,2,22,5,0,0
116758,-100,4,2,22,72,0,0
124667,-100,4,2,22,42,0,0
124872,-100,4,2,22,5,0,0
124940,-100,4,2,22,52,0,0
125144,-100,4,2,22,5,0,0
125212,-100,4,2,22,62,0,0
125417,-100,4,2,22,5,0,0
125485,-95.2380952380952,4,2,22,92,0,1
145122,-100,4,2,22,82,0,0
162576,-111.111111111111,4,2,22,62,0,0
163940,-111.111111111111,4,2,22,22,0,0

[Colours]
Combo1 : 223,189,142
Combo2 : 204,200,200
Combo3 : 108,108,108
Combo4 : 225,168,169
SliderBorder : 255,255,255
SliderTrackOverride : 0,0,0

[HitObjects]
186,175,1122,6,0,P|120:199|30:125,2,179.999994506836,6|2|2,1:2|0:0|1:0,0:0:0:0:
245,107,2485,1,2,0:0:0:0:
327,143,2758,2,0,L|335:238,1,89.999997253418,2|10,0:0|0:0,0:0:0:0:
337,322,3303,6,0,P|272:340|167:304,2,179.999994506836,2|2|2,1:0|0:0|1:0,0:0:0:0:
413,273,4667,1,2,0:0:0:0:
448,190,4940,2,0,L|440:94,1,89.999997253418,2|10,0:0|0:0,0:0:0:0:
381,32,5485,6,0,B|275:28|319:85|204:79,1,179.999994506836,6|0,1:0|0:0,0:0:0:0:
126,53,6303,1,10,0:0:0:0:
55,108,6576,2,0,L|58:208,1,89.999997253418,2|2,1:0|0:0,0:0:0:0:
65,288,7122,1,2,0:0:0:0:
143,331,7394,1,10,0:0:0:0:
230,307,7667,6,0,B|320:294|312:353|409:335,1,179.999994506836,2|2,1:0|0:0,0:0:0:0:
485,298,8485,1,10,0:0:0:0:
503,209,8758,2,0,B|509:32|509:32|430:79,1,269.999991760254,2|2,1:0|0:0,0:0:0:0:
343,130,9849,6,0,P|266:102|187:115,2,150,6|2|10,1:0|1:0|0:0,0:0:0:0:
392,216,10940,2,0,L|384:322,1,99.9999999999999,2|10,1:0|0:0,0:0:0:0:
293,357,11485,2,0,P|245:363|187:349,1,99.9999999999999,2|10,0:0|0:0,0:0:0:0:
103,310,12031,5,6,1:0:0:0:
64,218,12303,1,10,0:0:0:0:
127,140,12576,2,0,B|146:84|138:30|138:30|103:14,2,150,2|2|8,0:0|0:0|0:0,0:0:0:0:
64,218,13667,1,0,0:0:0:0:
103,310,13939,1,8,0:0:0:0:
195,352,14212,6,0,B|240:327|292:335|292:335|339:368|408:342,1,200,6|0,1:0|0:0,0:0:0:0:
467,287,15031,2,0,L|474:123,2,150,8|0|0,0:0|0:0|0:0,0:0:0:0:
388,349,16122,1,8,0:0:0:0:
325,271,16394,6,0,P|265:261|213:278,1,99.9999999999999,0|8,1:0|0:0,0:0:0:0:
162,347,16940,2,0,P|113:357|64:347,1,99.9999999999999,0|8,0:0|0:0,0:0:0:0:
1,269,17485,2,0,P|4:219|26:174,1,99.9999999999999,4|8,1:0|0:0,0:0:0:0:
117,132,18031,1,0,0:0:0:0:
206,172,18303,1,8,0:0:0:0:
227,270,18576,6,0,P|300:298|383:271,2,150,6|2|10,1:0|1:0|0:0,0:0:0:0:
206,172,19667,2,0,L|314:166,1,99.9999999999999,2|10,1:0|0:0,0:0:0:0:
359,82,20212,2,0,L|467:88,1,99.9999999999999,2|10,0:0|0:0,0:0:0:0:
508,174,20758,5,6,1:0:0:0:
463,263,21031,1,10,0:0:0:0:
374,309,21303,2,0,B|323:329|264:296|264:296|219:317,2,150,2|2|10,0:0|0:0|0:0,0:0:0:0:
463,263,22394,1,2,0:0:0:0:
508,174,22667,1,10,0:0:0:0:
458,87,22940,6,0,B|362:57|354:129|254:89,1,200,6|0,1:0|0:0,0:0:0:0:
170,53,23758,2,0,P|225:114|208:191,2,150,10|2|2,0:0|0:0|0:0,0:0:0:0:
74,24,24849,1,10,0:0:0:0:
15,104,25122,6,0,L|24:219,1,99.9999999999999,6|10,1:0|0:0,0:0:0:0:
35,303,25667,1,2,0:0:0:0:
124,348,25940,1,10,0:0:0:0:
216,311,26212,2,0,P|288:326|364:304,2,150,6|0|8,1:0|1:0|0:0,0:0:0:0:
154,231,27303,6,0,L|8:240,2,134.999995880127,6|0|10,1:0|1:0|0:0,0:0:0:0:
224,160,28394,1,2,1:0:0:0:
224,160,29485,6,0,P|237:88|206:15,2,134.999995880127,2|0|10,1:0|1:0|0:0,0:0:0:0:
154,231,30576,1,2,1:0:0:0:
153,230,31667,6,0,P|166:304|141:368,2,134.999995880127,2|0|8,1:0|1:0|0:0,0:0:0:0:
104,143,32758,1,0,1:0:0:0:
104,143,33849,6,0,P|181:134|257:129,2,134.999995880127,0|0|8,1:0|1:0|0:0,0:0:0:0:
45,224,34940,1,0,1:0:0:0:
91,311,35212,2,0,P|142:324|196:316,1,89.999997253418,2|0,3:0|0:0,0:0:0:0:
271,284,35758,1,12,0:0:0:0:
319,197,36031,6,0,L|301:36,2,150,6|0|8,1:0|1:0|0:0,0:0:0:0:
375,281,37122,2,0,P|448:290|512:253,2,150,2|0|10,1:0|1:0|0:0,0:0:0:0:
319,197,38212,6,0,L|151:207,2,150,6|0|10,1:0|1:0|0:0,0:0:0:0:
362,106,39303,2,0,L|511:114,2,150,2|0|10,1:0|1:0|0:0,0:0:0:0:
280,48,40394,6,0,B|227:35|172:37|172:37|123:69,1,150,6|0,1:0|1:0,0:0:0:0:
33,167,41212,1,10,0:0:0:0:
117,221,41485,2,0,B|136:279|113:323|113:323|139:368,1,150,2|0,1:0|1:0,0:0:0:0:
277,314,42303,1,10,0:0:0:0:
332,230,42576,6,0,P|376:225|438:220,1,99.9999999999999,2|2,1:0|0:0,0:0:0:0:
461,124,43122,2,0,P|417:119|355:114,1,99.9999999999999,8|10,3:0|0:0,0:0:0:0:
262,100,43667,1,2,1:0:0:0:
203,181,43940,2,0,L|210:240,2,50,8|8|12,3:0|3:0|3:0,0:0:0:0:
163,88,44485,1,12,0:0:0:0:
75,137,44758,6,0,B|27:197|39:278|39:278|90:319,1,200,6|8,1:0|0:0,0:0:0:0:
166,355,45576,1,2,0:0:0:0:
258,316,45849,2,0,L|372:309,1,99.9999999999999,2|2,1:0|0:0,0:0:0:0:
383,213,46394,2,0,L|269:205,1,99.9999999999999,2|2,1:0|1:0,0:0:0:0:
183,193,46940,6,0,P|172:144|181:95,1,99.9999999999999,6|2,1:0|0:0,0:0:0:0:
251,24,47485,1,10,0:0:0:0:
351,24,47758,1,10,0:0:0:0:
421,94,48031,2,0,P|432:143|423:192,1,99.9999999999999,2|12,1:0|0:0,0:0:0:0:
354,263,48576,1,2,0:0:0:0:
253,263,48849,1,10,3:0:0:0:
183,193,49122,6,0,B|128:194|90:223|90:223|40:198|30:146,1,200,2|0,1:0|0:0,0:0:0:0:
66,53,49940,1,2,0:0:0:0:
160,21,50212,2,0,L|271:26,1,99.9999999999999,2|2,1:0|0:0,0:0:0:0:
311,111,50758,2,0,L|422:106,1,99.9999999999999,2|10,0:0|3:0,0:0:0:0:
484,174,51303,6,0,P|497:223|483:278,2,99.9999999999999,0|8|0,1:0|0:0|0:0,0:0:0:0:
397,225,52122,1,8,0:0:0:0:
298,241,52394,2,0,P|248:243|196:227,1,99.9999999999999,2|10,1:0|0:0,0:0:0:0:
107,190,52940,1,0,1:0:0:0:
30,255,53212,1,0,0:0:0:0:
67,353,53485,6,0,P|111:371|172:370,1,104.999996795654,6|8,1:0|0:0,0:0:0:0:
222,358,53894,1,2,0:0:0:0:
222,358,54031,2,0,P|266:340|327:341,1,104.999996795654,2|8,1:0|0:0,0:0:0:0:
425,361,54576,1,6,1:0:0:0:
499,287,54849,1,10,0:0:0:0:
497,181,55122,1,2,1:0:0:0:
436,95,55394,1,10,0:0:0:0:
335,124,55667,6,0,P|281:132|212:118,1,104.999996795654,6|10,1:0|0:0,0:0:0:0:
141,70,56212,2,0,L|146:11,2,52.4999983978271,2|0|10,1:0|0:0|0:0,0:0:0:0:
52,129,56758,2,0,L|60:252,1,104.999996795654,2|10,1:0|0:0,0:0:0:0:
125,314,57303,1,2,1:0:0:0:
228,333,57576,1,10,0:0:0:0:
316,276,57849,6,0,P|355:265|429:272,1,104.999996795654,6|8,1:0|0:0,0:0:0:0:
472,292,58258,1,2,0:0:0:0:
472,292,58394,2,0,L|477:179,1,104.999996795654,2|8,1:0|0:0,0:0:0:0:
487,82,58940,1,6,1:0:0:0:
408,12,59212,1,10,0:0:0:0:
303,18,59485,1,2,1:0:0:0:
247,107,59758,1,10,0:0:0:0:
293,201,60031,6,0,P|302:255|284:326,1,104.999996795654,6|10,1:0|0:0,0:0:0:0:
255,339,60440,1,2,0:0:0:0:
255,339,60576,2,0,P|201:330|130:348,1,104.999996795654,10|10,0:0|0:0,0:0:0:0:
51,370,61122,1,2,0:0:0:0:
10,273,61394,1,14,0:0:0:0:
46,174,61667,1,6,1:0:0:0:
147,145,61940,1,14,0:0:0:0:
245,181,62212,6,0,P|294:195|355:184,1,104.999996795654,6|8,1:0|0:0,0:0:0:0:
400,172,62622,1,2,0:0:0:0:
400,172,62758,2,0,L|393:65,1,104.999996795654,2|8,1:0|0:0,0:0:0:0:
301,15,63303,1,6,1:0:0:0:
196,22,63576,1,10,0:0:0:0:
130,103,63849,1,2,1:0:0:0:
152,205,64122,1,10,0:0:0:0:
237,265,64394,6,0,L|349:262,1,104.999996795654,6|10,1:0|0:0,0:0:0:0:
399,259,64803,1,0,0:0:0:0:
399,259,64940,2,0,P|410:206|395:138,1,104.999996795654,2|10,1:0|0:0,0:0:0:0:
346,67,65485,2,0,L|348:11,2,52.4999983978271,2|2|10,1:0|1:0|0:0,0:0:0:0:
254,119,66031,2,0,L|256:175,2,52.4999983978271,2|0|10,1:0|1:0|0:0,0:0:0:0:
188,36,66576,6,0,P|128:30|68:55,1,104.999996795654,6|8,1:0|0:0,0:0:0:0:
11,118,67122,1,2,1:0:0:0:
11,222,67394,1,8,0:0:0:0:
85,296,67667,2,0,L|203:285,1,104.999996795654,6|10,1:0|0:0,0:0:0:0:
226,248,68076,1,0,0:0:0:0:
226,248,68212,2,0,L|344:259,1,104.999996795654,2|10,1:0|0:0,0:0:0:0:
435,266,68758,6,0,P|446:215|438:156,1,104.999996795654,6|10,1:0|0:0,0:0:0:0:
401,137,69167,1,2,0:0:0:0:
401,137,69303,2,0,L|392:26,1,104.999996795654,10|10,0:0|0:0,0:0:0:0:
287,32,69849,2,0,L|278:143,1,104.999996795654,6|8,1:0|0:0,0:0:0:0:
203,210,70394,2,0,L|212:321,1,104.999996795654,0|8,1:0|0:0,0:0:0:0:
128,370,70940,5,6,1:0:0:0:
38,325,71212,1,10,0:0:0:0:
47,225,71485,2,0,P|26:153|28:74,2,150,0|2|10,0:0|0:0|0:0,0:0:0:0:
139,263,72576,2,0,L|247:251,1,99.9999999999999,2|10,0:0|0:0,0:0:0:0:
314,186,73122,6,0,B|414:200|414:200|474:175,2,150,0|2|10,1:0|1:0|0:0,0:0:0:0:
264,99,74212,1,2,1:0:0:0:
351,51,74485,1,10,0:0:0:0:
445,85,74758,2,0,P|462:130|458:184,1,99.9999999999999,0|10,0:0|0:0,0:0:0:0:
371,229,75303,6,0,L|390:377,2,150,6|2|10,1:0|0:0|0:0,0:0:0:0:
300,157,76394,2,0,P|223:188|147:170,2,150,2|2|8,1:0|1:0|0:0,0:0:0:0:
327,60,77485,6,0,L|214:52,1,99.9999999999999,2|10,1:0|0:0,0:0:0:0:
132,18,78031,2,0,L|19:26,1,99.9999999999999,2|8,1:0|0:0,0:0:0:0:
15,123,78576,2,0,B|5:228|5:228|28:274,2,150,6|2|14,1:0|1:0|0:0,0:0:0:0:
32,25,79667,5,6,1:0:0:0:
131,19,79940,1,10,0:0:0:0:
214,72,80212,1,2,0:0:0:0:
236,169,80485,1,10,0:0:0:0:
181,253,80758,2,0,P|169:304|182:362,1,99.9999999999999,6|10,1:0|0:0,0:0:0:0:
276,357,81303,2,0,P|288:306|275:248,1,99.9999999999999,6|10,0:0|0:0,0:0:0:0:
236,169,81849,6,0,L|232:56,2,99.9999999999999,6|10|2,1:0|0:0|0:0,0:0:0:0:
280,259,82667,1,10,0:0:0:0:
355,324,82940,2,0,P|406:331|458:316,1,99.9999999999999,2|10,1:0|0:0,0:0:0:0:
504,233,83485,1,2,0:0:0:0:
504,132,83758,1,8,0:0:0:0:
428,66,84031,6,0,B|313:47|350:111|224:94,1,200,6|0,1:0|0:0,0:0:0:0:
143,55,84849,1,10,0:0:0:0:
63,115,85122,2,0,L|73:215,1,99.9999999999999,6|10,1:0|0:0,0:0:0:0:
87,313,85667,1,2,0:0:0:0:
176,358,85940,1,10,0:0:0:0:
269,322,86212,6,0,P|317:329|372:319,2,99.9999999999999,6|10|2,1:0|0:0|1:0,0:0:0:0:
203,245,87031,1,10,0:0:0:0:
269,171,87303,2,0,P|318:162|367:169,1,99.9999999999999,6|10,1:0|0:0,0:0:0:0:
417,194,87712,1,2,1:0:0:0:
417,194,87849,2,0,L|423:85,1,99.9999999999999,2|10,1:0|0:0,0:0:0:0:
353,21,88394,5,6,1:0:0:0:
191,187,97122,6,0,P|232:133|383:246,1,300,0|8,1:0|0:0,0:0:0:0:
287,219,98212,2,0,B|303:18|303:18|196:36,1,300,0|0,1:0|1:0,0:0:0:0:
120,86,99303,6,0,B|69:100|24:78|24:78|95:182|68:271,1,300,0|8,1:0|0:0,0:0:0:0:
24,357,100394,2,0,B|72:284|202:297|202:297|235:337|296:344,1,300,0|4,1:0|3:0,0:0:0:0:
388,326,101485,5,4,3:0:0:0:
308,131,102303,2,0,L|314:70,2,50,0|8|0,1:0|0:0|1:0,0:0:0:0:
235,200,102849,2,0,P|181:205|130:190,1,99.9999999999999,0|0,1:0|0:0,0:0:0:0:
60,129,103394,1,0,1:0:0:0:
127,54,103667,6,0,P|206:36|315:84,1,200,0|8,1:0|0:0,0:0:0:0:
366,164,104485,1,0,1:0:0:0:
354,263,104758,2,0,L|360:326,2,50,0|8|4,1:0|0:0|3:0,0:0:0:0:
273,202,105303,1,8,3:0:0:0:
180,241,105576,2,0,L|117:236,1,50,0|8,1:0|0:0,0:0:0:0:
213,269,116758,6,0,P|164:293|64:279,2,150,4|0|8,1:0|1:0|0:0,0:0:0:0:
299,218,117849,2,0,P|348:242|448:228,2,150,0|0|8,1:0|1:0|0:0,0:0:0:0:
213,166,118940,6,0,L|204:8,2,150,0|0|8,1:0|1:0|0:0,0:0:0:0:
299,218,120031,2,0,L|290:376,2,150,0|0|8,1:0|1:0|0:0,0:0:0:0:
307,118,121122,6,0,P|357:103|455:115,2,150,4|0|8,1:0|1:0|0:0,0:0:0:0:
299,218,122212,2,0,P|349:233|447:221,2,150,0|0|8,1:0|1:0|0:0,0:0:0:0:
208,175,123303,6,0,B|187:97|232:97|208:19,2,150,0|0|8,1:0|1:0|0:0,0:0:0:0:
152,258,124394,1,0,0:0:0:0:
58,221,124667,2,0,P|43:167|54:112,2,99.9999999999999,2|2|2,0:0|0:0|0:0,0:0:0:0:
152,258,125485,6,0,L|260:253,1,104.999996795654,6|8,1:0|0:0,0:0:0:0:
313,250,125894,1,2,0:0:0:0:
313,250,126031,2,0,P|328:196|317:141,1,104.999996795654,2|8,1:0|0:0,0:0:0:0:
289,47,126576,1,6,1:0:0:0:
191,8,126849,1,10,0:0:0:0:
87,25,127122,1,2,1:0:0:0:
49,124,127394,1,10,0:0:0:0:
102,214,127667,6,0,P|154:224|221:210,1,104.999996795654,6|10,1:0|0:0,0:0:0:0:
279,142,128212,2,0,L|274:83,2,52.4999983978271,2|0|10,1:0|0:0|0:0,0:0:0:0:
356,213,128758,2,0,P|408:203|475:217,1,104.999996795654,2|10,1:0|0:0,0:0:0:0:
502,306,129303,1,2,1:0:0:0:
423,375,129576,1,10,0:0:0:0:
324,338,129849,6,0,L|211:334,1,104.999996795654,6|8,1:0|0:0,0:0:0:0:
180,307,130258,1,2,0:0:0:0:
180,307,130394,2,0,L|68:311,1,104.999996795654,2|8,1:0|0:0,0:0:0:0:
7,229,130940,1,6,1:0:0:0:
5,124,131212,1,10,0:0:0:0:
82,52,131485,1,2,1:0:0:0:
186,61,131758,1,10,0:0:0:0:
256,138,132031,6,0,P|310:129|381:147,1,104.999996795654,6|10,1:0|0:0,0:0:0:0:
410,165,132440,1,2,0:0:0:0:
410,165,132576,2,0,L|406:290,1,104.999996795654,10|10,0:0|0:0,0:0:0:0:
393,374,133122,1,2,0:0:0:0:
288,368,133394,1,14,0:0:0:0:
196,316,133667,1,6,1:0:0:0:
181,211,133940,1,14,0:0:0:0:
256,138,134212,6,0,L|379:131,1,104.999996795654,6|8,1:0|0:0,0:0:0:0:
418,130,134622,1,2,0:0:0:0:
418,130,134758,2,0,P|427:76|407:20,1,104.999996795654,2|8,1:0|0:0,0:0:0:0:
308,12,135303,1,6,1:0:0:0:
203,21,135576,1,10,0:0:0:0:
138,103,135849,1,2,1:0:0:0:
152,207,136122,1,10,0:0:0:0:
228,278,136394,6,0,L|340:275,1,104.999996795654,6|10,1:0|0:0,0:0:0:0:
389,271,136803,1,0,0:0:0:0:
389,271,136940,2,0,P|400:218|385:150,1,104.999996795654,2|10,1:0|0:0,0:0:0:0:
347,73,137485,2,0,L|349:17,2,52.4999983978271,2|2|10,1:0|1:0|0:0,0:0:0:0:
250,115,138031,2,0,L|252:171,2,52.4999983978271,2|0|10,1:0|1:0|0:0,0:0:0:0:
190,28,138576,6,0,P|134:18|68:37,1,104.999996795654,6|8,1:0|0:0,0:0:0:0:
12,102,139122,1,2,1:0:0:0:
12,206,139394,1,8,0:0:0:0:
86,280,139667,2,0,P|140:267|211:278,1,104.999996795654,6|10,1:0|0:0,0:0:0:0:
239,301,140076,1,0,0:0:0:0:
239,301,140212,2,0,L|360:295,1,104.999996795654,2|10,1:0|0:0,0:0:0:0:
369,193,140758,6,0,L|248:187,1,104.999996795654,6|10,1:0|0:0,0:0:0:0:
216,187,141167,1,2,0:0:0:0:
216,187,141303,2,0,P|207:133|219:80,1,104.999996795654,10|10,0:0|0:0,0:0:0:0:
304,25,141849,1,0,1:0:0:0:
409,21,142122,1,4,1:0:0:0:
495,80,142394,1,0,1:0:0:0:
510,183,142667,1,10,0:0:0:0:
447,267,142940,6,0,P|383:256|326:271,1,104.999996795654,6|10,1:0|0:0,0:0:0:0:
303,294,143349,1,2,0:0:0:0:
303,294,143485,2,0,P|239:283|182:298,1,104.999996795654,2|10,1:0|0:0,0:0:0:0:
101,327,144031,1,2,1:0:0:0:
26,253,144303,2,0,P|10:196|30:136,2,104.999996795654,0|0|4,0:0|0:0|0:0,0:0:0:0:
110,198,145122,6,0,B|160:211|205:178|205:178|266:191,2,150,6|2|10,1:0|1:0|0:0,0:0:0:0:
21,153,146212,2,0,P|11:98|27:42,1,99.9999999999999,2|10,1:0|0:0,0:0:0:0:
120,51,146758,2,0,P|175:61|231:45,1,99.9999999999999,2|10,0:0|0:0,0:0:0:0:
312,19,147303,5,6,1:0:0:0:
384,87,147576,1,10,0:0:0:0:
361,184,147849,2,0,P|431:211|505:198,2,150,2|2|8,0:0|0:0|0:0,0:0:0:0:
288,115,148940,1,0,0:0:0:0:
198,158,149212,1,8,0:0:0:0:
181,256,149485,6,0,P|101:297|3:253,1,200,6|0,1:0|0:0,0:0:0:0:
38,162,150303,2,0,B|51:116|51:116|31:73|46:15,2,150,8|0|0,0:0|0:0|0:0,0:0:0:0:
6,257,151394,1,8,0:0:0:0:
64,337,151667,6,0,L|175:333,1,99.9999999999999,0|8,1:0|0:0,0:0:0:0:
248,279,152212,2,0,L|359:283,1,99.9999999999999,0|8,0:0|0:0,0:0:0:0:
448,277,152758,1,4,1:0:0:0:
507,196,153031,1,8,0:0:0:0:
469,103,153303,2,0,P|412:88|356:98,1,99.9999999999999,0|8,0:0|0:0,0:0:0:0:
304,166,153849,6,0,P|324:120|297:22,2,150,6|2|10,1:0|1:0|0:0,0:0:0:0:
229,233,154940,2,0,P|183:242|125:228,1,99.9999999999999,2|10,1:0|0:0,0:0:0:0:
45,180,155485,2,0,P|36:134|50:76,1,99.9999999999999,2|10,0:0|0:0,0:0:0:0:
116,9,156031,5,6,1:0:0:0:
203,57,156303,1,10,0:0:0:0:
299,31,156576,2,0,B|363:15|425:35|425:35|458:67,2,150,2|2|10,0:0|0:0|0:0,0:0:0:0:
203,57,157667,1,2,0:0:0:0:
159,147,157940,1,10,0:0:0:0:
179,244,158212,6,0,P|274:282|373:251,1,200,6|0,1:0|0:0,0:0:0:0:
446,200,159031,2,0,L|440:40,2,150,10|2|0,0:0|0:0|0:0,0:0:0:0:
453,299,160122,1,10,0:0:0:0:
370,354,160394,6,0,P|310:360|264:349,1,99.9999999999999,6|10,1:0|0:0,0:0:0:0:
180,308,160940,1,2,0:0:0:0:
133,219,161212,1,10,0:0:0:0:
177,129,161485,2,0,B|276:106|276:170|374:147,1,200,4|0,1:1|0:0,0:0:0:0:
466,113,162303,1,8,0:0:0:0:
397,41,162576,6,0,B|341:29|341:29|291:47|291:47|213:15|125:51,1,269.999991760254,0|8,1:0|0:0,0:0:0:0:
57,108,163667,1,0,1:0:0:0:
