osu file format v14

[General]
AudioFilename: ayfull.mp3
AudioLeadIn: 0
PreviewTime: 73657
Countdown: 0
SampleSet: Soft
StackLeniency: 0.7
Mode: 0
LetterboxInBreaks: 0
WidescreenStoryboard: 1

[Editor]
Bookmarks: 10371,19371,28514,37657,56086,65300,74371,90228,92514,101800,103943,122371,126943,136086,145228,161086,163371,177228,179514,184086,193228,202371,204657,218300,225086,243371,252514
DistanceSpacing: 0.9
BeatDivisor: 4
GridSize: 32
TimelineZoom: 2.2

[Metadata]
Title:Shirayuki
TitleUnicode:白ゆき
Artist:nameless
ArtistUnicode:nameless
Creator:Milan-
Version:Saitei
Source:
Tags:utaite n-buna nbuna snow white shira yuki japanese novelty cover
BeatmapID:1554602
BeatmapSetID:493305

[Difficulty]
HPDrainRate:6
CircleSize:4
OverallDifficulty:9.5
ApproachRate:9.8
SliderMultiplier:1.9
SliderTickRate:1

[Events]
//Background and Video events
0,0,"yuri.jpg",0,0
//Break Periods
2,122533,124283
2,180619,183426
2,193247,201711
//Storyboard Layer 0 (Background)
//Storyboard Layer 1 (Fail)
//Storyboard Layer 2 (Pass)
//Storyboard Layer 3 (Foreground)
//Storyboard Layer 4 (Overlay)
//Storyboard Sound Samples

[TimingPoints]
48,285.714285714286,4,2,1,65,1,0
37619,-133.333333333333,4,2,1,50,0,0
56048,-200,4,2,1,50,0,0
57476,-133.333333333333,4,2,1,50,0,0
58333,-200,4,2,1,50,0,0
59762,-133.333333333333,4,2,1,50,0,0
60619,-200,4,2,1,50,0,0
62048,-133.333333333333,4,2,1,50,0,0
62905,-200,4,2,1,50,0,0
64333,-133.333333333333,4,2,1,50,0,0
65190,-133.333333333333,4,2,1,60,0,0
66619,-111.111111111111,4,2,1,60,0,0
67476,-133.333333333333,4,2,1,60,0,0
69333,-111.111111111111,4,2,1,60,0,0
69762,-133.333333333333,4,2,1,60,0,0
71333,-111.111111111111,4,2,1,60,0,0
72048,-200,4,2,1,60,0,0
74333,-100,4,2,1,75,0,1
83333,-100,4,2,1,75,0,0
83476,-100,4,2,1,75,0,1
92333,-100,4,2,1,75,0,0
92476,-100,4,2,1,75,0,1
101762,-133.333333333333,4,2,1,50,0,0
126048,-200,4,2,1,50,0,0
126905,-200,4,2,1,50,0,0
128333,-133.333333333333,4,2,1,50,0,0
129190,-200,4,2,1,50,0,0
130619,-133.333333333333,4,2,1,50,0,0
131476,-200,4,2,1,50,0,0
132905,-133.333333333333,4,2,1,50,0,0
133762,-200,4,2,1,50,0,0
135190,-133.333333333333,4,2,1,50,0,0
136047,-133.333333333333,4,2,1,60,0,0
137476,-111.111111111111,4,2,1,60,0,0
138333,-133.333333333333,4,2,1,60,0,0
140190,-111.111111111111,4,2,1,60,0,0
140619,-133.333333333333,4,2,1,60,0,0
142190,-111.111111111111,4,2,1,60,0,0
142905,-200,4,2,1,60,0,0
145190,-100,4,2,1,80,0,1
154190,-100,4,2,1,80,0,0
154333,-100,4,2,1,80,0,1
163190,-100,4,2,1,80,0,0
163333,-100,4,2,1,80,0,1
177048,-100,4,2,1,60,0,0
183905,-200,4,2,1,50,0,0
203476,-133.333333333333,4,2,1,60,0,0
204405,-100,4,2,1,70,0,0
204905,-100,4,2,1,75,0,1
205548,-100,4,2,1,75,0,0
205619,-100,4,2,1,75,0,1
206833,-100,4,2,1,75,0,0
206905,-100,4,2,1,75,0,1
211333,-100,4,2,1,75,0,0
211476,-100,4,2,1,75,0,1
224905,-100,4,2,1,75,0,0
225048,-100,4,2,1,75,0,1
234048,-100,4,2,1,75,0,0
234190,-100,4,2,1,70,0,1
243333,-100,4,2,1,65,0,0

[Colours]
Combo1 : 168,196,159
Combo2 : 187,198,208
Combo3 : 226,215,173
Combo4 : 208,187,198

[HitObjects]
68,107,19333,6,0,B|180:69|147:161|256:121,1,190,4|4,0:1|0:3,0:0:0:0:
108,197,19762,2,0,P|82:240|85:296,1,95,8|0,0:0|0:0,0:0:0:0:
324,322,20048,1,4,0:3:0:0:
182,269,20190,1,4,0:3:0:0:
324,322,20333,1,8,0:0:0:0:
350,137,20476,6,0,B|369:179|369:179|347:248,1,95,4|0,0:0|0:0,0:0:0:0:
254,107,20762,1,4,0:3:0:0:
172,263,20905,2,0,B|153:221|153:221|167:174,1,95,12|0,0:0|0:0,0:0:0:0:
342,43,21190,1,14,0:0:0:0:
110,17,21333,1,10,0:0:0:0:
110,17,21619,6,0,B|117:55|151:74|151:74|83:97|69:169,1,190,4|4,0:0|0:3,0:0:0:0:
254,107,22048,2,0,P|258:60|236:19,1,95,8|0,0:0|0:0,0:0:0:0:
28,64,22333,1,4,0:3:0:0:
214,210,22476,2,0,L|346:186,1,95,8|0,0:0|0:0,0:0:0:0:
72,154,22762,6,0,B|53:197|53:197|75:258,1,95,4|0,0:0|0:0,0:0:0:0:
307,193,23048,1,4,0:3:0:0:
165,369,23190,2,0,B|181:323|181:323|162:280,1,95,12|0,0:0|0:0,0:0:0:0:
116,49,23476,5,14,0:0:0:0:
162,280,23619,1,0,0:0:0:0:
334,100,23762,1,10,0:0:0:0:
39,166,23905,6,0,B|99:147|99:147|166:171|166:171|236:154,1,190,4|4,0:0|0:3,0:0:0:0:
259,94,24262,1,2,0:0:0:0:
259,94,24333,2,0,L|244:-34,1,95,10|0,0:0|0:0,0:0:0:0:
307,193,24619,1,4,0:3:0:0:
158,66,24762,1,4,0:3:0:0:
344,10,24905,1,8,0:0:0:0:
200,176,25048,6,0,B|177:217|177:217|203:303,1,95,4|0,0:0|0:0,0:0:0:0:
422,214,25333,1,4,0:3:0:0:
226,349,25476,2,0,B|178:360|178:360|126:339,1,95,12|0,0:0|0:0,0:0:0:0:
307,193,25762,1,14,0:0:0:0:
67,112,25905,1,10,0:0:0:0:
67,112,26190,6,0,L|87:239,1,95,4|0,0:0|0:0,0:0:0:0:
289,88,26476,1,4,0:3:0:0:
184,119,26619,2,0,L|204:-8,1,95,8|0,0:0|0:0,0:0:0:0:
412,132,26905,1,4,0:3:0:0:
307,101,27048,2,0,L|327:228,1,95,8|2,0:0|0:0,0:0:0:0:
368,266,27262,1,2,0:0:0:0:
368,266,27333,6,0,P|320:291|268:275,1,95,4|0,0:0|0:0,0:0:0:0:
100,131,27619,1,4,0:3:0:0:
196,347,27762,2,0,L|186:242,1,95,12|0,0:0|0:0,0:0:0:0:
226,50,28048,1,14,0:0:0:0:
28,237,28190,1,10,0:0:0:0:
28,237,28476,6,0,P|124:245|171:153,1,190,4|4,0:0|0:3,0:0:0:0:
37,38,28905,2,0,P|38:84|64:124,1,95,8|0,0:0|0:0,0:0:0:0:
267,17,29191,1,4,0:3:0:0:
130,55,29333,1,4,0:3:0:0:
267,17,29476,1,8,0:0:0:0:
226,232,29619,6,0,B|207:190|207:190|229:121,1,95,4|0,0:0|0:0,0:0:0:0:
469,92,29905,1,4,0:3:0:0:
315,184,30048,2,0,L|427:170,1,95,12|0,0:0|0:0,0:0:0:0:
470,0,30333,1,14,0:0:0:0:
376,281,30476,1,10,0:0:0:0:
376,281,30762,6,0,B|304:276|304:276|257:297|257:297|182:291,1,190,4|4,0:0|0:3,0:0:0:0:
44,166,31190,2,0,L|57:270,1,95,8|0,0:0|0:0,0:0:0:0:
231,200,31476,1,4,0:3:0:0:
30,354,31619,2,0,B|76:360|76:360|121:330,1,95,8|0,0:0|0:0,0:0:0:0:
311,76,31905,6,0,B|270:49|270:49|224:55,1,95,4|0,0:0|0:0,0:0:0:0:
34,149,32191,1,4,0:3:0:0:
261,250,32333,2,0,L|247:131,1,95,8|0,0:0|0:0,0:0:0:0:
42,9,32619,5,14,0:0:0:0:
314,62,32762,1,0,0:0:0:0:
45,145,32905,1,10,0:0:0:0:
337,55,33048,6,0,P|408:132|364:206,1,190,4|4,0:0|0:3,0:0:0:0:
311,236,33405,1,2,0:0:0:0:
311,236,33476,2,0,L|186:227,1,95,10|0,0:0|0:0,0:0:0:0:
52,267,33762,1,4,0:3:0:0:
180,135,33905,1,4,0:3:0:0:
249,319,34048,1,8,0:0:0:0:
85,170,34191,6,0,B|71:124|71:124|94:83,1,95,4|0,0:0|0:0,0:0:0:0:
288,63,34476,1,4,0:3:0:0:
189,221,34619,2,0,B|202:175|202:175|179:134,1,95,12|0,0:0|0:0,0:0:0:0:
7,27,34905,1,14,0:0:0:0:
291,158,35048,1,10,0:0:0:0:
291,158,35333,6,0,L|311:285,1,95,4|0,0:0|0:0,0:0:0:0:
202,50,35619,1,4,0:3:0:0:
397,147,35762,2,0,L|417:20,1,95,8|0,0:0|0:0,0:0:0:0:
304,63,36048,1,4,0:3:0:0:
498,171,36191,2,0,L|518:298,1,95,8|2,0:0|0:0,0:0:0:0:
483,348,36405,1,2,0:0:0:0:
483,348,36476,6,0,P|437:318|425:265,1,95,4|0,0:0|0:0,0:0:0:0:
494,90,36762,1,4,0:3:0:0:
332,312,36905,2,0,L|209:298,1,95,12|2,0:0|0:0,0:0:0:0:
86,190,37190,5,2,0:0:0:0:
190,374,37333,1,4,0:3:0:0:
327,212,37476,1,10,0:0:0:0:
103,178,37619,6,0,P|111:229|122:330,1,142.500005435944,4|4,0:0|0:3,0:0:0:0:
201,207,38048,2,0,P|229:129|235:115,1,71.2500027179719,8|0,0:0|0:0,0:0:0:0:
142,40,38333,1,4,0:3:0:0:
285,62,38476,1,4,0:3:0:0:
142,40,38619,1,8,0:0:0:0:
285,62,38762,6,0,P|352:52|446:32,1,142.500005435944,2|0,0:0|0:0,0:0:0:0:
481,190,39190,2,0,P|451:182|394:160,1,71.2500027179719,10|0,0:0|0:0,0:0:0:0:
271,328,39476,2,0,P|304:315|338:306,1,71.2500027179719,2|4,0:0|0:3,0:0:0:0:
307,142,39762,2,0,P|325:198|330:227,1,71.2500027179719,10|4,0:0|0:3,0:0:0:0:
161,343,40048,6,0,P|169:308|181:274,1,71.2500027179719,2|4,0:0|0:3,0:0:0:0:
48,127,40333,2,0,P|62:196|72:267,1,142.500005435944,10|4,0:0|0:3,0:0:0:0:
280,145,40762,1,10,0:0:0:0:
280,145,40833,1,10,0:0:0:0:
280,145,40905,1,10,0:0:0:0:
80,30,41048,1,8,0:0:0:0:
80,30,41333,5,4,0:3:0:0:
284,58,41476,1,8,0:0:0:0:
168,135,41619,1,2,0:0:0:0:
284,58,41762,1,8,0:0:0:0:
160,9,41905,1,2,0:0:0:0:
284,58,42048,1,8,0:0:0:0:
73,91,42190,6,0,P|82:162|104:253,1,142.500005435944,4|4,0:0|0:3,0:0:0:0:
38,343,42619,2,0,P|111:331|205:318,1,142.500005435944,8|4,0:0|0:3,0:0:0:0:
206,210,43048,1,4,0:3:0:0:
295,369,43190,1,8,0:0:0:0:
407,223,43333,6,0,L|393:134,1,71.2500027179719,0|4,0:0|0:3,0:0:0:0:
302,262,43619,1,4,0:3:0:0:
512,136,43762,1,8,0:0:0:0:
512,136,44048,5,8,0:0:0:0:
288,41,44190,1,4,0:3:0:0:
288,41,44476,6,0,P|328:94|295:166,1,142.500005435944,4|4,0:0|0:3,0:0:0:0:
131,208,44905,2,0,L|39:189,1,71.2500027179719,10|0,0:0|0:0,0:0:0:0:
206,134,45190,1,4,0:3:0:0:
139,309,45333,2,0,L|47:290,1,71.2500027179719,10|0,0:0|0:0,0:0:0:0:
312,359,45619,6,0,P|378:338|393:264,1,142.500005435944,12|4,0:0|0:3,0:0:0:0:
221,224,46048,2,0,L|231:308,1,71.2500027179719,14|0,0:0|0:0,0:0:0:0:
456,182,46333,1,14,0:0:0:0:
233,68,46476,1,4,0:3:0:0:
233,68,46762,6,0,P|287:58|380:45,1,142.500005435944,4|4,0:0|0:3,0:0:0:0:
295,183,47190,2,0,P|258:173|208:161,1,71.2500027179719,8|0,0:0|0:0,0:0:0:0:
386,144,47476,1,4,0:3:0:0:
350,270,47619,1,4,0:3:0:0:
386,144,47762,1,8,0:0:0:0:
350,270,47905,6,0,P|280:284|209:294,1,142.500005435944,2|4,0:0|0:3,0:0:0:0:
101,214,48333,2,0,P|71:206|14:184,1,71.2500027179719,10|0,0:0|0:0,0:0:0:0:
162,54,48619,2,0,P|195:41|229:32,1,71.2500027179719,2|4,0:0|0:3,0:0:0:0:
211,201,48905,1,10,0:0:0:0:
59,102,49048,6,0,P|67:67|79:33,1,71.2500027179719,2|0,0:0|0:0,0:0:0:0:
144,135,49333,1,4,0:3:0:0:
40,258,49476,2,0,P|93:236|156:313,1,142.500005435944,8|4,0:0|0:3,0:0:0:0:
67,368,49905,1,2,0:0:0:0:
21,164,50048,1,8,0:0:0:0:
233,227,50191,5,6,0:0:0:0:
132,281,50333,1,4,0:3:0:0:
136,172,50476,1,4,0:3:0:0:
238,358,50619,5,8,0:0:0:0:
361,187,50762,1,2,0:0:0:0:
238,358,50905,1,8,0:0:0:0:
136,159,51048,1,2,0:0:0:0:
238,358,51191,1,8,0:0:0:0:
251,88,51333,6,0,P|256:131|267:250,1,142.500005435944,4|4,0:0|0:3,0:0:0:0:
336,356,51762,2,0,P|409:344|503:331,1,142.500005435944,8|4,0:0|0:3,0:0:0:0:
231,339,52191,1,4,0:3:0:0:
420,249,52333,1,8,0:0:0:0:
222,340,52476,6,0,L|133:316,1,71.2500027179719,4|0,0:0|0:0,0:0:0:0:
317,378,52762,1,4,0:3:0:0:
279,159,52905,5,8,0:0:0:0:
298,269,53048,1,0,0:0:0:0:
279,159,53190,1,2,0:0:0:0:
389,201,53333,1,4,0:3:0:0:
188,232,53476,1,10,0:0:0:0:
259,60,53619,6,0,P|327:45|389:103,1,142.500005435944,4|4,0:0|0:3,0:0:0:0:
170,136,54048,2,0,L|78:117,1,71.2500027179719,8|0,0:0|0:0,0:0:0:0:
274,199,54333,1,4,0:3:0:0:
110,281,54476,2,0,L|202:262,1,71.2500027179719,8|0,0:0|0:0,0:0:0:0:
288,202,54762,1,4,0:3:0:0:
21,246,54905,5,8,0:0:0:0:
183,358,55048,1,0,0:0:0:0:
203,158,55190,1,4,0:3:0:0:
26,236,55333,5,8,0:0:0:0:
184,347,55476,1,0,0:0:0:0:
208,147,55619,1,4,0:3:0:0:
34,225,55762,5,8,0:0:0:0:
455,146,56048,6,0,L|451:245,1,95,4|0,0:0|0:0,0:0:0:0:
316,350,56476,2,0,L|312:251,1,95,4|0,0:0|0:0,0:0:0:0:
391,80,56905,1,4,0:0:0:0:
391,80,57048,2,0,P|330:119|298:122,1,95,0|4,0:0|0:3,0:0:0:0:
228,82,57476,6,0,L|237:0,1,71.2500027179719,10|0,0:0|0:0,0:0:0:0:
157,211,57762,2,0,L|167:286,1,71.2500027179719,2|4,0:0|0:3,0:0:0:0:
144,123,58048,2,0,L|67:101,1,71.2500027179719,10|0,0:0|0:0,0:0:0:0:
251,289,58333,6,0,L|360:264,1,95,4|2,0:0|0:0,0:0:0:0:
469,173,58762,2,0,L|360:148,1,95,4|2,0:0|0:0,0:0:0:0:
220,73,59190,2,0,L|208:-11,2,71.25,4|0|4,0:0|0:0|0:3,0:0:0:0:
354,19,59762,6,0,P|345:50|333:116,1,71.2500027179719,10|0,0:0|0:0,0:0:0:0:
380,156,59976,1,0,0:0:0:0:
380,156,60048,1,10,0:0:0:0:
206,154,60191,1,0,0:0:0:0:
90,30,60333,2,0,P|61:27|14:13,1,71.2500027179719,2|0,0:0|0:0,0:0:0:0:
292,164,60619,6,0,L|276:280,1,95,4|0,0:0|0:0,0:0:0:0:
102,218,61048,2,0,L|86:102,1,95,4|0,0:0|0:0,0:0:0:0:
298,350,61476,1,4,0:0:0:0:
298,350,61619,2,0,P|243:347|205:317,1,95,0|4,0:0|0:3,0:0:0:0:
47,316,62048,6,0,L|118:304,1,71.2500027179719,10|0,0:0|0:0,0:0:0:0:
180,253,62262,1,0,0:0:0:0:
180,253,62333,1,2,0:0:0:0:
60,207,62476,1,4,0:3:0:0:
217,108,62619,1,10,0:0:0:0:
200,231,62762,1,0,0:0:0:0:
74,117,62905,6,0,L|64:2,1,95,4|2,0:0|0:0,0:0:0:0:
302,103,63333,2,0,L|293:197,1,95,4|2,0:0|0:0,0:0:0:0:
226,249,63690,1,8,0:0:0:0:
226,249,63762,1,12,0:0:0:0:
350,274,63905,2,0,P|398:265|426:209,1,95,0|4,0:0|0:3,0:0:0:0:
278,313,64333,6,0,L|292:397,1,71.2500027179719,10|0,0:0|0:0,0:0:0:0:
196,247,64619,1,10,0:0:0:0:
383,342,64762,2,0,L|392:252,1,71.2500027179719,4|0,0:3|0:0,0:0:0:0:
251,174,65048,1,8,0:0:0:0:
449,76,65190,6,0,L|468:221,1,142.500005435944,4|8,0:0|0:0,0:0:0:0:
357,121,65619,2,0,P|323:74|223:90,1,142.500005435944,4|4,0:0|0:3,0:0:0:0:
91,176,66048,1,12,0:0:0:0:
153,57,66190,2,0,L|163:140,1,71.2500027179719,0|4,0:0|0:3,0:0:0:0:
182,273,66476,1,4,0:3:0:0:
11,275,66619,6,0,L|95:261,1,85.4999973907472,10|0,0:0|0:0,0:0:0:0:
312,202,66905,2,0,L|228:189,1,85.4999973907472,2|0,0:0|0:0,0:0:0:0:
271,366,67190,2,0,L|282:282,1,85.4999973907472,10|0,0:0|0:0,0:0:0:0:
386,67,67476,6,0,P|401:129|411:225,1,142.500005435944,4|8,0:0|0:0,0:0:0:0:
301,103,67905,1,4,0:3:0:0:
470,21,68048,1,0,0:0:0:0:
503,221,68190,1,8,0:0:0:0:
503,221,68262,1,8,0:0:0:0:
503,221,68333,2,0,P|501:176|495:127,1,71.2500027179719,8|0,0:0|0:0,0:0:0:0:
307,15,68619,5,4,0:3:0:0:
411,189,68762,1,4,0:3:0:0:
221,194,68905,1,8,0:0:0:0:
389,88,69048,1,8,0:0:0:0:
389,88,69119,1,8,0:0:0:0:
389,88,69190,1,8,0:0:0:0:
203,7,69333,2,0,P|209:39|214:107,1,85.4999973907472,2|0,0:0|0:0,0:0:0:0:
304,30,69619,1,0,0:0:0:0:
126,147,69762,6,0,P|48:128|46:47,1,142.500005435944,4|8,0:0|0:0,0:0:0:0:
221,194,70190,2,0,P|218:250|212:353,1,142.500005435944,4|0,0:0|0:0,0:0:0:0:
49,254,70619,2,0,P|85:247|125:239,1,71.2500027179719,12|0,0:0|0:0,0:0:0:0:
315,273,70905,5,4,0:3:0:0:
214,186,71048,1,0,0:0:0:0:
370,126,71190,1,8,0:0:0:0:
261,20,71333,2,0,L|270:116,1,85.4999973907472,4|0,0:0|0:0,0:0:0:0:
368,10,71619,1,4,0:3:0:0:
124,132,71762,1,12,0:0:0:0:
381,221,71905,1,4,0:3:0:0:
198,206,72048,6,0,B|242:225|242:225|295:209,1,95,4|2,0:0|0:0,0:0:0:0:
251,121,72476,1,4,0:3:0:0:
146,278,72619,1,8,0:0:0:0:
348,296,72762,1,8,0:0:0:0:
348,296,72833,1,8,0:0:0:0:
348,296,72905,1,8,0:0:0:0:
131,157,73048,6,0,B|110:119|110:119|129:71,1,95,4|4,0:0|0:3,0:0:0:0:
448,35,73476,1,10,0:0:0:0:
232,115,73619,1,2,0:0:0:0:
417,248,73762,1,4,0:0:0:0:
134,366,74333,6,0,L|121:259,1,95,4|0,0:1|0:0,0:0:0:0:
327,98,74619,2,0,L|315:192,1,95,12|0,0:0|0:0,0:0:0:0:
109,169,74905,1,4,0:3:0:0:
307,292,75048,1,4,0:3:0:0:
231,92,75190,2,0,B|209:135|209:135|229:205,1,95,8|0,0:0|0:0,0:0:0:0:
428,289,75476,5,4,0:3:0:0:
202,257,75619,1,4,0:3:0:0:
337,96,75762,1,8,0:0:0:0:
307,357,75905,2,0,B|205:301|223:390|117:342,1,190,4|2,0:3|0:0,0:0:0:0:
68,291,76262,1,2,0:0:0:0:
68,291,76333,2,0,L|56:208,1,47.5,10|8,0:0|0:0,0:0:0:0:
206,111,76476,2,0,L|194:194,1,47.5,10|8,0:0|0:0,0:0:0:0:
17,156,76619,5,4,0:0:0:0:
225,246,76762,1,4,0:3:0:0:
17,156,76905,2,0,L|123:142,1,95,8|0,0:0|0:0,0:0:0:0:
301,132,77190,1,4,0:3:0:0:
58,63,77333,1,8,0:0:0:0:
100,311,77476,1,2,0:0:0:0:
100,311,77548,1,2,0:0:0:0:
100,311,77619,6,0,B|202:255|184:344|290:296,1,190,6|4,0:0|0:3,0:0:0:0:
497,216,78048,1,14,0:0:0:0:
274,157,78190,1,0,0:0:0:0:
420,337,78333,1,14,0:0:0:0:
407,106,78476,1,0,0:0:0:0:
281,299,78619,1,14,0:0:0:0:
101,129,78762,5,2,0:0:0:0:
101,129,78833,1,2,0:0:0:0:
101,129,78905,2,0,L|204:112,1,95,6|4,0:0|0:3,0:0:0:0:
351,40,79190,1,8,0:0:0:0:
196,201,79333,1,0,0:0:0:0:
351,40,79476,1,4,0:3:0:0:
199,95,79619,1,4,0:3:0:0:
331,195,79762,1,8,0:0:0:0:
155,289,79905,5,2,0:0:0:0:
155,289,79976,1,2,0:0:0:0:
155,289,80048,2,0,L|60:277,1,95,6|4,0:0|0:3,0:0:0:0:
224,196,80333,1,8,0:0:0:0:
101,378,80476,1,0,0:0:0:0:
0,192,80619,1,8,0:0:0:0:
155,289,80762,1,2,0:0:0:0:
155,289,80833,1,2,0:0:0:0:
156,287,80905,2,0,L|146:212,1,47.5,10|2,0:0|0:0,0:0:0:0:
95,102,81048,2,0,L|85:177,1,47.5,2|2,0:0|0:0,0:0:0:0:
254,282,81190,5,4,0:0:0:0:
63,227,81333,1,4,0:3:0:0:
240,106,81476,1,8,0:0:0:0:
37,3,81619,5,4,0:0:0:0:
293,27,81762,1,0,0:0:0:0:
155,229,81905,1,4,0:3:0:0:
293,27,82048,1,8,0:0:0:0:
42,129,82190,6,0,B|101:106|101:106|165:128|165:128|239:105,1,190,4|4,0:0|0:3,0:0:0:0:
420,128,82619,5,10,0:0:0:0:
202,27,82762,1,0,0:0:0:0:
225,222,82905,5,10,0:0:0:0:
443,112,83048,1,4,0:3:0:0:
398,353,83190,5,10,0:0:0:0:
371,347,83262,1,10,0:0:0:0:
344,338,83333,1,10,0:0:0:0:
317,330,83405,1,10,0:0:0:0:
290,322,83476,6,0,L|165:335,1,95,4|0,0:0|0:0,0:0:0:0:
49,152,83762,2,0,L|143:161,1,95,12|0,0:0|0:0,0:0:0:0:
363,179,84048,1,4,0:3:0:0:
171,246,84190,1,4,0:3:0:0:
212,41,84333,1,8,0:0:0:0:
281,251,84476,1,2,0:0:0:0:
281,251,84548,1,2,0:0:0:0:
281,251,84619,5,6,0:0:0:0:
346,51,84762,1,4,0:3:0:0:
118,76,84905,1,8,0:0:0:0:
201,320,85048,5,2,0:0:0:0:
248,147,85191,1,4,0:3:0:0:
388,258,85333,1,2,0:0:0:0:
155,216,85476,5,10,0:0:0:0:
155,216,85548,1,2,0:0:0:0:
155,216,85619,2,0,P|133:103|206:42,1,190,6|4,0:0|0:3,0:0:0:0:
403,89,86048,1,8,0:0:0:0:
238,143,86190,1,0,0:0:0:0:
403,89,86333,1,4,0:3:0:0:
183,37,86476,1,8,0:0:0:0:
379,185,86619,5,2,0:0:0:0:
379,185,86690,1,2,0:0:0:0:
379,185,86762,2,0,L|368:295,1,95,4|0,0:0|0:0,0:0:0:0:
312,86,87048,1,4,0:3:0:0:
173,238,87190,5,12,0:0:0:0:
369,279,87333,1,0,0:0:0:0:
94,218,87476,5,12,0:0:0:0:
290,177,87619,1,0,0:0:0:0:
112,296,87762,5,12,0:0:0:0:
47,87,87905,1,2,0:0:0:0:
47,87,87976,1,2,0:0:0:0:
47,87,88048,6,0,L|147:93,1,95,6|4,0:0|0:3,0:0:0:0:
338,96,88333,1,8,0:0:0:0:
184,9,88476,1,0,0:0:0:0:
338,96,88619,1,4,0:3:0:0:
175,175,88762,1,4,0:3:0:0:
291,10,88905,1,8,0:0:0:0:
398,213,89048,1,2,0:0:0:0:
398,213,89119,1,2,0:0:0:0:
398,213,89190,6,0,L|285:204,1,95,4|4,0:0|0:3,0:0:0:0:
74,99,89476,2,0,L|187:90,1,95,12|0,0:0|0:0,0:0:0:0:
305,298,89762,1,12,0:0:0:0:
258,92,89905,1,4,0:3:0:0:
69,188,90048,1,10,0:0:0:0:
69,188,90119,1,10,0:0:0:0:
69,188,90190,5,4,0:0:0:0:
211,208,90333,1,0,0:0:0:0:
120,318,90476,1,4,0:3:0:0:
293,364,90619,2,0,L|281:251,1,95,8|0,0:0|0:0,0:0:0:0:
135,234,90905,1,4,0:3:0:0:
344,182,91048,5,8,0:0:0:0:
203,327,91190,1,0,0:0:0:0:
393,285,91333,5,8,0:0:0:0:
226,113,91476,2,0,L|220:218,1,95,0|4,0:0|0:3,0:0:0:0:
437,158,91762,5,8,0:0:0:0:
257,32,91905,1,0,0:0:0:0:
465,84,92048,5,8,0:0:0:0:
239,223,92190,1,4,0:3:0:0:
467,316,92333,5,2,0:0:0:0:
467,316,92405,1,2,0:0:0:0:
467,316,92476,2,0,L|367:312,1,95,6|0,0:0|0:0,0:0:0:0:
203,308,92762,1,4,0:3:0:0:
370,198,92905,5,10,0:2:0:0:
298,372,93048,1,4,0:3:0:0:
257,156,93190,5,10,0:2:0:0:
459,213,93333,1,4,0:3:0:0:
189,222,93476,5,10,0:0:0:0:
432,94,93619,2,0,L|425:-14,1,95,4|8,0:0|0:0,0:0:0:0:
242,72,93905,1,4,0:3:0:0:
512,138,94048,5,10,0:0:0:0:
272,238,94190,1,4,0:3:0:0:
500,294,94333,5,10,0:0:0:0:
308,142,94476,1,4,0:3:0:0:
250,363,94619,5,10,0:0:0:0:
459,213,94762,1,8,0:0:0:0:
250,363,94905,6,0,L|238:269,1,95,4|8,0:0|0:0,0:0:0:0:
433,114,95190,2,0,L|416:293,1,142.5,12|0,0:0|0:0,0:0:0:0:
428,340,95476,2,0,P|397:334|315:323,1,95,12|0,0:0|0:0,0:0:0:0:
112,236,95762,1,4,0:3:0:0:
258,23,95905,6,0,L|273:186,1,142.5,4|0,0:0|0:0,0:0:0:0:
265,186,96190,1,4,0:3:0:0:
32,193,96333,1,8,0:0:0:0:
60,159,96405,1,8,0:0:0:0:
99,142,96476,1,8,0:0:0:0:
141,148,96548,1,8,0:0:0:0:
177,170,96619,1,8,0:0:0:0:
111,235,96762,1,4,0:3:0:0:
89,57,96905,1,8,0:0:0:0:
58,306,97048,6,0,B|103:323|103:323|148:313,1,95,4|0,0:0|0:0,0:0:0:0:
295,236,97333,1,4,0:3:0:0:
111,235,97476,5,10,0:0:0:0:
304,327,97619,1,4,0:3:0:0:
139,151,97762,5,10,0:0:0:0:
367,169,97905,1,4,0:3:0:0:
127,62,98048,5,10,0:0:0:0:
315,12,98190,2,0,L|307:117,1,95,4|8,0:0|0:0,0:0:0:0:
295,281,98476,1,4,0:3:0:0:
399,84,98619,5,10,0:0:0:0:
183,193,98762,1,4,0:3:0:0:
413,218,98905,5,10,0:0:0:0:
200,109,99048,1,4,0:3:0:0:
414,0,99190,1,10,0:0:0:0:
276,269,99333,5,10,0:0:0:0:
276,269,99405,1,10,0:0:0:0:
276,269,99476,1,6,0:0:0:0:
342,124,99619,1,4,0:0:0:0:
177,78,99762,2,0,L|196:233,1,142.5,12|0,0:0|0:0,0:0:0:0:
157,291,100048,2,0,P|113:279|56:270,1,95,12|0,0:0|0:0,0:0:0:0:
272,178,100333,1,8,0:0:0:0:
54,30,100476,6,0,P|62:75|72:151,1,95,4|0,0:0|0:0,0:0:0:0:
266,83,100762,1,4,0:3:0:0:
56,240,100905,2,0,P|102:231|158:211,1,95,12|0,0:0|0:0,0:0:0:0:
221,245,101119,1,0,0:0:0:0:
221,245,101190,2,2,L|234:311,1,47.5
328,179,101333,2,2,L|341:113,1,47.5
188,141,101476,1,8,0:0:0:0:
381,259,101619,1,4,0:3:0:0:
161,358,101762,5,4,0:0:0:0:
102,176,102333,5,4,0:3:0:0:
248,86,102762,5,8,0:0:0:0:
248,86,102833,1,8,0:0:0:0:
248,86,102905,2,0,L|253:167,1,71.2500027179719,12|0,0:0|0:0,0:0:0:0:
144,98,103190,1,8,0:0:0:0:
346,190,103333,2,0,L|350:109,1,71.2500027179719,8|0,0:0|0:0,0:0:0:0:
193,258,103619,2,0,L|277:245,1,71.2500027179719,8|0,0:0|0:0,0:0:0:0:
446,46,103905,6,0,P|462:118|468:186,1,142.500005435944,4|4,0:0|0:3,0:0:0:0:
384,334,104333,2,0,P|396:300|407:266,1,71.2500027179719,8|0,0:0|0:0,0:0:0:0:
371,132,104618,1,4,0:3:0:0:
501,274,104761,1,4,0:3:0:0:
371,132,104904,1,8,0:0:0:0:
293,307,105047,6,0,P|226:317|132:337,1,142.500005435944,2|0,0:0|0:0,0:0:0:0:
213,207,105476,2,0,P|243:215|300:237,1,71.2500027179719,10|0,0:0|0:0,0:0:0:0:
69,273,105762,2,0,P|36:286|2:295,1,71.2500027179719,2|4,0:0|0:3,0:0:0:0:
116,188,106047,2,0,P|98:132|93:103,1,71.2500027179719,10|4,0:0|0:3,0:0:0:0:
351,56,106333,6,0,P|343:91|331:125,1,71.2500027179719,2|4,0:0|0:3,0:0:0:0:
111,22,106619,2,0,P|183:35|252:40,1,142.500005435944,10|4,0:0|0:3,0:0:0:0:
468,18,107047,1,8,0:0:0:0:
468,18,107118,1,8,0:0:0:0:
468,18,107190,1,8,0:0:0:0:
220,135,107333,1,8,0:0:0:0:
220,135,107618,5,4,0:3:0:0:
451,199,107761,1,8,0:0:0:0:
312,203,107904,1,2,0:0:0:0:
451,199,108047,1,8,0:0:0:0:
371,75,108190,1,2,0:0:0:0:
451,199,108333,1,8,0:0:0:0:
220,135,108476,6,0,P|227:180|239:303,1,142.500005435944,4|4,0:0|0:3,0:0:0:0:
373,344,108904,2,0,P|300:356|206:369,1,142.500005435944,8|4,0:0|0:3,0:0:0:0:
370,206,109333,1,4,0:3:0:0:
484,349,109475,1,8,0:0:0:0:
370,206,109619,6,0,L|358:135,1,71.2500027179719,0|4,0:0|0:3,0:0:0:0:
457,260,109904,1,4,0:3:0:0:
294,54,110047,1,8,0:0:0:0:
294,54,110333,5,8,0:0:0:0:
150,318,110475,1,4,0:3:0:0:
150,318,110762,6,0,P|208:280|195:190,1,142.500005435944,4|4,0:0|0:3,0:0:0:0:
15,236,111190,2,0,L|107:255,1,71.2500027179719,10|0,0:0|0:0,0:0:0:0:
189,126,111475,1,4,0:3:0:0:
22,55,111619,2,0,L|33:142,1,71.2500027179719,10|0,0:0|0:0,0:0:0:0:
298,113,111904,6,0,P|279:47|214:26,1,142.500005435944,12|4,0:0|0:3,0:0:0:0:
334,273,112333,2,0,L|422:255,1,71.2500027179719,14|0,0:0|0:0,0:0:0:0:
221,172,112618,1,14,0:0:0:0:
476,327,112761,1,4,0:3:0:0:
476,327,113047,6,0,P|414:344|336:368,1,142.500005435944,4|4,0:0|0:3,0:0:0:0:
411,173,113476,2,0,P|448:183|498:195,1,71.2500027179719,8|0,0:0|0:0,0:0:0:0:
334,273,113761,1,4,0:3:0:0:
316,104,113904,1,4,0:3:0:0:
334,273,114047,1,8,0:0:0:0:
316,104,114190,6,0,P|246:90|175:80,1,142.500005435944,2|4,0:0|0:3,0:0:0:0:
227,212,114619,2,0,P|257:204|314:182,1,71.2500027179719,10|0,0:0|0:0,0:0:0:0:
124,170,114905,2,0,P|91:183|57:192,1,71.2500027179719,2|4,0:0|0:3,0:0:0:0:
175,80,115190,1,10,0:0:0:0:
152,263,115333,1,4,0:3:0:0:
309,185,115476,6,0,P|349:195|401:203,1,71.2500027179719,2|4,0:0|0:3,0:0:0:0:
281,377,115762,2,0,P|239:322|260:257,1,142.500005435944,8|4,0:0|0:3,0:0:0:0:
446,142,116190,1,2,0:0:0:0:
230,91,116333,1,8,0:0:0:0:
364,286,116476,5,4,0:0:0:0:
356,128,116618,1,4,0:3:0:0:
206,180,116761,1,4,0:3:0:0:
455,243,116904,5,8,0:0:0:0:
308,64,117047,1,2,0:0:0:0:
455,243,117190,1,8,0:0:0:0:
239,270,117333,1,2,0:0:0:0:
455,243,117476,1,8,0:0:0:0:
147,113,117619,6,0,P|90:123|4:138,1,142.500005435944,4|4,0:0|0:3,0:0:0:0:
238,180,118047,2,0,P|311:192|405:205,1,142.500005435944,8|4,0:0|0:3,0:0:0:0:
141,223,118476,1,4,0:3:0:0:
246,66,118618,1,8,0:0:0:0:
195,304,118762,6,0,B|163:321|163:321|103:319,1,71.2500027179719,4|0,0:0|0:0,0:0:0:0:
245,189,119047,1,4,0:3:0:0:
272,380,119190,5,10,0:0:0:0:
313,266,119333,1,0,0:0:0:0:
198,293,119475,1,2,0:0:0:0:
394,351,119618,1,4,0:3:0:0:
198,293,119761,1,10,0:0:0:0:
390,112,119904,6,0,P|436:162|421:229,1,142.500005435944,4|4,0:0|0:3,0:0:0:0:
157,198,120333,2,0,L|87:183,1,71.2500027179719,10|0,0:0|0:0,0:0:0:0:
282,157,120618,1,4,0:3:0:0:
175,19,120762,2,0,L|186:115,1,71.2500027179719,10|0,0:0|0:0,0:0:0:0:
283,258,121047,1,4,0:3:0:0:
320,55,121190,5,10,0:0:0:0:
159,210,121333,1,0,0:0:0:0:
377,261,121475,1,4,0:3:0:0:
191,90,121618,5,10,0:0:0:0:
220,314,121761,1,0,0:0:0:0:
402,177,121904,1,4,0:3:0:0:
71,214,122048,6,0,L|84:303,1,71.2500027179719,10|0,0:0|0:0,0:0:0:0:
175,234,122333,1,12,0:3:0:0:
56,202,124762,5,4,0:3:0:0:
139,330,124905,2,0,L|123:238,1,71.2500027179719,4|0,0:0|0:0,0:0:0:0:
285,94,125190,1,4,0:3:0:0:
167,183,125333,2,0,L|259:167,1,71.2500027179719,4|0,0:0|0:0,0:0:0:0:
431,185,125619,1,4,0:3:0:0:
186,93,125762,5,8,0:0:0:0:
186,93,126048,2,0,P|246:81|225:12,1,142.5,4|4,0:0|0:3,0:0:0:0:
0,100,126619,1,8,0:0:0:0:
0,100,126905,6,0,L|15:201,1,95,4|0,0:0|0:0,0:0:0:0:
201,181,127333,2,0,L|184:282,1,95,4|0,0:0|0:0,0:0:0:0:
5,311,127762,1,4,0:0:0:0:
5,311,127905,2,0,P|66:272|98:269,1,95,0|4,0:0|0:3,0:0:0:0:
103,183,128333,6,0,L|110:112,1,71.2500027179719,10|0,0:0|0:0,0:0:0:0:
319,87,128619,2,0,L|309:12,1,71.2500027179719,2|4,0:0|0:3,0:0:0:0:
200,157,128905,2,0,L|277:179,1,71.2500027179719,10|0,0:0|0:0,0:0:0:0:
461,148,129190,6,0,L|352:173,1,95,4|2,0:0|0:0,0:0:0:0:
211,260,129619,2,0,L|320:285,1,95,4|2,0:0|0:0,0:0:0:0:
492,231,130047,2,0,L|504:315,2,71.25,4|0|4,0:0|0:0|0:3,0:0:0:0:
368,169,130619,5,10,0:0:0:0:
368,169,130762,1,0,0:0:0:0:
396,355,130905,1,10,0:0:0:0:
396,355,131048,1,0,0:0:0:0:
233,277,131190,2,0,P|270:271|312:263,1,71.2500027179719,2|0,0:0|0:0,0:0:0:0:
466,146,131476,6,0,L|482:30,1,95,4|0,0:0|0:0,0:0:0:0:
294,9,131905,2,0,L|310:125,1,95,4|0,0:0|0:0,0:0:0:0:
108,152,132333,1,4,0:0:0:0:
108,152,132476,2,0,P|163:155|201:185,1,95,0|4,0:0|0:3,0:0:0:0:
364,201,132905,6,0,L|356:271,1,71.2500027179719,10|0,0:0|0:0,0:0:0:0:
292,333,133119,1,0,0:0:0:0:
292,333,133190,1,2,0:0:0:0:
448,237,133333,1,4,0:3:0:0:
295,131,133476,1,10,0:0:0:0:
366,284,133619,1,0,0:0:0:0:
481,140,133762,6,0,L|377:160,1,95,4|0,0:0|0:0,0:0:0:0:
287,332,134190,2,0,L|193:314,1,95,4|0,0:0|0:0,0:0:0:0:
124,331,134547,1,8,0:0:0:0:
124,331,134619,1,12,0:0:0:0:
230,146,134762,2,0,P|253:186|247:232,1,95,0|4,0:0|0:3,0:0:0:0:
42,281,135190,6,0,L|48:193,1,71.2500027179719,10|0,0:0|0:0,0:0:0:0:
173,199,135476,1,10,0:0:0:0:
96,62,135619,2,0,L|105:152,1,71.2500027179719,4|0,0:3|0:0,0:0:0:0:
329,123,135905,1,8,0:0:0:0:
197,64,136047,6,0,L|354:34,1,142.500005435944,4|8,0:0|0:0,0:0:0:0:
366,207,136476,2,0,P|297:210|252:158,1,142.500005435944,4|4,0:0|0:3,0:0:0:0:
445,126,136905,1,12,0:0:0:0:
471,230,137047,2,0,L|479:300,1,71.2500027179719,0|4,0:0|0:3,0:0:0:0:
353,118,137333,1,4,0:3:0:0:
398,298,137476,6,0,L|314:312,1,85.4999973907472,10|0,0:0|0:0,0:0:0:0:
134,241,137762,2,0,L|218:254,1,85.4999973907472,2|4,0:0|0:3,0:0:0:0:
261,65,138047,2,0,L|250:149,1,85.4999973907472,10|0,0:0|0:0,0:0:0:0:
47,193,138333,6,0,P|32:131|22:35,1,142.500005435944,4|8,0:0|0:0,0:0:0:0:
175,170,138762,1,4,0:3:0:0:
22,283,138905,1,0,0:0:0:0:
224,354,139048,1,8,0:0:0:0:
224,354,139119,1,8,0:0:0:0:
224,354,139190,2,0,P|226:309|232:260,1,71.2500027179719,8|0,0:0|0:0,0:0:0:0:
54,183,139476,5,4,0:3:0:0:
133,365,139619,1,4,0:3:0:0:
313,269,139762,1,8,0:0:0:0:
129,246,139905,1,8,0:0:0:0:
129,246,139976,1,8,0:0:0:0:
129,246,140047,1,8,0:0:0:0:
247,106,140190,2,0,P|241:138|236:206,1,85.4999973907472,2|4,0:0|0:3,0:0:0:0:
253,367,140476,1,0,0:0:0:0:
397,194,140619,6,0,P|475:213|477:294,1,142.500005435944,4|8,0:0|0:0,0:0:0:0:
300,274,141047,2,0,L|142:251,1,142.500005435944,4|4,0:0|0:3,0:0:0:0:
335,112,141476,2,0,P|369:105|404:98,1,71.2500027179719,12|0,0:0|0:0,0:0:0:0:
213,36,141762,5,4,0:3:0:0:
288,193,141905,1,0,0:0:0:0:
425,91,142047,1,8,0:0:0:0:
184,134,142190,2,0,L|191:219,1,85.4999973907472,4|0,0:0|0:0,0:0:0:0:
303,100,142476,1,4,0:3:0:0:
71,200,142619,1,12,0:0:0:0:
297,331,142762,1,4,0:3:0:0:
199,148,142905,6,0,B|218:192|218:192|202:245,1,95,4|2,0:0|0:0,0:0:0:0:
87,196,143333,1,4,0:3:0:0:
302,246,143476,1,8,0:0:0:0:
234,38,143619,1,8,0:0:0:0:
234,38,143690,1,8,0:0:0:0:
234,38,143762,1,8,0:0:0:0:
192,240,143905,6,0,B|171:202|171:202|190:154,1,95,4|4,0:0|0:3,0:0:0:0:
397,178,144333,1,10,0:0:0:0:
178,333,144476,1,2,0:0:0:0:
113,71,144619,1,4,0:0:0:0:
484,125,145190,6,0,L|497:232,1,95,4|0,0:0|0:0,0:0:0:0:
246,117,145476,2,0,L|258:23,1,95,12|0,0:0|0:0,0:0:0:0:
437,285,145762,1,4,0:3:0:0:
351,48,145905,1,4,0:3:0:0:
167,222,146048,1,8,0:0:0:0:
391,188,146190,1,2,0:0:0:0:
391,188,146262,1,2,0:0:0:0:
391,188,146333,6,0,L|262:193,1,95,2|4,0:0|0:3,0:0:0:0:
139,124,146619,1,8,0:0:0:0:
417,291,146762,2,0,B|310:244|336:331|226:292,1,190,4|0,0:3|0:0,0:0:0:0:
147,271,147119,1,0,0:0:0:0:
147,271,147190,2,0,L|159:354,1,47.5,8|8,0:0|0:0,0:0:0:0:
275,130,147333,2,0,L|287:47,1,47.5,8|8,0:0|0:0,0:0:0:0:
37,62,147476,5,4,0:0:0:0:
223,208,147619,1,4,0:3:0:0:
131,18,147762,2,0,L|121:137,1,95,8|0,0:0|0:0,0:0:0:0:
49,270,148047,1,4,0:3:0:0:
216,117,148190,1,8,0:0:0:0:
285,334,148333,1,2,0:0:0:0:
285,334,148405,1,2,0:0:0:0:
285,334,148476,6,0,P|211:360|144:263,1,190,6|4,0:0|0:3,0:0:0:0:
275,98,148905,1,12,0:0:0:0:
142,286,149047,1,0,0:0:0:0:
137,53,149190,1,12,0:0:0:0:
276,239,149333,1,0,0:0:0:0:
55,173,149476,1,12,0:0:0:0:
35,384,149619,5,2,0:0:0:0:
35,384,149690,1,2,0:0:0:0:
35,384,149762,2,0,L|140:375,1,95,6|4,0:0|0:3,0:0:0:0:
321,316,150047,1,8,0:0:0:0:
158,179,150190,1,0,0:0:0:0:
235,365,150333,1,4,0:3:0:0:
387,222,150476,1,4,0:3:0:0:
235,365,150619,1,8,0:0:0:0:
277,134,150762,5,2,0:0:0:0:
277,134,150833,1,2,0:0:0:0:
277,134,150905,2,0,L|284:252,1,95,6|4,0:0|0:3,0:0:0:0:
81,276,151190,1,8,0:0:0:0:
321,316,151333,1,0,0:0:0:0:
187,84,151476,1,8,0:0:0:0:
177,310,151619,1,2,0:0:0:0:
177,310,151690,1,2,0:0:0:0:
176,312,151762,2,0,L|239:296,1,47.5,10|2,0:0|0:0,0:0:0:0:
132,172,151905,2,0,L|64:159,1,47.5,2|2,0:0|0:0,0:0:0:0:
104,378,152047,5,4,0:0:0:0:
263,162,152190,1,0,0:0:0:0:
0,101,152333,1,8,0:0:0:0:
258,69,152476,5,4,0:0:0:0:
99,285,152619,1,0,0:0:0:0:
362,346,152762,1,4,0:3:0:0:
99,285,152905,1,8,0:0:0:0:
346,124,153048,6,0,P|373:209|305:268,1,190,4|4,0:0|0:3,0:0:0:0:
76,144,153476,5,10,0:0:0:0:
310,357,153619,1,0,0:0:0:0:
42,230,153762,5,10,0:0:0:0:
274,73,153905,1,4,0:3:0:0:
183,340,154047,5,10,0:0:0:0:
41,53,154190,1,8,0:0:0:0:
41,53,154262,1,8,0:0:0:0:
41,53,154333,6,0,L|166:40,1,95,4|0,0:0|0:0,0:0:0:0:
378,211,154619,2,0,L|284:202,1,95,12|0,0:0|0:0,0:0:0:0:
76,144,154905,1,4,0:3:0:0:
259,96,155047,1,4,0:3:0:0:
262,288,155190,1,8,0:0:0:0:
168,178,155333,1,2,0:0:0:0:
168,178,155405,1,2,0:0:0:0:
168,178,155476,5,6,0:0:0:0:
360,98,155619,1,4,0:3:0:0:
170,12,155762,1,8,0:0:0:0:
292,195,155905,5,2,0:0:0:0:
302,3,156048,1,8,0:0:0:0:
131,107,156190,1,2,0:0:0:0:
131,107,156262,1,2,0:0:0:0:
131,107,156333,2,0,L|143:177,1,47.5,10|0,0:0|0:0,0:0:0:0:
14,256,156476,6,0,B|79:236|79:236|135:264|135:264|218:246,1,190,6|4,0:0|0:3,0:0:0:0:
400,274,156905,1,8,0:0:0:0:
221,132,157047,1,0,0:0:0:0:
400,274,157190,1,4,0:3:0:0:
186,346,157333,1,8,0:0:0:0:
488,371,157476,5,2,0:0:0:0:
488,371,157547,1,2,0:0:0:0:
488,371,157619,2,0,L|481:261,1,95,4|0,0:0|0:0,0:0:0:0:
308,206,157905,1,4,0:3:0:0:
512,115,158047,5,12,0:0:0:0:
331,338,158190,1,0,0:0:0:0:
512,201,158333,5,12,0:0:0:0:
260,49,158476,1,0,0:0:0:0:
435,156,158619,5,12,0:0:0:0:
143,242,158762,1,2,0:0:0:0:
143,242,158833,1,2,0:0:0:0:
143,242,158905,6,0,L|124:120,1,95,6|4,0:0|0:3,0:0:0:0:
172,0,159190,1,8,0:0:0:0:
39,88,159333,1,0,0:0:0:0:
200,114,159476,1,4,0:3:0:0:
39,88,159619,1,4,0:3:0:0:
260,49,159762,1,8,0:0:0:0:
245,246,159905,1,2,0:0:0:0:
245,246,159976,1,2,0:0:0:0:
245,246,160048,6,0,L|231:354,1,95,4|0,0:0|0:0,0:0:0:0:
417,166,160333,2,0,L|404:71,1,95,4|0,0:0|0:0,0:0:0:0:
239,89,160619,1,12,0:0:0:0:
377,249,160762,1,4,0:3:0:0:
512,91,160905,1,10,0:0:0:0:
512,91,160976,1,10,0:0:0:0:
512,91,161047,5,4,0:0:0:0:
269,201,161190,1,0,0:0:0:0:
433,177,161333,1,4,0:3:0:0:
370,339,161476,2,0,L|270:327,1,95,8|0,0:0|0:0,0:0:0:0:
115,317,161762,1,4,0:3:0:0:
269,201,161905,5,8,0:0:0:0:
192,384,162047,1,0,0:0:0:0:
67,183,162190,5,8,0:0:0:0:
285,205,162333,2,0,L|276:103,1,95,0|4,0:0|0:3,0:0:0:0:
73,22,162619,5,8,0:0:0:0:
190,206,162762,1,0,0:0:0:0:
353,54,162905,5,8,0:0:0:0:
84,171,163048,1,4,0:3:0:0:
374,244,163190,5,2,0:0:0:0:
374,244,163262,1,2,0:0:0:0:
374,244,163333,2,0,L|475:229,1,95,6|0,0:0|0:0,0:0:0:0:
285,148,163619,1,4,0:3:0:0:
322,380,163762,5,8,0:0:0:0:
484,244,163905,1,4,0:3:0:0:
239,234,164047,5,8,0:0:0:0:
486,328,164190,1,4,0:3:0:0:
219,383,164333,5,8,0:0:0:0:
370,138,164476,2,0,L|377:246,1,95,4|8,0:0|0:0,0:0:0:0:
338,366,164762,1,0,0:0:0:0:
464,156,164905,5,8,0:0:0:0:
204,146,165047,1,4,0:3:0:0:
440,67,165190,5,8,0:0:0:0:
256,263,165333,1,4,0:3:0:0:
176,10,165476,5,8,0:0:0:0:
455,59,165619,1,8,0:0:0:0:
116,128,165762,5,4,0:0:0:0:
334,189,165905,1,8,0:0:0:0:
156,324,166048,2,0,L|46:306,1,95
223,220,166333,1,8,0:0:0:0:
256,246,166404,1,8,0:0:0:0:
278,282,166475,1,8,0:0:0:0:
284,324,166547,1,8,0:0:0:0:
275,366,166618,1,8,0:0:0:0:
62,308,166762,6,0,L|155:292,1,95,4|0,0:0|0:0,0:0:0:0:
382,337,167048,1,4,0:3:0:0:
139,195,167190,1,8,0:0:0:0:
373,82,167333,1,2,0:0:0:0:
373,82,167405,1,2,0:0:0:0:
373,82,167476,2,0,L|364:140,1,47.5,2|2,0:0|0:0,0:0:0:0:
237,268,167619,2,0,L|225:193,1,47.5,8|8,0:0|0:0,0:0:0:0:
429,210,167762,1,8,0:0:0:0:
429,210,167833,1,8,0:0:0:0:
429,210,167905,6,0,B|387:233|387:233|313:224,1,95,4|0,0:0|0:0,0:0:0:0:
189,81,168190,1,4,0:3:0:0:
307,320,168333,5,8,0:0:0:0:
280,48,168476,1,4,0:3:0:0:
87,179,168619,5,8,0:0:0:0:
365,128,168762,1,4,0:3:0:0:
99,0,168905,5,8,0:0:0:0:
248,244,169047,2,0,L|255:149,1,95,4|8,0:0|0:0,0:0:0:0:
40,87,169333,1,4,0:3:0:0:
348,212,169476,5,8,0:0:0:0:
97,332,169619,1,4,0:3:0:0:
150,106,169762,5,8,0:0:0:0:
303,325,169905,1,4,0:3:0:0:
36,253,170048,5,8,0:0:0:0:
288,114,170190,1,10,0:0:0:0:
288,114,170262,1,10,0:0:0:0:
288,114,170333,1,6,0:0:0:0:
45,243,170476,1,12,0:0:0:0:
318,332,170619,6,0,L|303:228,1,95,2|2,0:0|0:0,0:0:0:0:
225,204,170833,1,2,0:0:0:0:
225,204,170905,2,0,P|175:216|119:219,1,95,12|0,0:0|0:0,0:0:0:0:
244,15,171190,1,8,0:0:0:0:
244,15,171262,1,8,0:0:0:0:
244,15,171333,6,0,B|365:-18|323:50|439:27,1,190,4|4,0:0|0:3,0:0:0:0:
176,98,171762,2,0,P|135:93|70:72,1,95,8|0,0:0|0:0,0:0:0:0:
244,15,172048,1,0,0:0:0:0:
190,216,172190,1,8,0:0:0:0:
0,121,172333,1,4,0:3:0:0:
263,145,172476,6,0,P|303:140|369:119,1,95,4|0,0:0|0:0,0:0:0:0:
178,85,172762,1,4,0:3:0:0:
271,277,172905,5,8,0:0:0:0:
456,172,173048,1,4,0:3:0:0:
190,216,173190,5,8,0:0:0:0:
451,300,173333,1,4,0:3:0:0:
202,351,173476,5,8,0:0:0:0:
355,125,173619,2,0,L|362:233,1,95,4|8,0:0|0:0,0:0:0:0:
378,382,173905,1,4,0:3:0:0:
247,188,174048,5,8,0:0:0:0:
488,118,174190,1,4,0:3:0:0:
238,70,174333,5,8,0:0:0:0:
497,248,174476,1,4,0:3:0:0:
405,7,174619,5,8,0:0:0:0:
304,320,174762,1,8,0:0:0:0:
405,7,174905,5,4,0:0:0:0:
214,190,175048,1,8,0:0:0:0:
435,191,175191,2,0,L|325:198,1,95,4|0,0:3|0:0,0:0:0:0:
131,116,175476,1,8,0:0:0:0:
131,116,175548,1,8,0:0:0:0:
131,116,175619,1,8,0:0:0:0:
262,276,175762,1,4,0:3:0:0:
37,327,175905,6,0,L|21:197,1,95,4|0,0:0|0:0,0:0:0:0:
215,47,176191,1,4,0:3:0:0:
160,254,176333,1,8,0:0:0:0:
0,126,176476,2,0,L|73:122,1,47.5,2|2,0:0|0:0,0:0:0:0:
160,254,176619,2,0,L|207:256,1,47.5,2|2,0:0|0:0,0:0:0:0:
129,0,176762,1,8,0:0:0:0:
130,42,176833,1,8,0:0:0:0:
130,84,176904,1,8,0:0:0:0:
132,127,176976,1,8,0:0:0:0:
132,170,177048,6,0,B|245:155,1,95,4|0,0:0|0:0,0:0:0:0:
396,135,177333,1,4,0:3:0:0:
296,52,177476,5,10,0:0:0:0:
309,139,177619,1,0,0:0:0:0:
203,41,177762,5,10,0:0:0:0:
216,128,177905,1,0,0:0:0:0:
114,30,178048,5,10,0:0:0:0:
127,117,178191,1,0,0:0:0:0:
37,85,178333,5,10,0:0:0:0:
138,204,178476,1,0,0:0:0:0:
37,85,178619,5,10,0:0:0:0:
196,50,178762,1,0,0:0:0:0:
50,172,178905,5,10,0:0:0:0:
219,170,179048,1,0,0:0:0:0:
133,312,179190,5,10,0:0:0:0:
138,216,179333,1,10,0:0:0:0:
138,216,179405,1,10,0:0:0:0:
452,57,183905,5,2,0:0:0:0:
452,57,183976,1,2,0:0:0:0:
452,57,184048,1,2,1:2:0:0:
434,149,184333,1,0,0:0:0:0:
342,131,184619,1,0,1:3:0:0:
360,39,184904,1,0,0:0:0:0:
258,292,185190,5,2,1:2:0:0:
187,230,185475,1,0,0:0:0:0:
248,159,185761,1,0,1:0:0:0:
319,221,186048,1,0,0:0:0:0:
35,81,186333,5,2,1:2:0:0:
124,50,186618,1,0,0:0:0:0:
155,138,186905,2,0,L|142:192,2,47.5,0|2|0,1:0|0:0|0:0,0:0:0:0:
55,258,187333,5,6,0:0:0:0:
55,258,187405,1,2,0:0:0:0:
55,258,187476,1,2,1:2:0:0:
73,350,187761,1,0,0:0:0:0:
165,332,188047,1,0,1:0:0:0:
147,240,188332,1,0,0:0:0:0:
361,201,188619,5,2,1:2:0:0:
272,171,188904,1,0,0:0:0:0:
241,259,189190,1,0,1:0:0:0:
330,289,189475,1,0,0:0:0:0:
179,143,189762,5,2,1:2:0:0:
249,80,190047,1,0,0:0:0:0:
188,10,190333,1,0,1:0:0:0:
118,72,190618,1,0,0:0:0:0:
359,83,190905,5,2,1:2:0:0:
63,214,191476,1,2,1:2:0:0:
357,341,192048,1,2,1:2:0:0:
270,252,192333,6,0,L|275:310,1,47.5,2|0,0:0|0:0,0:0:0:0:
366,197,192619,2,0,L|361:255,1,47.5,2|0,1:2|0:0,0:0:0:0:
268,115,192905,2,0,L|273:173,1,47.5,2|0,0:0|0:0,0:0:0:0:
425,80,202190,5,2,0:0:0:0:
425,80,202262,1,2,0:0:0:0:
425,80,202333,1,2,1:2:0:0:
141,95,202905,1,0,1:0:0:0:
405,268,203476,6,0,L|398:191,1,71.2500027179719,8|0,1:2|0:0,0:0:0:0:
241,80,203762,1,8,0:0:0:0:
484,159,203905,1,2,0:0:0:0:
484,159,204476,5,2,0:0:0:0:
238,234,204619,1,12,0:0:0:0:
484,159,204762,1,8,0:0:0:0:
320,13,204905,6,0,L|333:119,1,95,4|0,0:0|0:0,0:0:0:0:
374,318,205190,1,4,0:3:0:0:
149,214,205333,1,8,0:0:0:0:
421,221,205476,1,2,0:0:0:0:
421,221,205548,1,2,0:0:0:0:
421,221,205619,6,0,B|297:181|355:266|216:229,1,190,4|4,0:0|0:3,0:0:0:0:
29,83,206048,1,12,0:0:0:0:
199,343,206190,1,4,0:3:0:0:
115,17,206333,1,12,0:0:0:0:
89,334,206476,1,4,0:3:0:0:
218,52,206619,1,12,0:0:0:0:
26,233,206762,5,2,0:0:0:0:
26,233,206833,1,2,0:0:0:0:
26,233,206905,2,0,L|129:216,1,95,6|4,0:0|0:3,0:0:0:0:
318,179,207190,1,8,0:0:0:0:
151,132,207333,1,0,0:0:0:0:
318,179,207476,1,4,0:3:0:0:
181,280,207619,1,4,0:3:0:0:
256,114,207762,1,8,0:0:0:0:
377,268,207905,5,2,0:0:0:0:
377,268,207976,1,2,0:0:0:0:
377,268,208048,2,0,L|362:367,1,95,6|4,0:0|0:3,0:0:0:0:
231,203,208333,1,8,0:0:0:0:
462,323,208476,1,0,0:0:0:0:
222,364,208619,1,8,0:0:0:0:
420,177,208762,1,2,0:0:0:0:
420,177,208833,1,2,0:0:0:0:
421,175,208905,2,0,L|411:100,1,47.5,10|2,0:0|0:0,0:0:0:0:
188,58,209048,2,0,L|178:133,1,47.5,2|2,0:0|0:0,0:0:0:0:
382,42,209190,5,4,0:0:0:0:
131,190,209333,1,4,0:3:0:0:
400,289,209476,1,8,0:0:0:0:
208,56,209619,5,4,0:0:0:0:
231,361,209762,1,4,0:3:0:0:
512,271,209905,1,4,0:3:0:0:
231,361,210048,1,8,0:0:0:0:
382,42,210190,6,0,P|452:122|395:212,1,190,4|4,0:0|0:3,0:0:0:0:
147,177,210619,5,10,0:0:0:0:
364,131,210762,1,4,0:3:0:0:
72,57,210905,5,10,0:0:0:0:
350,240,211048,1,4,0:3:0:0:
51,356,211190,5,10,0:0:0:0:
27,319,211262,1,10,0:0:0:0:
40,278,211333,1,10,0:0:0:0:
77,257,211405,1,10,0:0:0:0:
119,255,211476,6,0,L|244:268,1,95,4|0,0:0|0:0,0:0:0:0:
333,26,211762,2,0,L|208:39,1,95,12|0,0:0|0:0,0:0:0:0:
69,165,212048,1,4,0:3:0:0:
323,150,212190,1,4,0:3:0:0:
131,3,212333,1,8,0:0:0:0:
211,232,212476,1,2,0:0:0:0:
211,232,212548,1,2,0:0:0:0:
211,232,212619,5,6,0:0:0:0:
335,46,212762,1,4,0:3:0:0:
445,249,212905,1,8,0:0:0:0:
214,108,213048,1,2,0:0:0:0:
445,249,213191,5,8,0:0:0:0:
199,332,213333,1,2,0:0:0:0:
492,162,213476,5,10,0:0:0:0:
492,162,213548,1,2,0:0:0:0:
492,162,213619,2,0,B|418:150|418:150|375:174|375:174|296:161,1,190,6|4,0:0|0:3,0:0:0:0:
109,95,214048,1,8,0:0:0:0:
263,268,214190,1,0,0:0:0:0:
334,53,214333,1,4,0:3:0:0:
129,213,214476,1,8,0:0:0:0:
382,278,214619,5,2,0:0:0:0:
382,278,214690,1,2,0:0:0:0:
382,278,214762,2,0,L|371:388,1,95,4|0,0:0|0:0,0:0:0:0:
322,165,215048,1,4,0:3:0:0:
475,349,215190,5,12,0:0:0:0:
170,283,215333,1,4,0:3:0:0:
479,175,215476,5,12,0:0:0:0:
255,367,215619,1,4,0:3:0:0:
337,65,215762,5,12,0:0:0:0:
428,273,215905,1,2,0:0:0:0:
428,273,215976,1,2,0:0:0:0:
428,273,216048,6,0,L|328:279,1,95,6|4,0:0|0:3,0:0:0:0:
164,193,216333,1,8,0:0:0:0:
268,358,216476,1,0,0:0:0:0:
345,188,216619,1,4,0:3:0:0:
268,358,216762,1,4,0:3:0:0:
257,107,216905,1,8,0:0:0:0:
103,282,217048,1,2,0:0:0:0:
103,282,217119,1,2,0:0:0:0:
103,282,217190,6,0,L|216:273,1,95,4|4,0:0|0:3,0:0:0:0:
317,18,217476,2,0,L|204:9,1,95,12|0,0:0|0:0,0:0:0:0:
47,192,217762,1,0,0:0:0:0:
273,111,217905,1,4,0:3:0:0:
284,342,218048,1,10,0:0:0:0:
284,342,218119,1,10,0:0:0:0:
284,342,218190,6,0,L|281:223,1,95,4|0,0:0|0:0,0:0:0:0:
373,115,218476,1,4,0:3:0:0:
179,277,218619,1,8,0:0:0:0:
395,367,218762,5,4,0:0:0:0:
231,129,218905,1,0,0:0:0:0:
69,335,219048,5,4,0:0:0:0:
231,129,219190,1,8,0:0:0:0:
12,248,219333,6,0,L|140:227,1,95,4|0,0:0|0:0,0:0:0:0:
280,211,219619,1,4,0:3:0:0:
28,149,219762,5,8,0:0:0:0:
276,337,219905,1,4,0:3:0:0:
283,57,220048,5,8,0:0:0:0:
81,325,220190,1,4,0:3:0:0:
409,376,220333,2,0,L|411:308,1,47.5,10|0,0:0|0:0,0:0:0:0:
185,184,220476,2,0,L|187:252,1,47.5,2|0,0:0|0:0,0:0:0:0:
446,216,220619,5,4,0:0:0:0:
192,319,220762,1,4,0:3:0:0:
363,99,220905,2,0,L|373:221,1,95,8|0,0:0|0:0,0:0:0:0:
277,369,221190,1,4,0:3:0:0:
503,276,221333,1,4,0:3:0:0:
272,179,221476,1,8,0:0:0:0:
272,179,221548,1,8,0:0:0:0:
272,179,221619,5,4,0:0:0:0:
387,333,221762,1,4,0:3:0:0:
176,369,221905,1,4,0:3:0:0:
316,271,222048,2,0,B|271:281|271:281|223:266,1,95,12|0,0:0|0:0,0:0:0:0:
148,78,222333,1,12,0:0:0:0:
370,187,222476,1,4,0:3:0:0:
126,290,222619,1,8,0:0:0:0:
300,65,222762,6,0,L|416:54,1,95,4|0,0:0|0:0,0:0:0:0:
240,177,223048,1,4,0:3:0:0:
498,57,223190,1,8,0:0:0:0:
214,0,223333,1,4,0:3:0:0:
381,200,223476,1,0,0:0:0:0:
71,246,223619,5,8,0:0:0:0:
381,200,223762,1,4,0:3:0:0:
112,41,223905,6,0,L|125:164,1,95,12|0,0:0|0:0,0:0:0:0:
148,355,224190,1,4,0:3:0:0:
290,84,224333,5,12,0:0:0:0:
0,157,224476,1,4,0:3:0:0:
293,254,224619,5,12,0:0:0:0:
0,0,224762,1,4,0:3:0:0:
53,358,224905,5,2,0:0:0:0:
53,358,224977,1,2,0:0:0:0:
53,358,225048,2,0,L|153:354,1,95,6|0,0:0|0:0,0:0:0:0:
404,347,225334,1,4,0:3:0:0:
202,118,225477,5,8,0:0:0:0:
298,372,225620,1,4,0:3:0:0:
398,162,225762,5,8,0:0:0:0:
147,354,225905,1,4,0:3:0:0:
105,100,226048,5,8,0:0:0:0:
495,184,226190,1,4,0:0:0:0:
105,100,226333,1,8,0:0:0:0:
437,2,226477,1,4,0:3:0:0:
301,255,226620,5,8,0:0:0:0:
10,147,226762,1,4,0:3:0:0:
365,117,226905,5,8,0:0:0:0:
45,227,227048,1,4,0:3:0:0:
308,42,227191,5,8,0:0:0:0:
424,366,227334,1,8,0:0:0:0:
424,366,227405,1,8,0:0:0:0:
424,366,227476,1,4,0:0:0:0:
230,196,227619,1,8,0:0:0:0:
457,141,227762,2,0,L|446:246,1,95,12|0,0:0|0:0,0:0:0:0:
385,286,227976,1,0,0:0:0:0:
385,286,228048,2,0,P|346:271|272:269,1,95,12|0,0:0|0:0,0:0:0:0:
114,325,228334,1,8,0:0:0:0:
316,81,228477,6,0,L|322:176,1,95,4|0,0:0|0:0,0:0:0:0:
14,327,228762,1,4,0:0:0:0:
316,365,228905,2,0,L|200:357,1,95,4|8,0:0|0:0,0:0:0:0:
191,286,229120,1,8,0:0:0:0:
191,286,229191,1,8,0:0:0:0:
405,366,229334,1,0,0:0:0:0:
134,353,229476,1,8,0:0:0:0:
385,286,229619,6,0,L|479:279,1,95,4|0,0:0|0:0,0:0:0:0:
279,206,229905,1,4,0:3:0:0:
499,370,230048,5,8,0:0:0:0:
508,113,230191,1,4,0:3:0:0:
282,339,230334,5,8,0:0:0:0:
427,97,230477,1,4,0:3:0:0:
119,199,230620,5,8,0:0:0:0:
482,35,230762,1,4,0:0:0:0:
115,0,230905,1,8,0:0:0:0:
482,35,231048,1,4,0:3:0:0:
162,91,231191,5,8,0:0:0:0:
460,205,231334,1,4,0:3:0:0:
240,0,231477,5,8,0:0:0:0:
215,284,231620,1,4,0:3:0:0:
388,69,231762,1,8,0:0:0:0:
44,139,231905,5,10,0:0:0:0:
44,139,231977,1,10,0:0:0:0:
44,139,232048,1,6,0:0:0:0:
361,176,232191,1,8,0:0:0:0:
125,80,232334,2,0,B|147:122|147:122|139:180,1,95,12|0,0:0|0:0,0:0:0:0:
107,253,232548,1,0,0:0:0:0:
107,253,232620,2,0,P|63:241|6:232,1,95,12|0,0:0|0:0,0:0:0:0:
236,88,232905,1,8,0:0:0:0:
200,384,233048,6,0,L|188:286,1,95,4|0,0:0|0:0,0:0:0:0:
356,79,233334,1,4,0:0:0:0:
103,339,233476,1,12,0:0:0:0:
454,368,233619,1,8,0:0:0:0:
454,368,233690,1,8,0:0:0:0:
454,368,233762,2,2,L|444:321,1,47.5,10|2,0:0|0:0,0:0:0:0:
308,181,233905,2,2,L|298:227,1,47.5
512,267,234048,1,8,0:0:0:0:
260,307,234190,6,0,P|176:273|173:177,1,190,4|4,0:0|0:3,0:0:0:0:
327,72,234619,2,0,L|438:59,1,95,8|0,0:0|0:0,0:0:0:0:
195,59,234905,1,4,0:3:0:0:
300,205,235048,1,4,0:3:0:0:
195,59,235190,1,8,0:0:0:0:
429,158,235333,6,0,L|433:287,1,95,4|0,0:0|0:0,0:0:0:0:
214,351,235619,1,4,0:0:0:0:
512,201,235762,5,8,0:0:0:0:
183,139,235905,1,4,0:3:0:0:
493,352,236048,5,8,0:0:0:0:
106,369,236190,1,4,0:3:0:0:
430,265,236333,1,2,0:0:0:0:
430,265,236405,1,2,0:0:0:0:
430,265,236476,6,0,L|311:257,1,95,6|0,0:0|0:0,0:0:0:0:
92,252,236762,1,4,0:3:0:0:
395,164,236905,1,12,0:0:0:0:
165,358,237048,1,0,0:0:0:0:
66,76,237190,1,4,0:3:0:0:
396,176,237333,5,12,0:0:0:0:
150,349,237476,1,4,0:3:0:0:
484,125,237619,6,0,B|505:167|505:167|483:248,1,95,4|0,0:0|0:0,0:0:0:0:
361,366,237905,1,4,0:3:0:0:
188,129,238048,5,8,0:0:0:0:
485,309,238190,1,4,0:3:0:0:
129,248,238333,5,8,0:0:0:0:
417,47,238476,1,4,0:3:0:0:
66,2,238619,1,8,0:0:0:0:
417,47,238762,6,0,B|291:23|351:100|204:77,1,190,4|4,0:0|0:3,0:0:0:0:
25,87,239190,2,0,L|41:195,1,95,8|0,0:0|0:0,0:0:0:0:
142,119,239476,1,4,0:3:0:0:
61,281,239619,1,4,0:3:0:0:
142,119,239762,1,8,0:0:0:0:
277,239,239905,6,0,L|174:247,1,95,4|0,0:0|0:0,0:0:0:0:
362,85,240190,1,4,0:0:0:0:
240,339,240333,5,8,0:0:0:0:
197,22,240476,1,4,0:3:0:0:
428,241,240619,5,8,0:0:0:0:
50,161,240762,1,4,0:3:0:0:
441,22,240905,1,2,0:0:0:0:
441,22,240976,1,2,0:0:0:0:
441,22,241048,6,0,B|467:62|467:62|449:128,1,95,6|0,0:0|0:0,0:0:0:0:
277,239,241333,1,4,0:3:0:0:
512,184,241476,5,8,0:0:0:0:
235,69,241619,1,2,0:0:0:0:
235,69,241690,1,2,0:0:0:0:
235,69,241762,1,2,0:0:0:0:
248,334,241905,1,8,0:0:0:0:
353,97,242048,1,0,0:0:0:0:
50,161,242190,6,0,L|174:149,1,95,4|0,0:0|0:0,0:0:0:0:
359,192,242476,1,4,0:3:0:0:
85,58,242619,5,12,0:0:0:0:
148,354,242762,1,4,0:3:0:0:
347,23,242905,5,12,0:0:0:0:
302,342,243048,1,4,0:3:0:0:
24,178,243190,1,2,0:0:0:0:
24,178,243262,1,2,0:0:0:0:
24,178,243333,6,0,B|136:140|103:232|212:192,1,190,6|4,0:0|0:3,0:0:0:0:
394,129,243762,1,8,0:0:0:0:
202,95,243905,1,0,0:0:0:0:
277,259,244048,1,4,0:3:0:0:
304,75,244190,1,4,0:3:0:0:
277,259,244333,1,8,0:0:0:0:
449,212,244476,6,0,B|406:229|406:229|337:214,1,95,4|0,0:0|0:0,0:0:0:0:
206,196,244762,1,4,0:3:0:0:
488,287,244905,5,12,0:0:0:0:
468,4,245048,1,0,0:0:0:0:
200,100,245190,5,12,0:0:0:0:
497,114,245333,2,0,L|397:118,1,95,8|2,0:0|0:0,0:0:0:0:
338,75,245548,1,2,0:0:0:0:
338,75,245619,6,0,P|369:168|301:212,1,190,4|4,0:0|0:3,0:0:0:0:
102,242,246048,1,8,0:0:0:0:
281,290,246190,1,0,0:0:0:0:
102,242,246333,1,4,0:3:0:0:
238,88,246476,2,0,L|250:162,1,47.5,10|2,0:0|0:0,0:0:0:0:
82,74,246619,2,0,L|94:0,1,47.5,2|2,0:0|0:0,0:0:0:0:
340,104,246762,6,0,L|325:215,1,95,4|0,0:0|0:0,0:0:0:0:
185,306,247048,1,4,0:3:0:0:
440,179,247190,5,12,0:0:0:0:
164,52,247333,1,0,0:0:0:0:
399,285,247476,5,12,0:0:0:0:
89,322,247619,1,0,0:0:0:0:
399,285,247762,1,12,0:0:0:0:
88,106,247905,6,0,P|30:182|121:243,1,190,4|4,0:0|0:3,0:0:0:0:
245,364,248333,2,0,L|344:347,1,95,8|0,0:0|0:0,0:0:0:0:
182,258,248619,1,2,0:0:0:0:
182,258,248690,1,2,0:0:0:0:
182,258,248762,2,2,P|156:311|153:327,1,47.5
341,217,248905,2,2,P|315:164|312:148,1,47.5,10|2,0:0|0:0,0:0:0:0:
119,154,249048,6,0,L|232:138,1,95,4|0,0:0|0:0,0:0:0:0:
405,117,249333,1,4,0:3:0:0:
158,58,249476,5,12,0:0:0:0:
288,320,249619,1,0,0:0:0:0:
329,28,249762,5,14,0:0:0:0:
289,39,249833,1,2,0:0:0:0:
259,70,249904,1,2,0:0:0:0:
240,108,249976,1,2,0:0:0:0:
213,140,250047,1,2,0:0:0:0:
172,154,250119,1,2,0:0:0:0:
129,153,250190,6,0,L|34:143,1,95,4|0,0:0|0:0,0:0:0:0:
272,232,250476,1,4,0:3:0:0:
66,58,250619,1,8,0:0:0:0:
19,319,250762,1,0,0:0:0:0:
240,108,250905,1,2,0:0:0:0:
282,104,250976,1,2,0:0:0:0:
323,114,251048,1,10,0:0:0:0:
359,137,251119,1,2,0:0:0:0:
384,171,251190,1,2,0:0:0:0:
397,212,251262,1,2,0:0:0:0:
398,254,251333,6,0,L|388:367,1,95,4|0,0:0|0:0,0:0:0:0:
482,135,251619,1,4,0:3:0:0:
296,366,251762,2,2,L|285:299,1,47.5,10|2,0:0|0:0,0:0:0:0:
491,244,251905,2,2,L|480:311,1,47.5
273,232,252048,1,2,0:0:0:0:
467,382,252190,1,4,0:3:0:0:
177,253,252333,2,2,B|172:234|172:234|180:203,1,47.5,10|2,0:0|0:0,0:0:0:0:
463,47,252476,1,4,0:0:0:0:
