osu file format v14

[General]
AudioFilename: ayfull.mp3
AudioLeadIn: 0
PreviewTime: 73657
Countdown: 0
SampleSet: Soft
StackLeniency: 0.7
Mode: 0
LetterboxInBreaks: 0
WidescreenStoryboard: 1

[Editor]
Bookmarks: 10371,19371,28514,37657,56086,65300,74371,90228,92514,101800,103943,122371,126943,136086,145228,161086,163371,177228,179514,184086,193228,202371,204657,206371,218300,225086,234228,243371,252514
DistanceSpacing: 1
BeatDivisor: 2
GridSize: 32
TimelineZoom: 0.8999989

[Metadata]
Title:Shirayuki
TitleUnicode:白ゆき
Artist:nameless
ArtistUnicode:nameless
Creator:Milan-
Version:Normal
Source:
Tags:utaite n-buna nbuna snow white shira yuki japanese novelty cover
BeatmapID:1177860
BeatmapSetID:493305

[Difficulty]
HPDrainRate:3.5
CircleSize:3
OverallDifficulty:4
ApproachRate:5
SliderMultiplier:0.9
SliderTickRate:1

[Events]
//Background and Video events
0,0,"yuri.jpg",0,0
//Break Periods
2,180619,182848
2,193390,201133
//Storyboard Layer 0 (Background)
//Storyboard Layer 1 (Fail)
//Storyboard Layer 2 (Pass)
//Storyboard Layer 3 (Foreground)
//Storyboard Layer 4 (Overlay)
//Storyboard Sound Samples

[TimingPoints]
48,285.714285714286,4,2,1,65,1,0
37619,-100,4,2,1,50,0,0
56048,-125,4,2,1,50,0,0
59762,-125,4,2,1,50,0,0
60619,-125,4,2,1,50,0,0
64333,-100,4,2,1,50,0,0
65190,-100,4,2,1,60,0,0
68905,-100,4,2,1,60,0,0
69762,-100,4,2,1,60,0,0
72048,-100,4,2,1,60,0,0
74333,-100,4,2,1,75,0,1
77619,-100,4,2,1,75,0,1
77905,-100,4,2,1,75,0,1
86762,-100,4,2,1,75,0,1
87048,-100,4,2,1,75,0,1
92333,-100,4,2,1,75,0,0
92476,-100,4,2,1,75,0,1
101762,-100,4,2,1,50,0,0
102905,-100,4,2,1,50,0,0
103905,-100,4,2,1,50,0,0
124762,-100,4,2,1,50,0,0
126905,-125,4,2,1,50,0,0
130619,-125,4,2,1,50,0,0
131476,-125,4,2,1,50,0,0
135190,-125,4,2,1,50,0,0
136047,-125,4,2,1,60,0,0
136048,-100,4,2,1,60,0,0
139762,-100,4,2,1,60,0,0
140333,-100,4,2,1,60,0,0
142905,-100,4,2,1,60,0,0
145190,-100,4,2,1,80,0,1
145290,-100,4,2,1,80,0,1
148476,-100,4,2,1,80,0,1
148576,-100,4,2,1,80,0,1
149762,-100,4,2,1,80,0,1
157619,-100,4,2,1,80,0,1
157719,-100,4,2,1,80,0,1
159190,-100,4,2,1,80,0,1
163190,-100,4,2,1,80,0,0
163333,-100,4,2,1,80,0,1
177048,-100,4,2,1,60,0,0
177476,-100,4,2,1,60,0,0
183905,-100,4,2,1,50,0,0
184048,-100,4,2,1,50,0,0
190905,-125,4,2,1,50,0,0
202190,-100,4,2,1,50,0,0
202290,-100,4,2,1,50,0,0
203476,-100,4,2,1,60,0,0
203762,-100,4,2,1,60,0,0
204405,-100,4,2,1,70,0,0
204476,-100,4,2,1,70,0,1
204905,-100,4,2,1,75,0,1
205619,-100,4,2,1,75,0,1
205719,-100,4,2,1,75,0,1
214762,-100,4,2,1,75,0,1
214862,-100,4,2,1,75,0,1
219333,-100,4,2,1,75,0,1
219405,-100,4,2,1,75,0,1
224905,-100,4,2,1,75,0,0
225048,-100,4,2,1,75,0,1
234048,-100,4,2,1,75,0,0
234190,-100,4,2,1,70,0,1
243333,-100,4,2,1,65,0,0

[Colours]
Combo1 : 168,196,159
Combo2 : 187,198,208
Combo3 : 226,215,173
Combo4 : 208,187,198

[HitObjects]
426,137,19333,6,0,P|360:151|296:132,1,135,4|8,0:1|0:0,0:0:0:0:
217,89,20048,1,4,0:3:0:0:
130,111,20333,1,8,0:0:0:0:
130,111,20476,2,0,P|100:167|115:263,1,135,4|12,0:0|0:0,0:0:0:0:
175,295,21190,2,0,L|223:282,1,45,14|10,0:0|0:0,0:0:0:0:
303,314,21619,6,0,L|441:283,1,135,4|8,0:0|0:0,0:0:0:0:
497,219,22333,2,0,L|484:166,1,45,4|8,0:3|0:0,0:0:0:0:
482,84,22762,2,0,L|341:116,1,135,4|12,0:0|0:0,0:0:0:0:
275,63,23476,2,0,L|295:15,2,45,14|2|10,0:0|0:0|0:0,0:0:0:0:
230,68,23905,6,0,P|181:48|96:60,1,135,4|10,0:0|0:0,0:0:0:0:
30,113,24619,1,4,0:3:0:0:
41,207,24905,1,8,0:0:0:0:
41,207,25048,2,0,P|116:189|188:222,1,135,4|12,0:0|0:0,0:0:0:0:
240,262,25762,2,0,L|250:323,1,45,14|10,0:0|0:0,0:0:0:0:
321,357,26190,6,0,P|388:333|402:238,2,135,4|8|8,0:0|0:0|0:0,0:0:0:0:
247,306,27333,2,0,L|232:154,1,135,4|12,0:0|0:0,0:0:0:0:
277,92,28048,2,0,L|271:39,1,45,14|10,0:0|0:0,0:0:0:0:
354,11,28476,6,0,L|372:156,1,135,4|8,0:0|0:0,0:0:0:0:
410,226,29190,1,4,0:3:0:0:
505,228,29476,1,8,0:0:0:0:
505,228,29619,2,0,P|507:296|477:360,1,135,4|12,0:0|0:0,0:0:0:0:
388,344,30333,2,0,L|340:357,1,45,14|10,0:0|0:0,0:0:0:0:
261,320,30762,6,0,L|123:351,1,135,4|8,0:0|0:0,0:0:0:0:
49,308,31476,2,0,L|30:248,1,45,4|8,0:3|0:0,0:0:0:0:
110,214,31905,2,0,L|122:55,1,135,4|8,0:0|0:0,0:0:0:0:
202,43,32619,2,0,L|190:-8,2,45,14|2|10,0:0|0:0|0:0,0:0:0:0:
237,70,33048,6,0,P|294:79|384:67,1,135,4|10,0:0|0:0,0:0:0:0:
457,48,33762,1,4,0:3:0:0:
436,138,34048,1,8,0:0:0:0:
436,138,34190,2,0,P|420:201|439:269,1,135,4|12,0:0|0:0,0:0:0:0:
482,345,34905,2,0,L|424:366,1,45,14|10,0:0|0:0,0:0:0:0:
350,348,35333,6,0,P|294:370|207:343,2,135,4|8|8,0:0|0:0|0:0,0:0:0:0:
341,258,36476,2,0,L|317:120,1,135,4|12,0:0|0:0,0:0:0:0:
241,77,37190,1,2,0:0:0:0:
161,115,37476,1,10,0:0:0:0:
161,115,37619,6,0,P|112:108|21:116,1,135,4|8,0:0|0:0,0:0:0:0:
9,202,38333,2,0,L|38:296,1,90,4|8,0:3|0:0,0:0:0:0:
99,351,38905,1,2,0:0:0:0:
186,327,39190,1,10,0:0:0:0:
272,359,39476,2,0,P|323:316|331:270,1,90,2|8,0:0|0:0,0:0:0:0:
375,281,39905,1,4,0:3:0:0:
375,281,40048,2,0,L|464:271,1,90,2|8,0:0|0:0,0:0:0:0:
497,188,40619,2,0,P|491:123|433:67,1,135,4|8,0:3|0:0,0:0:0:0:
312,111,41476,2,0,B|306:158|306:158|335:196,2,90,8|8|8,0:0|0:0|0:0,0:0:0:0:
282,76,42190,6,0,P|238:43|159:49,1,135,4|8,0:0|0:0,0:0:0:0:
83,94,42905,1,4,0:3:0:0:
45,177,43190,1,8,0:0:0:0:
45,177,43333,2,0,L|33:337,1,135,4|8,0:3|0:0,0:0:0:0:
104,371,44048,2,0,L|166:347,1,45,8|4,0:0|0:3,0:0:0:0:
228,318,44476,2,0,P|289:321|360:343,2,135,4|10|10,0:0|0:0|0:0,0:0:0:0:
174,245,45619,2,0,P|132:199|98:133,2,135,12|14|4,0:0|0:0|0:3,0:0:0:0:
263,233,46762,6,0,P|296:175|292:109,1,135,4|8,0:0|0:0,0:0:0:0:
245,30,47476,2,0,L|148:56,1,90,4|8,0:3|0:0,0:0:0:0:
68,42,48048,1,2,0:0:0:0:
35,125,48333,1,10,0:0:0:0:
88,197,48619,1,2,0:0:0:0:
42,274,48905,1,10,0:0:0:0:
42,274,49048,2,0,P|116:281|166:232,1,135,2|8,0:0|0:0,0:0:0:0:
217,172,49762,2,0,P|246:206|254:250,1,90,4|8,0:3|0:0,0:0:0:0:
266,293,50190,2,0,P|344:276|385:205,1,135,6|8,0:0|0:0,0:0:0:0:
400,148,50905,1,8,0:0:0:0:
351,72,51190,1,8,0:0:0:0:
351,72,51333,6,0,L|208:53,1,135,4|8,0:0|0:0,0:0:0:0:
132,23,52048,2,0,P|108:45|75:111,1,90,4|8,0:3|0:0,0:0:0:0:
45,123,52476,2,0,L|61:270,1,135,4|8,0:0|0:0,0:0:0:0:
125,318,53190,2,0,P|201:357|263:351,2,135,2|4|8,0:0|0:0|0:0,0:0:0:0:
234,238,54476,1,8,0:0:0:0:
106,192,54905,1,8,0:0:0:0:
120,57,55333,1,8,0:0:0:0:
247,101,55762,1,8,0:0:0:0:
337,99,56048,6,0,P|424:142|390:235,1,216,4|4,0:0|0:0,0:0:0:0:
225,302,57476,2,0,L|63:287,1,144,10|10,0:0|0:0,0:0:0:0:
38,209,58333,2,0,P|103:190|104:57,1,216,4|4,0:0|0:0,0:0:0:0:
285,29,59762,2,0,P|264:58|255:124,2,72,10|10|2,0:0|0:0|0:0,0:0:0:0:
346,93,60619,6,0,P|386:183|480:152,1,216,4|4,0:0|0:0,0:0:0:0:
437,327,62048,2,0,P|372:333|292:287,1,144,10|10,0:0|0:0,0:0:0:0:
242,231,62905,6,0,P|168:202|60:296,1,216,4|12,0:0|0:0,0:0:0:0:
72,95,64333,1,10,0:0:0:0:
162,98,64619,1,10,0:0:0:0:
335,51,65190,6,0,P|346:89|334:148,1,90,4|8,0:0|0:0,0:0:0:0:
299,161,65619,2,0,P|265:217|279:281,1,135,4|12,0:0|0:0,0:0:0:0:
359,323,66333,1,4,0:3:0:0:
446,302,66619,2,0,P|470:339|469:400,2,90,10|2|10,0:0|0:0|0:0,0:0:0:0:
437,212,67476,6,0,L|444:90,1,90,4|8,0:0|0:0,0:0:0:0:
368,69,68048,2,0,L|273:59,1,90,0|8,0:0|0:0,0:0:0:0:
188,52,68619,1,4,0:3:0:0:
117,107,68905,1,8,0:0:0:0:
150,190,69190,2,0,L|148:243,1,45,8|2,0:0|0:0,0:0:0:0:
278,265,69762,6,0,L|276:354,1,90,4|8,0:0|0:0,0:0:0:0:
320,359,70190,2,0,P|357:319|437:315,1,135,4|12,0:0|0:0,0:0:0:0:
479,235,70905,2,0,P|505:180|470:88,2,135,4|4|12,0:3|0:0|0:0,0:0:0:0:
419,167,72048,5,4,0:0:0:0:
272,61,72619,2,0,L|283:178,1,90,8|8,0:0|0:0,0:0:0:0:
254,187,73048,2,0,P|221:218|123:189,1,135,4|10,0:0|0:0,0:0:0:0:
71,145,73762,1,4,0:0:0:0:
15,316,74333,6,0,P|56:333|100:329,1,90,4|12,0:1|0:0,0:0:0:0:
160,261,74905,2,0,P|119:244|75:248,1,90,4|8,0:3|0:0,0:0:0:0:
0,204,75476,1,4,0:3:0:0:
44,125,75762,1,8,0:0:0:0:
51,80,75905,2,0,P|102:26|177:15,1,135,4|10,0:3|0:0,0:0:0:0:
247,32,76619,5,4,0:0:0:0:
307,98,76905,2,0,P|320:163|294:224,1,135,8|8,0:0|0:0,0:0:0:0:
217,271,77619,2,0,L|68:244,1,135,6|14,0:0|0:0,0:0:0:0:
0,227,78333,1,14,0:0:0:0:
12,137,78619,1,14,0:0:0:0:
84,83,78905,6,0,P|77:38|51:2,2,90,6|8|4,0:0|0:0|0:3,0:0:0:0:
137,155,79762,1,8,0:0:0:0:
220,121,80048,2,0,L|317:115,1,90,6|8,0:0|0:0,0:0:0:0:
364,187,80619,2,0,L|328:278,1,90,8|10,0:0|0:0,0:0:0:0:
264,331,81190,6,0,P|210:286|120:302,2,135,4|4|8,0:0|0:0|0:0,0:0:0:0:
300,357,82190,2,0,P|366:356|415:312,1,135,4|10,0:0|0:0,0:0:0:0:
469,239,82905,1,10,0:0:0:0:
479,149,83190,1,10,0:0:0:0:
435,69,83476,6,0,P|399:46|333:57,1,90,4|12,0:0|0:0,0:0:0:0:
309,127,84048,2,0,P|273:150|207:139,1,90,4|8,0:3|0:0,0:0:0:0:
138,131,84619,1,6,0:0:0:0:
131,41,84905,1,8,0:0:0:0:
40,58,85190,2,0,L|48:147,1,90,4|10,0:3|0:0,0:0:0:0:
46,192,85619,6,0,P|10:235|5:331,2,135,6|8|8,0:0|0:0|0:0,0:0:0:0:
126,232,86762,2,0,L|273:232,1,135,4|12,0:0|0:0,0:0:0:0:
340,275,87476,1,12,0:0:0:0:
413,220,87762,1,12,0:0:0:0:
473,286,88048,6,0,P|506:235|491:173,1,90,6|8,0:0|0:0,0:0:0:0:
458,130,88619,2,0,L|357:137,1,90,4|8,0:3|0:0,0:0:0:0:
324,149,89048,1,2,0:0:0:0:
283,168,89190,2,0,L|156:156,1,90,4|12,0:0|0:0,0:0:0:0:
138,87,89762,1,12,0:0:0:0:
49,103,90048,1,10,0:0:0:0:
22,138,90190,6,0,P|3:208|42:272,2,135,4|8|8,0:0|0:0|0:0,0:0:0:0:
92,194,91333,2,0,P|119:254|99:317,1,135,8|8,0:0|0:0,0:0:0:0:
182,353,92048,2,0,L|242:342,1,45,8|4,0:0|0:3,0:0:0:0:
289,280,92476,6,0,L|423:291,1,135,6|10,0:0|0:0,0:0:0:0:
472,215,93190,1,10,0:0:0:0:
413,143,93476,2,0,P|394:117|389:37,1,90,10|8,0:0|0:0,0:0:0:0:
305,15,94048,1,10,0:0:0:0:
215,23,94333,1,10,0:0:0:0:
129,46,94619,1,10,0:0:0:0:
129,46,94762,6,0,B|122:51|128:78|128:78|110:114|110:114|123:137|126:204,1,135,6|12,0:0|0:0,0:0:0:0:
99,263,95476,2,0,P|136:286|163:328,1,90,12|4,0:0|0:3,0:0:0:0:
166,369,95905,2,0,P|233:370|281:293,1,135,4|8,0:0|0:0,0:0:0:0:
352,275,96619,1,8,0:0:0:0:
374,190,96905,1,8,0:0:0:0:
374,190,97048,6,0,P|373:125|334:59,1,135,4|10,0:0|0:0,0:0:0:0:
264,15,97762,1,10,0:0:0:0:
209,85,98048,2,0,L|110:71,1,90,10|8,0:0|0:0,0:0:0:0:
46,20,98619,2,0,P|19:46|-1:122,1,90,10|10,0:0|0:0,0:0:0:0:
33,183,99190,1,10,0:0:0:0:
33,183,99333,6,0,B|52:182|70:178|70:178|107:210|183:184,1,135,6|12,0:0|0:0,0:0:0:0:
252,179,100048,1,12,0:0:0:0:
316,251,100333,1,8,0:0:0:0:
316,251,100476,2,0,P|383:252|444:202,1,135,4|12,0:0|0:0,0:0:0:0:
473,131,101190,2,0,P|472:82|428:30,2,90,2|8|4,0:0|0:0|0:3,0:0:0:0:
107,200,103905,6,0,P|126:263|104:326,1,135,4|8,0:0|0:0,0:0:0:0:
191,349,104619,2,0,L|280:338,1,90,4|8,0:3|0:0,0:0:0:0:
316,256,105190,2,0,L|227:246,1,90,2|10,0:0|0:0,0:0:0:0:
163,181,105762,1,4,0:3:0:0:
110,114,106048,2,0,L|64:122,1,45,8|4,0:3|0:3,0:3:0:0:
22,133,106333,2,0,L|16:242,1,90,2|10,0:0|0:0,0:0:0:0:
41,311,106905,2,0,P|94:346|181:328,1,135,4|8,0:3|0:0,0:0:0:0:
285,283,107762,2,0,B|285:247|285:247|259:196,2,90,8|8|8,0:0|0:0|0:0,0:0:0:0:
297,326,108476,6,0,P|345:346|427:325,1,135,4|8,0:0|0:0,0:0:0:0:
488,264,109190,1,4,0:3:0:0:
471,175,109476,1,8,0:0:0:0:
471,175,109619,2,0,L|439:28,1,135,4|8,0:3|0:0,0:0:0:0:
352,31,110333,2,0,L|290:55,1,45,8|4,0:0|0:3,0:0:0:0:
229,93,110762,2,0,P|168:90|97:68,2,135,4|10|10,0:0|0:0|0:0,0:0:0:0:
277,170,111905,2,0,P|338:167|409:145,2,135,12|14|0,0:0|0:0|0:0,0:0:0:0:
188,178,113048,6,0,P|170:242|192:305,1,135,4|8,0:0|0:0,0:0:0:0:
267,354,113762,2,0,L|364:328,1,90,4|8,0:3|0:0,0:0:0:0:
444,342,114333,1,2,0:0:0:0:
490,264,114619,1,10,0:0:0:0:
502,174,114905,1,2,0:0:0:0:
451,99,115190,1,10,0:0:0:0:
368,61,115476,2,0,L|364:5,2,45,2|4|8,0:0|0:3|0:0,0:0:0:0:
324,140,116048,2,0,P|268:142|229:115,1,90,4|8,0:3|0:0,0:0:0:0:
221,85,116476,2,0,P|143:102|102:173,1,135,4|8,0:0|0:0,0:0:0:0:
105,232,117190,1,8,0:0:0:0:
161,312,117476,1,8,0:0:0:0:
161,312,117619,6,0,L|304:331,1,135,4|8,0:0|0:0,0:0:0:0:
382,348,118333,2,0,L|504:317,1,90,4|8,0:3|0:0,0:0:0:0:
486,284,118762,2,0,L|459:128,1,135,4|10,0:0|0:0,0:0:0:0:
384,106,119476,2,0,P|465:79|504:31,2,135,2|4|10,0:0|0:0|0:0,0:0:0:0:
258,157,120762,1,10,0:0:0:0:
197,277,121190,1,10,0:0:0:0:
282,381,121619,1,10,0:0:0:0:
414,355,122048,1,10,0:0:0:0:
404,265,122333,5,12,0:3:0:0:
378,109,124762,5,4,0:3:0:0:
378,109,124905,2,0,L|516:94,2,135,4|4|8,0:0|0:0|0:0,0:0:0:0:
378,199,126048,2,0,L|194:177,1,180,4|8,0:0|0:0,0:0:0:0:
162,260,126905,6,0,P|66:241|75:142,1,216,4|4,0:0|0:0,0:0:0:0:
253,118,128333,2,0,L|415:133,1,144,10|10,0:0|0:0,0:0:0:0:
474,175,129190,2,0,P|409:194|408:327,1,216,4|4,0:0|0:0,0:0:0:0:
227,355,130619,2,0,P|248:326|257:260,2,72,10|10|2,0:0|0:0|0:0,0:0:0:0:
166,291,131476,6,0,P|126:201|32:232,1,216,4|4,0:0|0:0,0:0:0:0:
75,57,132905,2,0,P|140:51|220:97,1,144,10|10,0:0|0:0,0:0:0:0:
270,153,133762,6,0,P|344:182|452:88,1,216,4|12,0:0|0:0,0:0:0:0:
440,289,135190,1,10,0:0:0:0:
350,286,135476,1,10,0:0:0:0:
177,333,136048,6,0,P|166:295|178:236,1,90,4|8,0:0|0:0,0:0:0:0:
206,215,136476,2,0,P|224:152|194:93,1,135,4|12,0:0|0:0,0:0:0:0:
106,72,137190,1,4,0:3:0:0:
16,85,137476,2,0,P|-3:45|13:-28,2,90,10|2|10,0:0|0:0|0:0,0:0:0:0:
73,154,138333,6,0,L|73:260,1,90,4|8,0:0|0:0,0:0:0:0:
69,334,138905,1,0,0:0:0:0:
157,350,139190,1,8,0:0:0:0:
246,360,139476,2,0,P|287:327|298:271,1,90,4|8,0:3|0:0,0:0:0:0:
357,224,140048,2,0,L|359:171,1,45,8|2,0:0|0:0,0:0:0:0:
234,119,140619,6,0,L|236:30,1,90,4|8,0:0|0:0,0:0:0:0:
192,25,141048,2,0,P|155:65|75:69,1,135,4|12,0:0|0:0,0:0:0:0:
33,149,141762,2,0,P|7:204|42:296,2,135,4|4|12,0:3|0:0|0:0,0:0:0:0:
93,217,142905,5,4,0:0:0:0:
265,266,143476,2,0,L|254:149,1,90,8|8,0:0|0:0,0:0:0:0:
283,140,143905,2,0,P|316:109|414:138,1,135,4|10,0:0|0:0,0:0:0:0:
466,182,144619,1,4,0:0:0:0:
345,315,145190,6,0,P|313:346|271:360,1,90,4|12,0:0|0:0,0:0:0:0:
189,322,145762,2,0,P|172:281|176:237,1,90,4|8,0:3|0:0,0:0:0:0:
238,171,146333,1,2,0:0:0:0:
188,96,146619,1,8,0:0:0:0:
155,65,146762,2,0,P|83:86|45:156,1,135,4|8,0:3|0:0,0:0:0:0:
74,220,147476,5,4,0:0:0:0:
76,310,147762,2,0,P|142:344|218:328,1,135,8|8,0:0|0:0,0:0:0:0:
288,355,148476,2,0,L|462:373,1,135,6|12,0:0|0:0,0:0:0:0:
503,329,149190,1,12,0:0:0:0:
437,266,149476,1,12,0:0:0:0:
479,186,149762,6,0,P|507:145|510:96,2,90,6|8|4,0:0|0:0|0:3,0:0:0:0:
389,178,150619,1,8,0:0:0:0:
339,253,150905,2,0,L|242:259,1,90,6|8,0:0|0:0,0:0:0:0:
168,217,151476,2,0,L|204:126,1,90,8|10,0:0|0:0,0:0:0:0:
248,53,152048,6,0,P|302:98|392:82,2,135,4|4|8,0:0|0:0|0:0,0:0:0:0:
212,27,153048,2,0,P|146:28|97:72,1,135,4|10,0:0|0:0,0:0:0:0:
43,145,153762,1,10,0:0:0:0:
67,231,154048,1,10,0:0:0:0:
90,320,154333,6,0,P|126:343|192:332,1,90,4|12,0:0|0:0,0:0:0:0:
203,257,154905,2,0,P|239:234|305:245,1,90,4|8,0:3|0:0,0:0:0:0:
374,253,155476,1,6,0:0:0:0:
382,342,155762,1,8,0:0:0:0:
472,326,156048,2,0,L|464:237,1,90,8|10,0:0|0:0,0:0:0:0:
466,192,156476,6,0,P|502:149|507:53,2,135,6|8|8,0:0|0:0|0:0,0:0:0:0:
386,152,157619,2,0,L|239:152,1,135,4|12,0:0|0:0,0:0:0:0:
172,109,158333,1,12,0:0:0:0:
99,164,158619,1,12,0:0:0:0:
39,98,158905,6,0,P|6:149|21:211,1,90,6|8,0:0|0:0,0:0:0:0:
54,254,159476,2,0,L|155:247,1,90,4|8,0:3|0:0,0:0:0:0:
178,218,159905,1,2,0:0:0:0:
219,200,160048,2,0,L|346:213,1,90,4|4,0:0|0:0,0:0:0:0:
371,273,160619,1,12,0:0:0:0:
462,282,160905,1,10,0:0:0:0:
490,246,161048,6,0,P|509:176|470:112,2,135,4|8|8,0:0|0:0|0:0,0:0:0:0:
420,190,162190,2,0,P|392:129|412:66,1,135,8|8,0:0|0:0,0:0:0:0:
330,31,162905,2,0,L|270:42,1,45,8|4,0:0|0:3,0:0:0:0:
223,104,163333,6,0,L|89:93,1,135,6|8,0:0|0:0,0:0:0:0:
20,152,164048,2,0,P|40:205|41:244,1,90,8|8,0:0|0:0,0:0:0:0:
125,271,164619,2,0,P|128:226|146:185,1,90,8|8,0:0|0:0,0:0:0:0:
219,238,165190,1,8,0:0:0:0:
309,236,165476,1,8,0:0:0:0:
346,209,165619,6,0,P|394:240|394:317,1,135,8|0,0:0|0:0,0:0:0:0:
316,353,166333,2,0,L|217:357,1,90,8|8,0:0|0:0,0:0:0:0:
189,382,166762,2,0,P|141:351|141:274,1,135,4|8,0:0|0:0,0:0:0:0:
150,189,167476,6,0,P|92:200|34:126,2,135,2|4|8,0:0|0:0|0:0,0:0:0:0:
219,131,168619,1,8,0:0:0:0:
216,40,168905,1,8,0:0:0:0:
308,33,169190,2,0,L|308:123,1,90,8|8,0:0|0:0,0:0:0:0:
333,209,169762,1,8,0:0:0:0:
421,225,170048,1,8,0:0:0:0:
421,225,170190,6,0,P|463:271|450:367,1,135,10|2,0:0|0:0,0:0:0:0:
376,362,170905,2,0,L|257:337,1,90,12|8,0:0|0:0,0:0:0:0:
243,351,171333,2,0,P|157:363|107:302,2,135,4|8|8,0:0|0:0|0:0,0:0:0:0:
248,260,172476,6,0,P|190:227|127:245,1,135,4|8,0:0|0:0,0:0:0:0:
43,206,173190,2,0,P|39:161|21:120,1,90,8|8,0:0|0:0,0:0:0:0:
109,102,173762,2,0,P|112:57|130:16,1,90,8|8,0:0|0:0,0:0:0:0:
216,40,174333,1,8,0:0:0:0:
306,36,174619,1,8,0:0:0:0:
306,36,174762,6,0,P|368:61|391:126,1,135,8|4,0:0|0:3,0:0:0:0:
316,171,175476,2,0,P|282:200|278:262,1,90,8|4,0:0|0:3,0:0:0:0:
291,285,175905,2,0,L|156:293,1,135,4|8,0:0|0:0,0:0:0:0:
90,354,176619,2,0,B|61:298|61:298|98:212,1,135,2|4,0:0|0:0,0:0:0:0:
118,197,177190,1,10,0:0:0:0:
178,129,177476,6,0,P|174:84|149:39,2,90,10|10|10,0:0|0:0|0:0,0:0:0:0:
224,205,178333,2,0,P|220:250|195:295,2,90,10|10|10,0:0|0:0|0:0,0:0:0:0:
268,126,179190,2,0,P|291:107|356:107,1,90,10|2,0:0|0:0,0:0:0:0:
403,131,184048,5,2,1:2:0:0:
109,253,185190,5,2,1:2:0:0:
375,284,186333,5,2,1:2:0:0:
137,100,187476,5,2,1:2:0:0:
235,320,188619,5,2,1:2:0:0:
277,64,189762,5,2,1:2:0:0:
115,258,190905,6,0,P|159:187|228:183,1,144,2|2,1:2|1:2,0:0:0:0:
391,137,192048,2,0,P|323:120|292:57,2,144,2|2|0,1:2|1:2|0:0,0:0:0:0:
388,36,202333,5,2,1:2:0:0:
193,151,203476,2,0,L|308:140,1,90,8|8,1:2|0:0,0:0:0:0:
141,267,204619,5,12,0:0:0:0:
90,192,204905,2,0,P|61:225|74:330,1,135,4|8,0:0|0:0,0:0:0:0:
136,362,205619,2,0,L|308:330,1,135,4|12,0:0|0:0,0:0:0:0:
313,258,206333,1,12,0:0:0:0:
397,288,206619,1,12,0:0:0:0:
480,253,206905,6,0,P|508:212|511:163,2,90,6|8|4,0:0|0:0|0:3,0:0:0:0:
422,183,207762,1,8,0:0:0:0:
343,139,208048,2,0,P|337:97|352:44,1,90,6|8,0:0|0:0,0:0:0:0:
266,12,208619,1,8,0:0:0:0:
181,43,208905,1,10,0:0:0:0:
195,130,209190,6,0,P|141:85|51:101,2,135,4|4|8,0:0|0:0|0:0,0:0:0:0:
228,160,210190,2,0,P|182:207|178:273,1,135,4|10,0:0|0:0,0:0:0:0:
223,351,210905,1,10,0:0:0:0:
309,325,211190,1,10,0:0:0:0:
399,344,211476,6,0,P|447:311|461:273,1,90,4|12,0:0|0:0,0:0:0:0:
497,201,212048,2,0,P|475:162|436:140,1,90,4|8,0:3|0:0,0:0:0:0:
348,121,212619,1,6,0:0:0:0:
299,196,212905,1,10,0:0:0:0:
210,190,213190,2,0,L|120:178,1,90,8|10,0:0|0:0,0:0:0:0:
77,164,213619,6,0,P|29:204|36:303,2,135,6|8|8,0:0|0:0|0:0,0:0:0:0:
121,85,214762,2,0,L|274:59,1,135,4|12,0:0|0:0,0:0:0:0:
342,45,215476,1,12,0:0:0:0:
317,131,215762,1,12,0:0:0:0:
379,192,216048,6,0,L|478:171,1,90,6|8,0:0|0:0,0:0:0:0:
494,259,216619,2,0,L|405:277,1,90,4|8,0:3|0:0,0:0:0:0:
367,301,217048,1,2,0:0:0:0:
326,320,217190,2,0,P|281:318|241:299,1,90,4|12,0:0|0:0,0:0:0:0:
158,261,217762,1,2,0:0:0:0:
153,170,218048,1,10,0:0:0:0:
181,136,218190,6,0,P|118:158|53:143,1,135,4|8,0:0|0:0,0:0:0:0:
29,104,218762,2,0,L|43:10,1,90,4|4,0:0|0:0,0:0:0:0:
132,18,219333,2,0,P|194:-4|259:10,1,135,4|8,0:0|0:0,0:0:0:0:
333,63,220048,1,2,0:0:0:0:
343,152,220333,1,10,0:0:0:0:
424,196,220619,6,0,P|471:215|356:290,1,270,4|8,0:0|0:0,0:0:0:0:
345,288,221619,2,0,P|258:258|206:297,1,135,4|12,0:0|0:0,0:0:0:0:
149,325,222333,1,12,0:0:0:0:
59,311,222619,1,8,0:0:0:0:
46,267,222762,2,0,L|61:106,2,135,4|8|8,0:0|0:0|0:0,0:0:0:0:
134,250,223905,2,0,L|146:115,1,135,12|12,0:0|0:0,0:0:0:0:
183,33,224619,2,0,P|205:26|237:24,1,45,12|4,0:0|0:3,0:0:0:0:
301,74,225048,6,0,P|369:97|435:85,1,135,6|8,0:0|0:0,0:0:0:0:
498,145,225762,1,8,0:0:0:0:
416,183,226048,2,0,P|404:213|420:291,1,90,8|8,0:0|0:0,0:0:0:0:
424,358,226619,1,8,0:0:0:0:
334,366,226905,1,8,0:0:0:0:
255,333,227190,1,8,0:0:0:0:
255,333,227333,6,0,B|260:288|261:257|261:257|244:239|230:197,1,135,12|12,0:0|0:0,0:0:0:0:
164,146,228048,2,0,P|109:156|78:179,1,90,12|8,0:0|0:0,0:0:0:0:
40,158,228476,2,0,P|74:231|45:301,1,135,4|4,0:0|0:0,0:0:0:0:
108,356,229190,1,8,0:0:0:0:
192,324,229476,1,8,0:0:0:0:
192,324,229619,6,0,P|230:266|319:261,1,135,4|8,0:0|0:0,0:0:0:0:
380,260,230333,1,8,0:0:0:0:
469,248,230619,2,0,L|477:140,1,90,8|8,0:0|0:0,0:0:0:0:
421,86,231190,2,0,P|402:59|344:29,1,90,8|8,0:0|0:0,0:0:0:0:
267,42,231762,1,8,0:0:0:0:
267,42,231905,6,0,B|240:45|240:45|193:88|138:60,1,135,12|12,0:0|0:0,0:0:0:0:
51,46,232619,2,0,P|21:77|5:124,1,90,12|8,0:0|0:0,0:0:0:0:
35,156,233048,2,0,P|96:189|110:265,1,135,4|12,0:0|0:0,0:0:0:0:
92,337,233762,1,10,0:0:0:0:
182,364,234048,1,8,0:0:0:0:
182,364,234190,6,0,L|316:375,1,135,4|8,0:0|0:0,0:0:0:0:
404,353,234905,2,0,P|446:321|463:264,1,90,4|8,0:3|0:0,0:0:0:0:
435,250,235333,2,0,P|445:198|404:100,1,135,4|8,0:0|0:0,0:0:0:0:
366,49,236048,1,8,0:0:0:0:
252,125,236476,6,0,B|214:96|214:96|176:123|90:107,2,135,6|12|12,0:0|0:0|0:0,0:0:0:0:
324,177,237619,2,0,P|280:227|275:294,1,135,4|8,0:0|0:0,0:0:0:0:
206,352,238333,1,8,0:0:0:0:
120,356,238619,1,8,0:0:0:0:
120,356,238762,6,0,P|76:306|71:239,1,135,4|8,0:0|0:0,0:0:0:0:
66,150,239476,2,0,L|167:141,1,90,4|8,0:3|0:0,0:0:0:0:
196,162,239905,2,0,P|284:183|327:145,1,135,4|8,0:0|0:0,0:0:0:0:
362,83,240619,1,8,0:0:0:0:
412,208,241048,6,0,B|441:246|441:246|414:284|430:370,2,135,6|8|8,0:0|0:0|0:0,0:0:0:0:
334,253,242190,2,0,P|238:283|190:237,1,135,4|12,0:0|0:0,0:0:0:0:
141,217,242905,2,0,L|145:172,1,45,12|4,0:0|0:3,0:0:0:0:
160,83,243333,6,0,P|226:69|290:88,1,135,6|8,0:0|0:0,0:0:0:0:
378,105,244048,1,4,0:3:0:0:
401,191,244333,1,8,0:0:0:0:
401,191,244476,2,0,L|391:351,1,135,4|12,0:0|0:0,0:0:0:0:
307,355,245190,2,0,L|234:329,1,45,12|8,0:0|0:0,0:0:0:0:
187,291,245619,6,0,L|96:316,1,90,4|4,0:0|0:3,0:0:0:0:
57,299,246048,2,0,L|29:197,1,90,8|4,0:0|0:3,0:0:0:0:
18,169,246476,1,8,0:0:0:0:
67,94,246762,2,0,L|222:103,1,135,4|12,0:0|0:0,0:0:0:0:
288,76,247476,1,12,0:0:0:0:
375,55,247762,1,12,0:0:0:0:
375,55,247905,6,0,P|402:106|393:189,1,135,4|8,0:0|0:0,0:0:0:0:
372,268,248619,1,2,0:0:0:0:
286,274,248905,1,10,0:0:0:0:
286,274,249048,2,0,P|229:307|153:304,1,135,4|12,0:0|0:0,0:0:0:0:
84,260,249762,2,0,L|76:194,1,45,14|2,0:0|0:0,0:0:0:0:
128,140,250190,6,0,P|46:145|8:74,2,135,4|8|10,0:0|0:0|0:0,0:0:0:0:
193,78,251333,2,0,P|257:65|306:108,1,135,4|10,0:0|0:0,0:0:0:0:
358,181,252048,1,2,0:0:0:0:
447,170,252333,2,0,L|467:117,1,45,10|4,0:0|0:0,0:0:0:0:
