osu file format v14

[General]
AudioFilename: ayfull.mp3
AudioLeadIn: 0
PreviewTime: 73657
Countdown: 0
SampleSet: Soft
StackLeniency: 0.5
Mode: 0
LetterboxInBreaks: 0
WidescreenStoryboard: 1

[Editor]
Bookmarks: 10371,19371,28514,37657,56086,65300,74371,90228,92514,101800,103943,122371,126943,136086,145228,161086,163371,177228,179514,184086,193228,202371,204657,206371,218300,225086,243371,252514
DistanceSpacing: 1.5
BeatDivisor: 4
GridSize: 32
TimelineZoom: 2.899999

[Metadata]
Title:Shirayuki
TitleUnicode:白ゆき
Artist:nameless
ArtistUnicode:nameless
Creator:Milan-
Version:Insane
Source:
Tags:utaite n-buna nbuna snow white shira yuki japanese novelty cover
BeatmapID:1139239
BeatmapSetID:493305

[Difficulty]
HPDrainRate:6
CircleSize:4
OverallDifficulty:8
ApproachRate:9
SliderMultiplier:1.6
SliderTickRate:1

[Events]
//Background and Video events
0,0,"yuri.jpg",0,0
//Break Periods
2,122533,124162
2,180619,183305
2,193247,201590
//Storyboard Layer 0 (Background)
//Storyboard Layer 1 (Fail)
//Storyboard Layer 2 (Pass)
//Storyboard Layer 3 (Foreground)
//Storyboard Layer 4 (Overlay)
//Storyboard Sound Samples

[TimingPoints]
48,285.714285714286,4,2,1,65,1,0
37619,-125,4,2,1,50,0,0
56048,-166.666666666667,4,2,1,50,0,0
59762,-125,4,2,1,50,0,0
60619,-166.666666666667,4,2,1,50,0,0
64333,-125,4,2,1,50,0,0
65190,-125,4,2,1,60,0,0
68905,-111.111111111111,4,2,1,60,0,0
69762,-125,4,2,1,60,0,0
72048,-166.666666666667,4,2,1,60,0,0
74333,-83.3333333333333,4,2,1,75,0,1
74619,-100,4,2,1,75,0,1
77619,-90.9090909090909,4,2,1,75,0,1
77905,-100,4,2,1,75,0,1
78048,-111.111111111111,4,2,1,75,0,1
78333,-125,4,2,1,75,0,1
78619,-142.857142857143,4,2,1,75,0,1
78905,-100,4,2,1,75,0,1
81190,-90.9090909090909,4,2,1,75,0,1
81619,-100,4,2,1,75,0,1
82190,-111.111111111111,4,2,1,75,0,1
82619,-100,4,2,1,75,0,1
83476,-83.3333333333333,4,2,1,75,0,1
83762,-100,4,2,1,75,0,1
86762,-90.9090909090909,4,2,1,75,0,1
87048,-100,4,2,1,75,0,1
87190,-111.111111111111,4,2,1,75,0,1
87476,-125,4,2,1,75,0,1
87762,-142.857142857143,4,2,1,75,0,1
88048,-100,4,2,1,75,0,1
92333,-100,4,2,1,75,0,0
92476,-100,4,2,1,75,0,1
101762,-100,4,2,1,50,0,0
102905,-125,4,2,1,50,0,0
103905,-125,4,2,1,50,0,0
124762,-166.666666666667,4,2,1,50,0,0
130619,-125,4,2,1,50,0,0
131476,-166.666666666667,4,2,1,50,0,0
135190,-125,4,2,1,50,0,0
136047,-125,4,2,1,60,0,0
136048,-125,4,2,1,60,0,0
139762,-111.111111111111,4,2,1,60,0,0
140333,-125,4,2,1,60,0,0
142905,-166.666666666667,4,2,1,60,0,0
145190,-83.3333333333333,4,2,1,80,0,1
145290,-100,4,2,1,80,0,1
148476,-90.9090909090909,4,2,1,80,0,1
148576,-100,4,2,1,80,0,1
148905,-111.111111111111,4,2,1,80,0,1
149190,-125,4,2,1,80,0,1
149476,-142.857142857143,4,2,1,80,0,1
149762,-100,4,2,1,80,0,1
152048,-90.9090909090909,4,2,1,80,0,1
152476,-100,4,2,1,80,0,1
153048,-111.111111111111,4,2,1,80,0,1
153476,-100,4,2,1,80,0,1
154333,-83.3333333333333,4,2,1,80,0,1
154433,-100,4,2,1,80,0,1
157619,-90.9090909090909,4,2,1,80,0,1
157719,-100,4,2,1,80,0,1
158048,-111.111111111111,4,2,1,80,0,1
158333,-125,4,2,1,80,0,1
158619,-142.857142857143,4,2,1,80,0,1
159190,-100,4,2,1,80,0,1
163190,-100,4,2,1,80,0,0
163333,-100,4,2,1,80,0,1
177048,-111.111111111111,4,2,1,60,0,0
177476,-125,4,2,1,60,0,0
183905,-125,4,2,1,50,0,0
184048,-200,4,2,1,50,0,0
202190,-125,4,2,1,50,0,0
202290,-200,4,2,1,50,0,0
203476,-142.857142857143,4,2,1,60,0,0
203762,-125,4,2,1,60,0,0
204405,-125,4,2,1,70,0,0
204619,-100,4,2,1,70,0,1
204905,-100,4,2,1,75,0,1
205619,-90.9090909090909,4,2,1,75,0,1
205719,-100,4,2,1,75,0,1
206048,-111.111111111111,4,2,1,75,0,1
206333,-125,4,2,1,75,0,1
206619,-142.857142857143,4,2,1,75,0,1
207190,-100,4,2,1,75,0,1
209190,-90.9090909090909,4,2,1,75,0,1
209619,-100,4,2,1,75,0,1
210190,-111.111111111111,4,2,1,75,0,1
210619,-100,4,2,1,75,0,1
211476,-83.3333333333333,4,2,1,75,0,1
211576,-100,4,2,1,75,0,1
214762,-90.9090909090909,4,2,1,75,0,1
214862,-100,4,2,1,75,0,1
215190,-111.111111111111,4,2,1,75,0,1
215476,-125,4,2,1,75,0,1
215762,-142.857142857143,4,2,1,75,0,1
216333,-100,4,2,1,75,0,1
219333,-90.9090909090909,4,2,1,75,0,1
219762,-111.111111111111,4,2,1,75,0,1
219976,-125,4,2,1,75,0,1
220262,-142.857142857143,4,2,1,75,0,1
220905,-100,4,2,1,75,0,1
224905,-100,4,2,1,75,0,0
225048,-100,4,2,1,75,0,1
234048,-100,4,2,1,75,0,0
234190,-100,4,2,1,70,0,1
243333,-100,4,2,1,65,0,0

[Colours]
Combo1 : 168,196,159
Combo2 : 187,198,208
Combo3 : 226,215,173
Combo4 : 208,187,198

[HitObjects]
354,68,19333,6,0,P|401:131|388:208,1,160,4|4,0:1|0:3,0:0:0:0:
287,314,19762,2,0,L|367:302,1,80,8|0,0:0|0:0,0:0:0:0:
263,195,20048,1,4,0:3:0:0:
205,271,20190,2,0,L|125:258,1,80,4|8,0:3|0:0,0:0:0:0:
0,168,20476,6,0,P|77:170|132:115,1,160,4|4,0:0|0:3,0:0:0:0:
271,5,20905,2,0,P|227:42|228:101,1,120,12|0,0:0|0:0,0:0:0:0:
248,86,21190,1,14,0:0:0:0:
88,26,21333,1,10,0:0:0:0:
88,26,21619,6,0,P|120:96|93:169,1,160,4|4,0:0|0:3,0:0:0:0:
17,295,22048,2,0,P|5:262|8:216,1,80,8|0,0:0|0:0,0:0:0:0:
190,217,22333,1,4,0:3:0:0:
148,303,22476,2,0,P|116:281|99:246,1,80,8|0,0:0|0:0,0:0:0:0:
245,296,22762,6,0,P|315:264|385:299,1,160,4|4,0:0|0:3,0:0:0:0:
190,217,23190,1,12,0:0:0:0:
190,217,23476,1,14,0:0:0:0:
316,357,23619,1,0,0:0:0:0:
315,156,23762,1,10,0:0:0:0:
245,296,23905,6,0,P|174:327|104:292,1,160,4|4,0:0|0:3,0:0:0:0:
25,171,24333,2,0,L|17:251,1,80,10|0,0:0|0:0,0:0:0:0:
190,138,24619,1,4,0:3:0:0:
115,198,24762,2,0,L|106:118,1,80,4|8,0:3|0:0,0:0:0:0:
284,17,25048,6,0,P|213:49|146:11,1,160,4|4,0:0|0:3,0:0:0:0:
0,97,25476,2,0,P|57:85|106:117,1,120,12|0,0:0|0:0,0:0:0:0:
84,125,25761,1,14,0:0:0:0:
272,131,25904,1,10,0:0:0:0:
272,131,26190,6,0,P|202:166|190:253,1,160,4|4,0:0|0:3,0:0:0:0:
321,326,26619,2,0,P|321:267|281:226,1,120,8|0,0:0|0:0,0:0:0:0:
281,250,26905,1,4,0:3:0:0:
427,372,27048,2,0,P|435:333|427:282,1,80,8|2,0:0|0:0,0:0:0:0:
345,147,27333,6,0,P|421:164|491:128,1,160,4|4,0:0|0:3,0:0:0:0:
269,11,27762,2,0,P|261:50|266:90,1,80,12|0,0:0|0:0,0:0:0:0:
347,248,28048,1,14,0:0:0:0:
171,237,28190,1,10,0:0:0:0:
171,237,28476,6,0,P|94:219|24:255,1,160,4|4,0:0|0:3,0:0:0:0:
187,332,28905,2,0,L|271:319,1,80,8|0,0:0|0:0,0:0:0:0:
333,154,29191,1,4,0:3:0:0:
347,248,29333,2,0,L|268:236,1,80,4|8,0:3|0:0,0:0:0:0:
415,48,29619,6,0,P|452:116|424:189,1,160,4|4,0:0|0:3,0:0:0:0:
235,112,30048,2,0,P|293:111|333:154,1,120,12|0,0:0|0:0,0:0:0:0:
310,156,30333,1,14,0:0:0:0:
330,0,30476,1,10,0:0:0:0:
329,0,30762,6,0,P|267:45|191:28,1,160,4|4,0:0|0:3,0:0:0:0:
23,14,31190,2,0,P|62:17|96:39,1,80,8|0,0:0|0:0,0:0:0:0:
152,163,31476,1,4,0:3:0:0:
64,205,31619,2,0,P|53:167|62:129,1,80,8|0,0:0|0:0,0:0:0:0:
143,262,31905,6,0,P|205:216|281:233,1,160,4|4,0:0|0:3,0:0:0:0:
134,357,32333,1,8,0:0:0:0:
134,357,32619,1,14,0:0:0:0:
64,205,32762,1,0,0:0:0:0:
227,302,32905,1,10,0:0:0:0:
20,281,33048,6,0,P|35:203|1:132,1,160,4|4,0:0|0:3,0:0:0:0:
79,14,33476,2,0,L|3:36,1,80,10|0,0:0|0:0,0:0:0:0:
119,134,33762,1,4,0:3:0:0:
238,70,33905,2,0,L|162:48,1,80,4|8,0:3|0:0,0:0:0:0:
149,223,34190,6,0,P|224:184|306:218,1,160,4|4,0:0|0:3,0:0:0:0:
393,369,34619,2,0,P|363:319|377:262,1,120,12|0,0:0|0:0,0:0:0:0:
396,276,34904,1,14,0:0:0:0:
260,371,35047,1,10,0:0:0:0:
260,371,35333,6,0,P|181:383|117:340,1,160,4|4,0:0|0:3,0:0:0:0:
218,191,35762,2,0,P|233:248|205:299,1,120,8|0,0:0|0:0,0:0:0:0:
199,274,36048,1,4,0:3:0:0:
30,260,36190,2,0,P|67:248|107:249,1,80,8|2,0:0|0:0,0:0:0:0:
246,109,36476,6,0,P|192:165|114:166,1,160,4|4,0:0|0:3,0:0:0:0:
69,9,36905,1,12,0:0:0:0:
69,9,37048,1,2,0:0:0:0:
23,174,37190,1,2,0:0:0:0:
23,174,37333,1,4,0:3:0:0:
197,211,37476,1,10,0:0:0:0:
130,279,37619,6,0,P|97:225|113:165,1,128,4|4,0:0|0:3,0:0:0:0:
264,140,38048,2,0,P|297:193|282:254,1,128,8|4,0:0|0:3,0:0:0:0:
197,211,38476,1,4,0:3:0:0:
252,345,38619,2,0,L|379:342,2,128,8|2|10,0:0|0:0|0:0,0:0:0:0:
288,45,39476,2,0,L|351:42,1,64,2|4,0:0|0:3,0:0:0:0:
264,140,39762,1,10,0:0:0:0:
197,70,39905,6,0,P|169:131|186:195,1,128,4|4,0:3|0:3,0:0:0:0:
100,309,40333,2,0,P|112:247|84:191,1,128,10|4,0:0|0:3,0:0:0:0:
206,281,40762,1,10,0:0:0:0:
237,272,40833,1,10,0:0:0:0:
268,263,40905,1,10,0:0:0:0:
443,216,41048,2,0,P|389:182|326:180,1,128,8|4,0:0|0:3,0:0:0:0:
240,13,41476,6,0,B|251:94,1,64,8|2,0:0|0:0,0:0:0:0:
190,200,41762,2,0,B|181:136,1,64,8|2,0:0|0:0,0:0:0:0:
333,95,42048,1,8,0:0:0:0:
221,7,42190,6,0,L|87:18,1,128,4|4,0:0|0:3,0:0:0:0:
5,152,42619,2,0,L|132:141,1,128,8|4,0:0|0:3,0:0:0:0:
213,198,43048,1,4,0:3:0:0:
58,307,43190,1,8,0:0:0:0:
139,356,43333,2,0,P|154:295|127:239,1,128,0|4,0:0|0:3,0:0:0:0:
166,58,43762,6,0,B|197:79|197:79|275:79,1,96,8|0,0:0|0:0,0:0:0:0:
339,69,44048,2,0,L|267:71,1,64,8|4,0:0|0:3,0:0:0:0:
275,70,44476,6,0,P|326:104|338:166,1,128,4|4,0:0|0:3,0:0:0:0:
228,224,44905,2,0,P|259:233|291:236,1,64,10|0,0:0|0:0,0:0:0:0:
411,216,45190,1,4,0:3:0:0:
332,338,45333,6,0,B|372:312|372:312|363:377,1,96,10|0,0:0|0:0,0:0:0:0:
333,360,45619,2,0,B|292:383|292:383|189:368,1,128,12|4,0:0|0:3,0:0:0:0:
329,236,46048,2,0,B|297:258|297:258|240:250,1,96,14|0,0:0|0:0,0:0:0:0:
168,227,46333,2,0,L|232:234,1,64,14|4,0:0|0:3,0:0:0:0:
231,233,46762,6,0,P|253:178|319:148,1,128,4|4,0:0|0:3,0:0:0:0:
469,0,47190,2,0,P|428:47|366:55,1,128,8|4,0:0|0:3,0:0:0:0:
274,25,47618,1,4,0:3:0:0:
119,112,47762,1,8,0:0:0:0:
207,149,47905,2,0,P|212:86|177:35,1,128,2|4,0:0|0:3,0:0:0:0:
67,207,48333,2,0,L|131:209,1,64,10|0,0:0|0:0,0:0:0:0:
247,287,48619,2,0,L|184:289,1,64,2|4,0:0|0:3,0:0:0:0:
300,207,48904,1,10,0:0:0:0:
344,291,49048,6,0,P|387:247|392:184,1,128,2|4,0:0|0:3,0:0:0:0:
251,99,49476,2,0,P|255:161|299:206,1,128,8|4,0:0|0:3,0:0:0:0:
392,184,49905,1,2,0:0:0:0:
249,287,50048,1,8,0:0:0:0:
344,291,50190,2,0,L|421:282,2,64,6|4|4,0:0|0:3|0:3,0:0:0:0:
220,195,50619,6,0,L|283:202,1,64,8|2,0:0|0:0,0:0:0:0:
187,51,50905,2,0,L|187:130,1,64,8|2,0:0|0:0,0:0:0:0:
298,194,51190,1,8,0:0:0:0:
170,279,51333,6,0,P|107:271|59:214,1,128,4|4,0:0|0:3,0:0:0:0:
4,94,51762,2,0,P|67:102|111:147,1,128,8|4,0:0|0:3,0:0:0:0:
206,138,52190,1,4,0:3:0:0:
170,279,52332,1,8,0:0:0:0:
245,339,52476,2,0,P|268:281|248:221,1,128,4|4,0:0|0:3,0:0:0:0:
238,84,52905,2,0,P|216:108|206:138,1,64,8|0,0:0|0:0,0:0:0:0:
371,159,53190,2,0,P|341:147|310:146,1,64,2|4,0:0|0:3,0:0:0:0:
384,254,53476,1,10,0:0:0:0:
252,339,53619,6,0,P|228:280|248:220,1,128,4|4,0:0|0:3,0:0:0:0:
452,340,54048,6,0,L|355:356,1,96,8|0,0:0|0:0,0:0:0:0:
373,345,54333,1,4,0:3:0:0:
153,205,54476,2,0,L|250:221,1,96,8|0,0:0|0:0,0:0:0:0:
232,210,54761,1,4,0:3:0:0:
377,68,54905,6,0,P|398:110|395:157,1,96,8|0,0:0|0:0,0:0:0:0:
379,149,55190,1,4,0:3:0:0:
180,92,55333,2,0,P|176:44|198:2,1,96,8|0,0:0|0:0,0:0:0:0:
204,19,55618,1,4,0:3:0:0:
263,230,55762,6,0,L|166:246,1,96,8|0,0:0|0:0,0:0:0:0:
92,273,56048,6,0,P|161:268|210:318,2,143.999995605469,4|4|4,0:0|0:0|0:0,0:0:0:0:
92,273,57333,1,4,0:3:0:0:
24,106,57476,2,0,P|16:153|29:199,1,95.9999970703126,10|2,0:0|0:0,0:0:0:0:
92,273,57905,1,4,0:3:0:0:
201,130,58048,2,0,L|125:137,1,71.9999978027344,10|0,0:0|0:0,0:0:0:0:
129,140,58333,6,0,P|195:83|184:20,2,143.999995605469,4|4|4,0:0|0:0|0:0,0:0:0:0:
129,140,59619,1,4,0:3:0:0:
328,155,59762,6,0,B|278:164|278:164|242:190,1,96,10|0,0:0|0:0,0:0:0:0:
224,183,60048,2,0,B|211:232|211:232|219:275,1,96,10|0,0:0|0:0,0:0:0:0:
301,319,60333,2,0,P|262:321|205:273,1,96,2|0,0:0|0:0,0:0:0:0:
139,275,60619,6,0,P|69:283|19:235,2,143.999995605469,4|4|4,0:0|0:0|0:0,0:0:0:0:
139,275,61905,1,4,0:3:0:0:
195,116,62048,2,0,P|183:159|196:220,1,95.9999970703126,10|2,0:0|0:0,0:0:0:0:
271,164,62477,1,4,0:3:0:0:
305,281,62619,2,0,P|341:281|369:302,1,71.9999978027344,10|0,0:0|0:0,0:0:0:0:
370,302,62905,6,0,P|365:233|418:188,1,143.999995605469,4|4,0:0|0:0,0:0:0:0:
507,106,63476,2,0,P|486:99|438:96,1,47.9999985351563,0|2,0:0|0:0,0:0:0:0:
444,99,63690,1,8,0:0:0:0:
428,106,63762,2,0,P|396:108|339:83,1,95.9999970703126,12|0,0:0|0:0,0:0:0:0:
258,46,64191,1,4,0:3:0:0:
142,141,64333,6,0,B|193:131|193:131|140:98,1,96,10|0,0:0|0:0,0:0:0:0:
133,126,64619,2,0,L|95:115,1,32,10|0,0:0|0:0,0:0:0:0:
34,58,64762,2,0,P|56:137|33:182,1,128,4|8,0:3|0:0,0:0:0:0:
121,347,65190,6,0,P|97:289|117:230,1,128,4|8,0:0|0:0,0:0:0:0:
194,288,65619,2,0,P|254:304|311:277,1,128,4|4,0:0|0:3,0:0:0:0:
252,140,66048,2,0,L|248:204,1,64,12|0,0:0|0:0,0:0:0:0:
345,117,66333,2,0,L|340:53,1,64,4|4,0:3|0:3,0:0:0:0:
131,24,66619,2,0,P|184:55|244:37,1,128,10|2,0:0|0:0,0:0:0:0:
340,53,67048,1,0,0:0:0:0:
487,105,67190,2,0,P|457:93|426:94,1,64,10|0,0:0|0:0,0:0:0:0:
358,261,67476,6,0,P|377:202|346:149,1,128,4|8,0:0|0:0,0:0:0:0:
243,142,67905,2,0,L|91:146,1,128,4|8,0:3|0:0,0:0:0:0:
58,191,68262,1,8,0:0:0:0:
58,191,68333,2,0,L|67:271,1,64,8|0,0:0|0:0,0:0:0:0:
216,252,68619,1,4,0:3:0:0:
141,312,68762,1,4,0:3:0:0:
319,334,68905,6,0,B|266:318|266:318|324:292,1,107.999996704102,8|8,0:0|0:0,0:0:0:0:
336,314,69190,2,0,L|384:307,1,35.9999989013672,8|0,0:0|0:0,0:0:0:0:
394,229,69333,2,0,P|395:196|406:156,1,71.9999978027344,2|0,0:0|0:0,0:0:0:0:
404,158,69762,6,0,P|342:155|294:115,1,128,4|8,0:0|0:0,0:0:0:0:
211,66,70190,2,0,P|148:68|100:108,1,128,4|0,0:0|0:0,0:0:0:0:
51,245,70619,2,0,L|39:183,1,64,12|0,0:0|0:0,0:0:0:0:
163,220,70905,6,0,L|138:377,1,128,4|8,0:3|0:0,0:0:0:0:
274,257,71333,2,0,L|253:130,1,128,4|4,0:0|0:3,0:0:0:0:
372,29,71762,1,12,0:0:0:0:
205,50,71905,1,4,0:3:0:0:
346,131,72048,6,0,P|300:141|252:129,1,95.9999970703126,4|2,0:0|0:0,0:0:0:0:
118,54,72476,2,0,L|118:19,2,23.9999992675781,4|0|10,0:3|0:0|0:0,0:0:0:0:
39,152,72762,2,0,L|102:137,1,47.9999985351563,10|8,0:0|0:0,0:0:0:0:
247,235,73048,2,0,L|245:282,2,47.9999985351563,4|0|4,0:0|0:0|0:3,0:0:0:0:
57,327,73476,2,0,P|33:288|46:243,1,95.9999970703126,10|4,0:0|0:0,0:0:0:0:
382,49,74333,6,0,P|390:117|337:160,1,143.999995605469,4|0,0:1|0:0,0:0:0:0:
314,155,74619,2,0,P|280:137|261:102,1,80,12|0,0:0|0:0,0:0:0:0:
353,244,74905,2,0,P|315:255|277:243,1,80,4|4,0:3|0:3,0:0:0:0:
441,279,75190,2,0,P|422:314|388:333,1,80,8|0,0:0|0:0,0:0:0:0:
178,246,75476,5,4,0:3:0:0:
226,328,75619,1,4,0:3:0:0:
129,331,75762,1,8,0:0:0:0:
277,243,75905,2,0,P|302:168|282:91,1,160,4|2,0:3|0:0,0:0:0:0:
132,8,76333,1,10,0:0:0:0:
156,14,76405,1,8,0:0:0:0:
180,20,76476,2,0,P|185:38|188:71,1,40,10|8,0:0|0:0,0:0:0:0:
87,182,76619,6,0,P|83:142|98:105,1,80,4|4,0:0|0:3,0:0:0:0:
263,253,76905,2,0,P|207:271|152:252,1,120,8|0,0:0|0:0,0:0:0:0:
137,271,77190,2,0,P|126:308|134:347,1,80,4|8,0:3|0:0,0:0:0:0:
211,181,77476,1,2,0:0:0:0:
72,93,77619,6,0,B|103:122|142:110|142:110|186:70|244:88,1,176.000005371094,6|4,0:0|0:3,0:0:0:0:
395,203,78048,6,0,P|359:204|322:163,1,71.9999978027344,14|0,0:0|0:0,0:0:0:0:
473,165,78333,2,0,P|437:201|405:204,1,64,14|0,0:0|0:0,0:0:0:0:
501,86,78619,2,0,P|501:124|487:152,1,55.9999982910157,14|2,0:0|0:0,0:0:0:0:
320,138,78905,5,6,0:0:0:0:
466,273,79048,1,4,0:3:0:0:
319,137,79190,2,0,P|306:61|352:0,1,160,8|4,0:0|0:3,0:0:0:0:
400,83,79619,1,4,0:3:0:0:
269,223,79762,2,0,P|234:188|224:158,1,80,8|2,0:0|0:0,0:0:0:0:
407,180,80048,6,0,L|401:261,1,80,6|4,0:0|0:3,0:0:0:0:
226,143,80333,2,0,L|232:62,1,80,8|0,0:0|0:0,0:0:0:0:
432,50,80619,1,8,0:0:0:0:
353,105,80762,1,2,0:0:0:0:
407,180,80905,2,0,P|446:184|484:173,1,80,10|2,0:0|0:0,0:0:0:0:
338,0,81190,6,0,P|265:43|251:127,1,176.000005371094,4|8,0:0|0:0,0:0:0:0:
72,136,81619,6,0,P|140:171|154:247,1,160,4|4,0:0|0:3,0:0:0:0:
313,365,82048,1,8,0:0:0:0:
307,228,82190,6,0,P|246:264|228:332,1,143.999995605469,4|4,0:0|0:3,0:0:0:0:
251,127,82619,6,0,P|251:74|233:30,1,80,10|0,0:0|0:0,0:0:0:0:
67,229,82905,2,0,P|67:282|85:326,1,80,10|4,0:0|0:3,0:0:0:0:
156,94,83190,1,10,0:0:0:0:
157,258,83333,1,10,0:0:0:0:
378,154,83476,6,0,P|319:114|250:126,1,143.999995605469,4|0,0:0|0:0,0:0:0:0:
233,142,83762,2,0,P|217:178|221:218,1,80,12|0,0:0|0:0,0:0:0:0:
363,309,84048,2,0,P|342:276|306:261,1,80,4|4,0:3|0:3,0:0:0:0:
177,371,84333,2,0,P|210:350|226:314,1,80,8|2,0:0|0:0,0:0:0:0:
139,171,84619,5,6,0:0:0:0:
229,138,84762,2,0,L|220:217,1,80,4|8,0:3|0:0,0:0:0:0:
363,309,85048,1,2,0:0:0:0:
324,225,85190,1,4,0:3:0:0:
361,103,85333,1,2,0:0:0:0:
322,19,85476,1,10,0:0:0:0:
322,19,85548,1,2,0:0:0:0:
322,19,85619,6,0,P|286:47|164:7,1,160,6|4,0:0|0:3,0:0:0:0:
20,107,86048,2,0,P|75:89|131:109,1,120,8|0,0:0|0:0,0:0:0:0:
116,128,86333,2,0,P|103:165|113:204,1,80,4|8,0:3|0:0,0:0:0:0:
203,170,86619,1,2,0:0:0:0:
46,302,86762,6,0,B|77:331|116:319|116:319|160:279|218:297,1,176.000005371094,4|4,0:0|0:3,0:0:0:0:
348,201,87190,6,0,P|314:209|289:252,1,71.9999978027344,12|0,0:0|0:0,0:0:0:0:
427,220,87476,2,0,P|463:227|499:212,1,64,12|0,0:0|0:0,0:0:0:0:
407,148,87762,2,0,P|415:111|406:75,1,55.9999982910157,12|2,0:0|0:0,0:0:0:0:
277,255,88048,5,6,0:0:0:0:
334,107,88191,1,4,0:3:0:0:
191,59,88333,2,0,P|158:129|189:199,1,160,8|4,0:0|0:3,0:0:0:0:
277,255,88762,1,4,0:3:0:0:
111,290,88905,2,0,P|150:300|189:295,1,80,8|2,0:0|0:0,0:0:0:0:
336,178,89190,5,4,0:0:0:0:
277,255,89333,1,4,0:3:0:0:
372,267,89476,2,0,P|401:313|387:382,1,120,12|0,0:0|0:0,0:0:0:0:
369,381,89762,2,0,P|330:370|290:375,1,80,12|4,0:0|0:3,0:0:0:0:
483,262,90048,1,10,0:0:0:0:
276,254,90190,6,0,P|248:182|276:109,1,160,4|4,0:0|0:3,0:0:0:0:
511,71,90619,2,0,P|438:100|366:72,1,160,8|4,0:0|0:3,0:0:0:0:
156,21,91048,2,0,P|210:35|161:89,1,120,8|0,0:0|0:0,0:0:0:0:
183,100,91333,6,0,L|78:94,1,80,8|0,0:0|0:0,0:0:0:0:
228,184,91619,1,4,0:3:0:0:
68,260,91762,2,0,L|57:180,1,80,8|0,0:0|0:0,0:0:0:0:
163,287,92048,1,8,0:0:0:0:
280,384,92190,1,4,0:3:0:0:
280,384,92476,6,0,L|295:235,1,120,6|0,0:0|0:0,0:0:0:0:
310,275,92762,1,4,0:3:0:0:
440,170,92905,2,0,B|388:142|388:142|453:124,1,120,10|0,0:0|0:0,0:0:0:0:
460,155,93190,2,0,L|289:127,1,160,10|10,0:0|0:0,0:0:0:0:
128,131,93619,1,4,0:0:0:0:
143,15,93762,6,0,P|181:25|212:50,1,80,8|4,0:0|0:3,0:0:0:0:
219,216,94048,2,0,P|188:240|149:251,1,80,10|0,0:0|0:0,0:0:0:0:
13,167,94333,2,0,P|6:127|17:89,1,80,10|4,0:0|0:3,0:0:0:0:
128,131,94619,1,10,0:0:0:0:
7,277,94762,6,0,P|72:234|149:250,1,160,8|8,0:0|0:0,0:0:0:0:
293,296,95190,2,0,P|265:266|252:229,1,80,12|0,0:0|0:0,0:0:0:0:
270,104,95476,2,0,P|204:146|127:130,1,160,12|4,0:0|0:3,0:0:0:0:
428,244,95905,6,0,L|344:230,1,80,4|0,0:0|0:0,0:0:0:0:
507,184,96190,1,4,0:3:0:0:
371,74,96333,1,8,0:0:0:0:
395,80,96405,1,8,0:0:0:0:
419,86,96476,2,0,P|424:104|427:137,1,40,8|8,0:0|0:0,0:0:0:0:
259,141,96619,2,0,P|235:66|273:0,1,160,8|8,0:0|0:0,0:0:0:0:
146,151,97048,6,0,L|26:172,1,120,4|0,0:0|0:0,0:0:0:0:
38,154,97333,1,4,0:3:0:0:
25,324,97477,2,0,B|74:295|74:295|9:278,1,120,10|0,0:0|0:0,0:0:0:0:
0,308,97762,2,0,L|171:280,1,160,10|10,0:0|0:0,0:0:0:0:
365,238,98191,1,4,0:0:0:0:
263,130,98333,6,0,P|246:162|248:208,1,80,8|4,0:0|0:3,0:0:0:0:
380,313,98619,2,0,P|381:273|364:237,1,80,10|0,0:0|0:0,0:0:0:0:
235,142,98905,2,0,P|227:177|241:221,1,80,10|0,0:0|0:0,0:0:0:0:
407,125,99191,1,10,0:0:0:0:
241,17,99333,6,0,P|189:22|117:121,1,160,10|4,0:0|0:0,0:0:0:0:
239,218,99762,2,0,P|246:182|232:138,1,80,12|0,0:0|0:0,0:0:0:0:
45,10,100048,2,0,P|11:50|30:171,1,160,12|8,0:0|0:0,0:0:0:0:
143,266,100477,6,0,L|23:255,1,120,4|0,0:0|0:0,0:0:0:0:
40,275,100762,1,4,0:3:0:0:
120,98,100905,2,0,L|206:94,1,80,12|0,0:0|0:0,0:0:0:0:
379,80,101190,1,2,0:0:0:0:
247,200,101333,1,2,0:0:0:0:
391,298,101476,2,0,P|439:229|373:169,1,160,8|4,0:0|0:0,0:0:0:0:
294,124,102333,5,4,0:3:0:0:
210,199,102762,5,8,0:0:0:0:
179,191,102833,1,8,0:0:0:0:
151,184,102905,2,0,P|128:132|145:73,1,96,12|0,0:0|0:0,0:0:0:0:
150,83,103190,1,8,0:0:0:0:
311,34,103333,2,0,P|314:81|293:123,1,96,8|0,0:0|0:0,0:0:0:0:
279,138,103619,2,0,L|382:130,1,96,8|0,0:0|0:0,0:0:0:0:
434,175,103905,6,0,P|466:219|461:297,1,128,4|4,0:0|0:3,0:0:0:0:
322,360,104333,2,0,P|290:316|295:238,1,128,8|4,0:0|0:3,0:0:0:0:
381,277,104762,1,4,0:3:0:0:
203,312,104905,2,0,P|200:272|218:224,1,64,8|0,0:0|0:0,0:0:0:0:
283,135,105190,2,0,P|296:75|251:-2,2,128,2|10|2,0:0|0:0|0:0,0:0:0:0:
206,250,105905,1,4,0:3:0:0:
374,324,106048,1,10,0:0:0:0:
290,368,106191,6,0,P|322:314|313:251,1,128,4|4,0:3|0:3,0:0:0:0:
407,105,106619,2,0,P|395:167|423:223,1,128,10|4,0:0|0:3,0:0:0:0:
306,103,107048,1,8,0:0:0:0:
275,112,107119,1,8,0:0:0:0:
244,121,107191,1,8,0:0:0:0:
69,168,107334,2,0,P|123:202|186:204,1,128,8|0,0:0|0:0,0:0:0:0:
272,371,107762,6,0,L|259:296,1,64,8|2,0:0|0:0,0:0:0:0:
399,291,108048,2,0,L|412:216,1,64,8|2,0:0|0:0,0:0:0:0:
299,186,108334,1,8,0:0:0:0:
291,377,108476,6,0,L|425:366,1,128,4|4,0:0|0:3,0:0:0:0:
507,232,108905,2,0,L|380:243,1,128,8|4,0:0|0:3,0:0:0:0:
299,186,109334,1,4,0:3:0:0:
454,77,109476,1,8,0:0:0:0:
373,28,109619,2,0,P|358:89|385:145,1,128,0|4,0:0|0:3,0:0:0:0:
224,340,110048,6,0,B|271:327|271:327|301:273,1,96,8|0,0:0|0:0,0:0:0:0:
207,332,110334,2,0,L|145:319,1,64,8|0,0:0|0:0,0:0:0:0:
145,319,110762,6,0,P|94:285|82:223,1,128,4|4,0:0|0:3,0:0:0:0:
0,118,111191,2,0,P|31:121|62:130,1,64,10|0,0:0|0:0,0:0:0:0:
149,159,111476,1,4,0:3:0:0:
176,33,111619,6,0,B|139:66|139:66|141:3,1,96,10|0,0:0|0:0,0:0:0:0:
172,12,111905,2,0,B|213:-11|213:-11|316:4,1,128,12|4,0:0|0:3,0:0:0:0:
445,95,112334,2,0,B|405:75|405:75|334:83,1,96,14|0,0:0|0:0,0:0:0:0:
281,102,112619,2,0,L|350:92,1,64,14|4,0:0|0:3,0:0:0:0:
344,92,113048,6,0,P|348:153|311:203,1,128,4|4,0:0|0:3,0:0:0:0:
142,333,113476,2,0,P|183:285|245:278,1,128,8|4,0:0|0:3,0:0:0:0:
223,186,113904,1,4,0:3:0:0:
368,279,114048,1,8,0:0:0:0:
319,350,114190,2,0,P|352:323|451:321,1,128,2|4,0:0|0:3,0:0:0:0:
445,177,114619,2,0,L|381:175,1,64,10|0,0:0|0:0,0:0:0:0:
265,97,114905,2,0,L|328:95,1,64,2|4,0:0|0:3,0:0:0:0:
212,177,115190,1,10,0:0:0:0:
168,93,115334,6,0,P|125:137|120:200,1,128,4|4,0:3|0:3,0:0:0:0:
261,285,115762,2,0,P|257:223|213:178,1,128,8|4,0:0|0:3,0:0:0:0:
120,200,116191,1,2,0:0:0:0:
263,97,116334,1,8,0:0:0:0:
168,93,116476,2,0,L|91:102,2,64,4|4|4,0:0|0:3|0:3,0:0:0:0:
353,191,116905,6,0,L|340:115,1,64,8|2,0:0|0:0,0:0:0:0:
258,258,117190,2,0,L|245:182,1,64,8|2,0:0|0:0,0:0:0:0:
156,256,117476,1,8,0:0:0:0:
353,191,117619,6,0,P|416:199|464:256,1,128,4|4,0:0|0:3,0:0:0:0:
461,372,118048,2,0,P|398:364|354:319,1,128,8|4,0:0|0:3,0:0:0:0:
306,246,118476,1,4,0:3:0:0:
342,105,118618,1,8,0:0:0:0:
267,45,118762,2,0,P|244:103|264:163,1,128,4|4,0:0|0:3,0:0:0:0:
274,300,119191,2,0,P|296:276|306:246,1,64,10|0,0:0|0:0,0:0:0:0:
141,225,119476,2,0,P|171:237|202:238,1,64,2|4,0:0|0:3,0:0:0:0:
128,130,119762,1,10,0:0:0:0:
260,45,119905,6,0,P|284:104|264:164,1,128,4|4,0:0|0:3,0:0:0:0:
60,44,120334,6,0,L|157:28,1,96,10|0,0:0|0:0,0:0:0:0:
139,39,120619,1,4,0:3:0:0:
359,179,120762,2,0,L|262:163,1,96,10|0,0:0|0:0,0:0:0:0:
280,174,121047,1,4,0:3:0:0:
135,316,121191,6,0,P|114:274|117:227,1,96,10|0,0:0|0:0,0:0:0:0:
133,235,121476,1,4,0:3:0:0:
332,292,121619,2,0,P|336:340|314:382,1,96,10|0,0:0|0:0,0:0:0:0:
308,365,121904,1,4,0:3:0:0:
249,154,122048,6,0,L|395:129,1,128,10|12,0:0|0:3,0:0:0:0:
364,20,124762,5,4,0:3:0:0:
366,114,124905,2,0,L|354:58,1,47.9999985351563,4|0,0:0|0:0,0:0:0:0:
272,26,125190,5,4,0:3:0:0:
274,120,125333,2,0,L|262:64,1,47.9999985351563,4|0,0:0|0:0,0:0:0:0:
173,28,125619,5,4,0:3:0:0:
175,122,125762,2,0,L|163:66,1,47.9999985351563,8|0,0:0|0:0,0:0:0:0:
147,204,126048,6,0,P|101:257|31:263,1,143.999995605469,4|4,0:0|0:3,0:0:0:0:
226,249,126619,2,0,P|213:269|197:287,1,47.9999985351563,8|0,0:0|0:0,0:0:0:0:
295,384,126905,6,0,P|293:314|346:268,2,143.999995605469,4|4|4,0:0|0:0|0:0,0:0:0:0:
295,384,128190,1,4,0:3:0:0:
478,361,128333,2,0,P|432:347|386:356,1,95.9999970703126,10|2,0:0|0:0,0:0:0:0:
295,384,128762,1,4,0:3:0:0:
331,197,128905,2,0,L|342:264,1,71.9999978027344,10|0,0:0|0:0,0:0:0:0:
345,267,129190,6,0,P|389:214|459:219,2,143.999995605469,4|4|4,0:0|0:0|0:0,0:0:0:0:
345,267,130476,1,4,0:3:0:0:
345,138,130619,6,0,B|308:102|308:102|267:87,1,96,10|0,0:0|0:0,0:0:0:0:
248,96,130905,2,0,B|235:139|235:139|244:189,1,96,10|0,0:0|0:0,0:0:0:0:
254,292,131190,2,0,P|267:243|234:184,1,96,2|0,0:0|0:0,0:0:0:0:
189,248,131476,6,0,P|133:205|64:221,2,143.999995605469,4|4|4,0:0|0:0|0:0,0:0:0:0:
189,248,132762,1,4,0:3:0:0:
367,257,132905,2,0,P|321:270|276:258,1,95.9999970703126,10|2,0:0|0:0,0:0:0:0:
189,248,133334,1,4,0:3:0:0:
324,184,133476,2,0,P|352:170|392:174,1,71.9999978027344,10|0,0:0|0:0,0:0:0:0:
393,177,133762,6,0,P|339:132|344:62,1,143.999995605469,4|4,0:0|0:0,0:0:0:0:
241,0,134333,2,0,P|242:22|232:69,1,47.9999985351563,0|0,0:0|0:0,0:0:0:0:
231,62,134547,1,8,0:0:0:0:
219,76,134619,2,0,P|173:82|131:60,1,95.9999970703126,12|0,0:0|0:0,0:0:0:0:
40,94,135048,1,4,0:3:0:0:
125,248,135190,6,0,B|126:200|126:200|88:254,1,96,10|0,0:0|0:0,0:0:0:0:
110,257,135476,2,0,L|99:295,1,32,10|0,0:0|0:0,0:0:0:0:
42,356,135619,2,0,P|121:334|166:357,1,128,4|8,0:3|0:0,0:0:0:0:
344,261,136048,6,0,P|286:285|227:266,1,128,4|8,0:0|0:0,0:0:0:0:
166,191,136476,2,0,L|182:63,1,128,4|4,0:0|0:3,0:0:0:0:
266,111,136905,2,0,L|258:180,1,64,12|0,0:0|0:0,0:0:0:0:
129,285,137190,2,0,L|137:354,1,64,4|4,0:3|0:3,0:0:0:0:
166,191,137476,1,10,0:0:0:0:
227,266,137619,2,0,P|286:285|344:261,1,128,0|4,0:0|0:3,0:0:0:0:
275,124,138048,2,0,P|274:156|283:187,1,64,10|0,0:0|0:0,0:0:0:0:
494,164,138333,6,0,P|435:145|377:169,1,128,4|8,0:0|0:0,0:0:0:0:
344,261,138762,2,0,P|286:285|227:266,1,128,4|8,0:3|0:0,0:0:0:0:
170,218,139119,1,8,0:0:0:0:
170,218,139190,2,0,L|104:225,1,64,8|0,0:0|0:0,0:0:0:0:
227,154,139476,1,4,0:3:0:0:
154,91,139619,1,4,0:3:0:0:
265,6,139762,6,0,B|213:22|213:22|279:43,1,107.999996704102,8|8,0:0|0:0,0:0:0:0:
287,24,140047,2,0,L|336:25,1,35.9999989013672,8|0,0:0|0:0,0:0:0:0:
304,104,140190,2,0,P|305:137|316:177,1,71.9999978027344,2|4,0:0|0:3,0:0:0:0:
315,174,140619,6,0,P|377:177|425:217,1,128,4|8,0:0|0:0,0:0:0:0:
379,303,141048,2,0,P|317:300|269:260,1,128,4|4,0:0|0:3,0:0:0:0:
215,111,141476,2,0,L|220:175,1,64,12|0,0:0|0:0,0:0:0:0:
134,314,141762,6,0,L|123:187,1,128,4|8,0:3|0:0,0:0:0:0:
17,81,142190,2,0,L|29:209,1,128,4|4,0:0|0:3,0:0:0:0:
105,41,142619,1,12,0:0:0:0:
28,208,142762,1,4,0:3:0:0:
253,164,142905,6,0,P|201:184|116:135,1,143.999995605469,4|4,0:0|0:3,0:0:0:0:
268,22,143476,2,0,L|281:86,1,47.9999985351563,8|8,0:0|0:0,0:0:0:0:
340,121,143690,1,8,0:0:0:0:
340,121,143762,2,0,L|347:156,1,23.9999992675781,8|0,0:0|0:0,0:0:0:0:
407,194,143905,2,0,L|435:303,1,95.9999970703126,4|4,0:0|0:3,0:0:0:0:
265,344,144333,2,0,P|297:349|352:308,1,95.9999970703126,10|4,0:0|0:0,0:0:0:0:
79,115,145190,6,0,P|71:47|124:4,1,143.999995605469,4|0,0:0|0:0,0:0:0:0:
147,9,145476,2,0,P|181:27|200:62,1,80,12|0,0:0|0:0,0:0:0:0:
334,138,145762,2,0,P|296:149|258:137,1,80,4|4,0:3|0:3,0:0:0:0:
110,210,146048,2,0,P|128:175|163:156,1,80,8|2,0:0|0:0,0:0:0:0:
334,138,146333,5,2,0:0:0:0:
318,232,146476,1,4,0:3:0:0:
408,200,146619,1,8,0:0:0:0:
243,169,146762,2,0,P|218:244|257:315,1,160,4|0,0:3|0:0,0:0:0:0:
409,379,147190,1,8,0:0:0:0:
385,373,147262,1,8,0:0:0:0:
361,367,147333,2,0,P|356:349|353:316,1,40,8|8,0:0|0:0,0:0:0:0:
454,205,147476,6,0,P|458:245|443:282,1,80,4|4,0:0|0:3,0:0:0:0:
252,121,147762,2,0,P|308:103|363:122,1,120,8|0,0:0|0:0,0:0:0:0:
378,103,148047,2,0,P|389:66|381:27,1,80,4|8,0:3|0:0,0:0:0:0:
304,193,148333,1,2,0:0:0:0:
443,281,148476,6,0,B|412:252|373:264|373:264|329:304|271:286,1,176.000005371094,6|4,0:0|0:3,0:0:0:0:
117,180,148905,6,0,P|160:187|177:229,1,71.9999978027344,12|0,0:0|0:0,0:0:0:0:
25,230,149190,2,0,P|59:204|96:213,1,64,12|0,0:0|0:0,0:0:0:0:
2,323,149476,2,0,P|10:281|31:263,1,55.9999982910157,12|2,0:0|0:0,0:0:0:0:
192,246,149762,5,6,0:0:0:0:
46,111,149905,1,4,0:3:0:0:
193,247,150047,2,0,P|206:323|160:384,1,160,8|4,0:0|0:3,0:0:0:0:
112,301,150476,1,4,0:3:0:0:
243,161,150619,2,0,P|278:196|288:226,1,80,8|2,0:0|0:0,0:0:0:0:
105,204,150905,6,0,L|111:123,1,80,6|4,0:0|0:3,0:0:0:0:
286,241,151190,2,0,L|280:322,1,80,8|0,0:0|0:0,0:0:0:0:
80,334,151476,1,8,0:0:0:0:
159,279,151619,1,2,0:0:0:0:
105,204,151762,2,0,P|66:200|28:211,1,80,10|2,0:0|0:0,0:0:0:0:
174,384,152048,6,0,P|247:341|261:257,1,176.000005371094,4|8,0:0|0:0,0:0:0:0:
440,248,152476,6,0,P|372:213|358:137,1,160,4|4,0:0|0:3,0:0:0:0:
195,30,152905,1,8,0:0:0:0:
205,156,153048,6,0,P|266:120|284:52,1,143.999995605469,4|4,0:0|0:3,0:0:0:0:
261,257,153476,6,0,P|261:310|279:354,1,80,10|0,0:0|0:0,0:0:0:0:
445,155,153762,2,0,P|445:102|427:58,1,80,10|4,0:0|0:3,0:0:0:0:
356,290,154047,1,10,0:0:0:0:
355,126,154190,1,8,0:0:0:0:
134,230,154333,6,0,P|193:270|262:258,1,143.999995605469,4|0,0:0|0:0,0:0:0:0:
279,242,154619,2,0,P|295:206|291:166,1,80,12|0,0:0|0:0,0:0:0:0:
149,75,154905,2,0,P|170:108|206:123,1,80,4|4,0:3|0:3,0:0:0:0:
335,13,155190,1,8,0:0:0:0:
291,166,155333,1,2,0:0:0:0:
434,96,155476,6,0,L|344:98,1,80,6|4,0:0|0:3,0:0:0:0:
149,75,155762,1,8,0:0:0:0:
215,200,155905,1,2,0:0:0:0:
100,284,156048,2,0,B|84:246|84:246|101:198,1,80,8|2,0:0|0:0,0:0:0:0:
221,333,156333,1,10,0:0:0:0:
221,333,156405,1,2,0:0:0:0:
221,333,156476,6,0,P|257:305|379:345,1,160,6|4,0:0|0:3,0:0:0:0:
512,238,156905,2,0,P|457:256|401:236,1,120,8|0,0:0|0:0,0:0:0:0:
416,217,157190,2,0,P|429:180|419:141,1,80,4|8,0:3|0:0,0:0:0:0:
329,175,157476,1,2,0:0:0:0:
475,53,157619,6,0,B|444:24|405:36|405:36|361:76|303:58,1,176.000005371094,4|4,0:0|0:3,0:0:0:0:
157,189,158048,6,0,P|201:177|227:138,1,71.9999978027344,12|0,0:0|0:0,0:0:0:0:
82,166,158333,2,0,P|40:157|0:175,1,64,12|0,0:0|0:0,0:0:0:0:
98,240,158619,2,0,P|89:276|98:312,1,55.9999982910157,12|2,0:0|0:0,0:0:0:0:
235,129,158905,5,6,0:0:0:0:
166,276,159048,1,4,0:3:0:0:
321,325,159190,2,0,P|354:255|323:185,1,160,8|4,0:0|0:3,0:0:0:0:
235,129,159619,1,4,0:3:0:0:
401,94,159762,2,0,P|362:84|323:89,1,80,8|2,0:0|0:0,0:0:0:0:
176,206,160047,5,4,0:0:0:0:
235,129,160190,1,0,0:0:0:0:
140,117,160333,2,0,P|111:71|125:2,1,120,4|0,0:0|0:0,0:0:0:0:
143,3,160619,2,0,P|182:14|222:9,1,80,12|4,0:0|0:3,0:0:0:0:
29,122,160905,1,10,0:0:0:0:
236,130,161047,6,0,P|264:202|236:275,1,160,4|4,0:0|0:3,0:0:0:0:
1,313,161476,2,0,P|74:284|146:312,1,160,8|4,0:0|0:3,0:0:0:0:
304,373,161905,2,0,P|323:304|377:325,1,120,8|0,0:0|0:0,0:0:0:0:
372,301,162190,6,0,L|487:289,1,80,8|0,0:0|0:0,0:0:0:0:
334,204,162476,1,4,0:3:0:0:
493,127,162619,2,0,L|378:115,1,80,8|0,0:0|0:0,0:0:0:0:
317,190,162905,1,8,0:0:0:0:
232,0,163047,1,4,0:3:0:0:
232,0,163333,6,0,L|226:97,1,80,6|0,0:0|0:0,0:0:0:0:
83,150,163619,1,4,0:3:0:0:
137,227,163762,2,0,P|165:200|176:162,1,80,8|0,0:0|0:0,0:0:0:0:
165,320,164048,2,0,P|204:320|238:300,1,80,8|0,0:0|0:0,0:0:0:0:
385,176,164333,5,8,0:0:0:0:
317,244,164476,2,0,L|330:355,1,80,4|8,0:0|0:0,0:0:0:0:
385,176,164762,1,0,0:0:0:0:
300,129,164905,2,0,L|290:49,1,80,8|0,0:0|0:0,0:0:0:0:
385,176,165190,2,0,L|464:166,1,80,8|4,0:0|0:3,0:0:0:0:
231,198,165476,1,8,0:0:0:0:
387,81,165619,1,8,0:0:0:0:
208,4,165762,6,0,P|177:43|170:91,1,80,4|8,0:0|0:0,0:0:0:0:
300,129,166048,2,0,P|331:168|338:216,1,80,0|0,0:0|0:0,0:0:0:0:
172,266,166333,2,0,P|141:305|134:353,1,80,8|8,0:0|0:0,0:0:0:0:
326,342,166619,1,8,0:0:0:0:
204,169,166762,6,0,P|129:176|75:239,1,160,4|4,0:0|0:3,0:0:0:0:
294,235,167190,2,0,P|369:228|423:165,1,160,8|2,0:0|0:0,0:0:0:0:
370,31,167619,1,8,0:0:0:0:
355,50,167690,1,8,0:0:0:0:
336,65,167762,2,0,P|316:69|277:57,1,40,8|8,0:0|0:0,0:0:0:0:
165,0,167905,6,0,P|208:64|190:140,1,160,4|4,0:0|0:3,0:0:0:0:
30,204,168333,2,0,P|58:176|97:166,1,80,8|0,0:0|0:0,0:0:0:0:
258,218,168619,2,0,P|296:227|334:218,1,80,8|0,0:0|0:0,0:0:0:0:
448,77,168905,1,8,0:0:0:0:
354,49,169048,6,0,L|366:129,1,80,4|8,0:0|0:0,0:0:0:0:
172,60,169333,1,4,0:3:0:0:
265,88,169476,2,0,L|253:8,1,80,8|0,0:0|0:0,0:0:0:0:
192,153,169762,2,0,P|154:161|115:153,1,80,8|4,0:0|0:3,0:0:0:0:
265,88,170048,1,8,0:0:0:0:
181,255,170190,1,10,0:0:0:0:
369,233,170333,5,6,0:0:0:0:
327,310,170477,2,0,P|280:248|300:174,1,160,12|2,0:0|0:0,0:0:0:0:
165,16,170905,2,0,P|211:77|192:152,1,160,12|8,0:0|0:0,0:0:0:0:
44,282,171333,6,0,P|105:235|180:254,1,160,4|4,0:0|0:3,0:0:0:0:
377,181,171762,2,0,P|337:184|299:173,1,80,8|0,0:0|0:0,0:0:0:0:
346,89,172048,1,0,0:0:0:0:
469,201,172190,2,0,P|453:237|423:263,1,80,8|4,0:0|0:3,0:0:0:0:
221,342,172476,6,0,P|292:310|364:340,1,160,4|4,0:0|0:3,0:0:0:0:
139,264,172905,2,0,P|204:229|246:231,1,80,8|0,0:0|0:0,0:0:0:0:
29,266,173190,2,0,P|50:195|81:167,1,80,8|0,0:0|0:0,0:0:0:0:
170,41,173476,1,8,0:0:0:0:
201,130,173619,6,0,L|122:123,1,80,4|8,0:0|0:0,0:0:0:0:
170,41,173905,1,4,0:3:0:0:
297,133,174048,2,0,L|304:53,1,80,8|0,0:0|0:0,0:0:0:0:
286,232,174333,2,0,L|278:311,1,80,8|4,0:0|0:3,0:0:0:0:
381,192,174620,1,8,0:0:0:0:
189,256,174762,1,8,0:0:0:0:
372,355,174905,6,0,P|422:344|443:327,1,80,4|8,0:0|0:0,0:0:0:0:
189,256,175190,2,0,P|139:245|118:228,1,80,4|0,0:3|0:0,0:0:0:0:
335,65,175476,2,0,P|304:104|297:152,1,80,8|8,0:0|0:0,0:0:0:0:
375,262,175762,1,4,0:3:0:0:
193,153,175905,6,0,P|182:76|220:7,1,160,4|4,0:0|0:3,0:0:0:0:
266,237,176333,2,0,P|277:314|239:383,1,160,8|2,0:0|0:0,0:0:0:0:
70,256,176762,1,8,0:0:0:0:
85,275,176833,1,8,0:0:0:0:
104,290,176905,2,0,P|124:294|144:292,1,40,8|8,0:0|0:0,0:0:0:0:
326,151,177048,6,0,P|259:128|193:153,1,143.999995605469,4|4,0:0|0:3,0:0:0:0:
87,136,177476,2,0,P|57:127|32:108,1,64,10|0,0:0|0:0,0:0:0:0:
59,10,177762,2,0,P|76:37|102:57,1,64,10|0,0:0|0:0,0:0:0:0:
192,61,178048,2,0,P|180:31|180:0,1,64,10|0,0:0|0:0,0:0:0:0:
257,12,178333,2,0,P|267:41|289:64,1,64,10|0,0:0|0:0,0:0:0:0:
438,103,178619,6,0,P|488:65|507:5,1,128,10|10,0:0|0:0,0:0:0:0:
373,45,179048,1,0,0:0:0:0:
334,198,179190,2,0,P|336:164|348:135,1,64,10|10,0:0|0:0,0:0:0:0:
359,170,179405,1,10,0:0:0:0:
306,240,183905,6,0,P|299:256|296:273,1,32,2|2,0:0|0:0,0:0:0:0:
312,244,184048,6,0,P|314:320|379:361,1,160,2|0,1:2|1:3,0:0:0:0:
200,140,185190,2,0,P|197:63|132:22,1,160,2|0,1:2|1:0,0:0:0:0:
86,315,186333,6,0,P|127:250|204:248,1,160,2|0,1:2|1:0,0:0:0:0:
418,65,187333,2,0,P|416:79|411:94,1,20,6|2,0:0|0:0,0:0:0:0:
425,68,187476,6,0,P|384:133|308:136,1,160,2|0,1:2|1:0,0:0:0:0:
86,68,188619,6,0,P|127:133|141:140,2,80,2|0|0,1:2|0:0|1:0,0:0:0:0:
180,284,189762,2,0,P|221:218|234:212,2,80,2|0|0,1:2|0:0|1:0,0:0:0:0:
250,60,190905,6,0,P|291:125|304:131,1,80,2|0,1:2|0:0,0:0:0:0:
324,302,191476,2,0,P|365:236|378:230,1,80,2|0,1:2|0:0,0:0:0:0:
377,149,191905,1,0,0:0:0:0:
290,125,192048,2,0,P|262:97|250:60,1,80,2|2,1:2|0:0,0:0:0:0:
249,59,192619,2,0,P|230:54|211:51,1,40,2|0,1:2|0:0,0:0:0:0:
140,108,192905,2,0,P|122:117|106:129,1,40,2|0,0:0|0:0,0:0:0:0:
361,77,202190,6,0,P|367:91|371:106,1,32,2|2,0:0|0:0,0:0:0:0:
352,74,202333,6,0,P|368:151|338:224,1,160,2|0,1:2|1:0,0:0:0:0:
236,27,203476,6,0,B|199:23|199:23|134:43,1,83.9999974365235,8|0,1:2|0:0,0:0:0:0:
196,57,203762,1,8,0:0:0:0:
367,54,204476,2,0,L|312:55,1,32,2|0,0:0|0:0,0:0:0:0:
312,54,204619,5,12,0:0:0:0:
466,88,204762,1,8,0:0:0:0:
309,150,204905,2,0,P|291:206|312:261,1,120,4|0,0:0|0:0,0:0:0:0:
335,268,205190,2,0,P|374:270|412:258,1,80,4|8,0:3|0:0,0:0:0:0:
482,191,205476,1,2,0:0:0:0:
367,54,205619,6,0,B|332:26|290:33|290:33|254:53|254:53|242:48|198:49,1,176.000005371094,4|4,0:0|0:3,0:0:0:0:
5,159,206048,6,0,P|37:132|80:131,1,71.9999978027344,12|0,0:0|0:0,0:0:0:0:
199,163,206333,2,0,P|151:164|127:145,1,64,12|0,0:0|0:0,0:0:0:0:
281,156,206619,2,0,P|321:155|355:173,1,55.9999982910157,12|2,0:0|0:0,0:0:0:0:
134,148,206905,5,6,0:0:0:0:
243,237,207048,1,4,0:3:0:0:
234,50,207190,2,0,P|312:57|375:105,1,160,8|4,0:0|0:3,0:0:0:0:
218,155,207619,1,4,0:3:0:0:
317,298,207762,2,0,P|327:259|324:219,1,80,8|2,0:0|0:0,0:0:0:0:
234,50,208048,6,0,L|150:50,1,80,6|4,0:0|0:3,0:0:0:0:
375,105,208333,2,0,L|459:105,1,80,8|0,0:0|0:0,0:0:0:0:
218,155,208619,1,8,0:0:0:0:
284,224,208762,1,2,0:0:0:0:
192,252,208905,2,0,P|170:295|168:337,1,80,10|2,0:0|0:0,0:0:0:0:
218,155,209190,6,0,P|137:124|59:159,1,176.000005371094,4|8,0:0|0:0,0:0:0:0:
305,13,209619,6,0,P|233:43|158:19,1,160,4|4,0:0|0:3,0:0:0:0:
8,96,210048,1,8,0:0:0:0:
218,155,210190,6,0,P|146:182|112:255,1,143.999995605469,4|4,0:0|0:3,0:0:0:0:
307,313,210619,6,0,L|303:206,1,80,10|0,0:0|0:0,0:0:0:0:
436,91,210905,2,0,L|433:170,1,80,10|4,0:0|0:3,0:0:0:0:
304,233,211190,1,10,0:0:0:0:
482,270,211333,1,10,0:0:0:0:
324,128,211476,6,0,P|322:68|381:-11,1,143.999995605469,4|0,0:0|0:0,0:0:0:0:
386,12,211762,2,0,P|441:17|489:-4,1,80,12|0,0:0|0:0,0:0:0:0:
228,49,212048,2,0,P|173:54|125:33,1,80,4|4,0:3|0:3,0:0:0:0:
324,128,212333,2,0,P|337:165|338:205,1,80,8|2,0:0|0:0,0:0:0:0:
155,215,212619,5,6,0:0:0:0:
246,185,212762,2,0,L|237:264,1,80,4|8,0:3|0:0,0:0:0:0:
62,187,213048,1,2,0:0:0:0:
143,135,213191,2,0,L|154:213,1,80,8|2,0:0|0:0,0:0:0:0:
228,49,213476,1,10,0:0:0:0:
228,49,213548,1,2,0:0:0:0:
228,49,213619,6,0,P|264:21|386:61,1,160,6|4,0:0|0:3,0:0:0:0:
511,224,214048,2,0,P|455:241|400:221,1,120,8|0,0:0|0:0,0:0:0:0:
416,202,214333,2,0,P|429:165|419:127,1,80,4|8,0:3|0:0,0:0:0:0:
481,53,214619,1,2,0:0:0:0:
321,169,214762,6,0,B|280:169|268:164|268:164|232:184|232:184|190:191|155:163,1,176.000005371094,4|4,0:0|0:3,0:0:0:0:
53,0,215190,2,0,P|72:30|74:65,1,71.9999978027344,12|0,0:0|0:0,0:0:0:0:
164,0,215476,2,0,P|165:35|153:63,1,64,12|0,0:0|0:0,0:0:0:0:
262,49,215762,2,0,P|245:80|226:100,1,55.9999982910157,12|2,0:0|0:0,0:0:0:0:
75,142,216048,5,6,0:0:0:0:
244,222,216191,1,4,0:3:0:0:
127,343,216333,2,0,P|94:273|125:203,1,160,8|4,0:0|0:3,0:0:0:0:
308,148,216762,1,4,0:3:0:0:
476,175,216905,2,0,P|437:183|398:178,1,80,8|2,0:0|0:0,0:0:0:0:
249,80,217190,5,4,0:0:0:0:
308,148,217333,1,4,0:3:0:0:
227,192,217476,2,0,P|210:239|224:314,1,120,12|0,0:0|0:0,0:0:0:0:
243,318,217762,2,0,P|196:342|156:344,1,80,0|4,0:0|0:3,0:0:0:0:
320,259,218048,1,10,0:0:0:0:
249,80,218190,6,0,P|193:83|125:164,1,160,4|4,0:0|0:3,0:0:0:0:
227,192,218619,1,8,0:0:0:0:
326,21,218762,6,0,B|349:62|349:62|340:145,1,120,4|0,0:0|0:0,0:0:0:0:
419,133,219048,2,0,B|418:180|418:180|369:247,1,120,4|0,0:0|0:0,0:0:0:0:
428,307,219333,6,0,B|401:318|383:337|383:337|330:311|330:311|307:324|253:317,1,176.000005371094,4|4,0:0|0:3,0:0:0:0:
87,327,219762,2,0,P|135:324|171:290,1,71.9999978027344,8|0,0:0|0:0,0:0:0:0:
55,213,220048,2,0,P|94:248|130:252,1,64,8|4,0:0|0:3,0:0:0:0:
109,113,220333,2,0,P|116:153|132:174,1,55.9999982910157,10|2,0:0|0:0,0:0:0:0:
184,59,220619,5,4,0:0:0:0:
213,230,220762,1,4,0:3:0:0:
318,84,220905,2,0,P|387:47|461:71,1,160,8|4,0:0|0:3,0:0:0:0:
394,141,221333,2,0,P|389:180|399:218,1,80,4|8,0:3|0:0,0:0:0:0:
318,84,221619,6,0,P|248:47|174:71,1,160,4|4,0:0|0:3,0:0:0:0:
6,176,222048,2,0,P|80:200|150:164,1,160,12|12,0:0|0:0,0:0:0:0:
240,144,222476,2,0,P|248:182|230:258,1,80,4|8,0:3|0:0,0:0:0:0:
154,333,222762,6,0,P|223:296|297:320,1,160,4|4,0:0|0:3,0:0:0:0:
450,290,223190,2,0,P|387:273|353:185,1,160,8|0,0:0|0:0,0:0:0:0:
227,64,223619,2,0,P|248:119|191:143,1,120,8|0,0:0|0:0,0:0:0:0:
193,143,223905,6,0,L|189:234,1,80,12|0,0:0|0:0,0:0:0:0:
138,67,224190,1,4,0:3:0:0:
330,21,224333,2,0,L|334:112,1,80,12|0,0:0|0:0,0:0:0:0:
442,256,224619,2,0,L|446:177,1,80,12|4,0:0|0:3,0:0:0:0:
443,257,225048,6,0,L|323:272,1,120,6|0,0:0|0:0,0:0:0:0:
309,290,225334,1,4,0:3:0:0:
117,177,225477,2,0,B|168:201|168:201|95:216,1,120,8|0,0:0|0:0,0:0:0:0:
91,188,225762,2,0,L|249:214,1,160,8|8,0:0|0:0,0:0:0:0:
396,233,226191,1,4,0:0:0:0:
381,349,226334,6,0,P|343:339|312:314,1,80,8|4,0:0|0:3,0:0:0:0:
305,148,226620,2,0,P|336:124|375:113,1,80,8|0,0:0|0:0,0:0:0:0:
511,197,226905,2,0,P|518:237|507:275,1,80,8|4,0:0|0:3,0:0:0:0:
396,233,227191,1,8,0:0:0:0:
380,348,227333,6,0,P|311:312|281:239,1,160,8|8,0:0|0:0,0:0:0:0:
315,71,227762,2,0,P|319:110|305:148,1,80,12|0,0:0|0:0,0:0:0:0:
68,197,228048,2,0,P|134:155|211:171,1,160,12|8,0:0|0:0,0:0:0:0:
401,229,228477,6,0,L|279:239,1,120,4|0,0:0|0:0,0:0:0:0:
295,254,228762,1,4,0:0:0:0:
316,94,228905,1,12,0:0:0:0:
341,98,228977,1,8,0:0:0:0:
365,101,229048,2,0,P|371:118|377:151,1,40,8|8,0:0|0:0,0:0:0:0:
211,171,229191,2,0,P|180:98|212:29,1,160,8|8,0:0|0:0,0:0:0:0:
401,229,229619,6,0,L|279:239,1,120,4|0,0:0|0:0,0:0:0:0:
295,254,229904,1,4,0:3:0:0:
76,329,230049,2,0,B|130:307|130:307|58:288,1,120,8|0,0:0|0:0,0:0:0:0:
48,319,230334,2,0,L|206:294,1,160,8|8,0:0|0:0,0:0:0:0:
364,319,230763,1,4,0:0:0:0:
324,182,230905,6,0,P|299:214|294:253,1,80,8|4,0:0|0:3,0:0:0:0:
268,94,231190,2,0,P|262:54|238:23,1,80,8|0,0:0|0:0,0:0:0:0:
134,207,231476,2,0,P|173:202|205:178,1,80,8|4,0:0|0:3,0:0:0:0:
136,108,231763,1,8,0:0:0:0:
51,262,231905,6,0,P|115:305|191:290,1,160,10|8,0:0|0:0,0:0:0:0:
350,262,232333,2,0,P|314:245|275:243,1,80,12|0,0:0|0:0,0:0:0:0:
245,42,232619,2,0,P|202:82|226:202,1,160,12|8,0:0|0:0,0:0:0:0:
450,130,233048,6,0,L|329:143,1,120,4|0,0:0|0:0,0:0:0:0:
308,133,233333,1,4,0:0:0:0:
106,78,233476,2,0,P|167:30|244:41,1,160,12|10,0:0|0:0,0:0:0:0:
222,211,233905,2,0,P|197:180|194:141,1,80,2|8,0:0|0:0,0:0:0:0:
446,169,234190,6,0,P|368:180|307:132,1,160,4|4,0:0|0:3,0:0:0:0:
106,78,234619,2,0,P|167:30|244:41,1,160,8|4,0:0|0:3,0:0:0:0:
307,132,235048,2,0,L|292:239,1,80,4|8,0:3|0:0,0:0:0:0:
185,339,235333,6,0,L|175:168,1,160,4|4,0:0|0:0,0:0:0:0:
307,132,235762,2,0,L|292:239,1,80,8|0,0:0|0:0,0:0:0:0:
424,263,236048,2,0,L|412:183,1,80,8|4,0:0|0:3,0:0:0:0:
495,105,236333,1,2,0:0:0:0:
491,339,236476,6,0,P|434:366|340:318,1,160,6|4,0:0|0:3,0:0:0:0:
153,203,236905,2,0,P|210:176|304:224,1,160,12|4,0:0|0:3,0:0:0:0:
234,350,237333,2,0,L|221:272,1,80,12|0,0:0|0:0,0:0:0:0:
491,339,237619,6,0,P|434:366|340:318,1,160,4|4,0:0|0:3,0:0:0:0:
221,272,238048,2,0,L|234:350,1,80,8|0,0:0|0:0,0:0:0:0:
396,228,238333,2,0,L|382:149,1,80,8|0,0:0|0:0,0:0:0:0:
294,210,238619,1,8,0:0:0:0:
473,88,238762,6,0,L|503:265,1,160,4|4,0:0|0:3,0:0:0:0:
382,149,239190,2,0,L|396:228,1,80,8|0,0:0|0:0,0:0:0:0:
280,131,239476,2,0,L|293:209,2,80,4|4|8,0:3|0:3|0:0,0:0:0:0:
116,34,239905,6,0,P|186:68|257:36,1,160,4|4,0:0|0:0,0:0:0:0:
423,57,240333,2,0,P|384:53|347:66,1,80,8|0,0:0|0:0,0:0:0:0:
225,165,240619,2,0,P|264:161|302:174,1,80,8|4,0:0|0:3,0:0:0:0:
125,148,240905,1,2,0:0:0:0:
257,36,241048,6,0,P|186:68|116:34,1,160,6|4,0:0|0:3,0:0:0:0:
52,175,241476,2,0,P|84:152|124:147,1,80,8|2,0:0|0:0,0:0:0:0:
18,74,241762,1,2,0:0:0:0:
141,252,241905,2,0,B|133:314|133:314|100:253,1,120,8|0,0:0|0:0,0:0:0:0:
121,240,242190,6,0,L|294:208,1,160,4|4,0:0|0:3,0:0:0:0:
353,336,242619,2,0,L|273:326,1,80,12|0,0:0|0:0,0:0:0:0:
111,254,242905,2,0,P|127:290|158:316,1,80,12|4,0:0|0:3,0:0:0:0:
158,316,243333,6,0,P|111:253|124:176,1,160,6|4,0:0|0:3,0:0:0:0:
225,70,243762,2,0,L|145:82,1,80,8|0,0:0|0:0,0:0:0:0:
249,189,244048,1,4,0:3:0:0:
307,113,244190,2,0,L|387:126,1,80,4|8,0:3|0:0,0:0:0:0:
512,216,244476,6,0,P|435:214|380:269,1,160,4|4,0:0|0:3,0:0:0:0:
241,379,244905,2,0,P|285:342|284:283,1,120,12|0,0:0|0:0,0:0:0:0:
264,298,245190,1,12,0:0:0:0:
424,358,245333,1,8,0:0:0:0:
424,358,245619,6,0,P|392:288|419:215,1,160,4|4,0:0|0:3,0:0:0:0:
495,89,246048,2,0,P|507:122|504:168,1,80,8|0,0:0|0:0,0:0:0:0:
322,167,246333,1,4,0:3:0:0:
364,81,246476,2,0,P|396:103|413:138,1,80,10|2,0:0|0:0,0:0:0:0:
267,88,246762,6,0,P|197:120|127:85,1,160,4|4,0:0|0:3,0:0:0:0:
322,167,247190,2,0,P|324:202|314:240,1,80,12|0,0:0|0:0,0:0:0:0:
196,27,247476,1,12,0:0:0:0:
322,167,247619,1,0,0:0:0:0:
145,229,247762,1,12,0:0:0:0:
267,88,247905,6,0,P|338:57|408:92,1,160,4|4,0:0|0:3,0:0:0:0:
325,307,248333,2,0,P|291:238|322:167,1,160,8|2,0:0|0:0,0:0:0:0:
400,198,248690,1,2,0:0:0:0:
400,198,248762,2,0,L|474:186,2,40,2|2|10,0:0|0:0|0:0,0:0:0:0:
318,26,249048,6,0,P|352:95|321:166,1,160,4|4,0:0|0:3,0:0:0:0:
125,149,249476,2,0,P|174:117|232:129,1,120,12|0,0:0|0:0,0:0:0:0:
251,211,249762,2,0,L|246:250,1,40,14|2,0:0|0:0,0:0:0:0:
168,290,249905,2,0,L|172:329,2,40,2|2|2,0:0|0:0|0:0,0:0:0:0:
341,264,250190,6,0,P|389:296|502:245,1,160,4|4,0:0|0:3,0:0:0:0:
495,130,250619,2,0,P|446:97|334:149,1,160,8|2,0:0|0:0,0:0:0:0:
290,159,250976,1,2,0:0:0:0:
290,159,251048,2,0,P|281:127|280:109,2,40,10|2|2,0:0|0:0|0:0,0:0:0:0:
177,101,251333,6,0,P|128:133|16:82,1,160,4|4,0:0|0:3,0:0:0:0:
0,250,251762,1,10,0:0:0:0:
21,239,251833,1,2,0:0:0:0:
45,235,251905,2,0,P|55:255|63:286,1,40,2|2,0:0|0:0,0:0:0:0:
148,358,252048,2,0,P|146:315|171:262,1,80,2|4,0:0|0:3,0:0:0:0:
277,168,252333,1,10,0:0:0:0:
148,358,252476,5,4,0:0:0:0:
