osu file format v14

[General]
AudioFilename: ayfull.mp3
AudioLeadIn: 0
PreviewTime: 73657
Countdown: 0
SampleSet: Soft
StackLeniency: 0.5
Mode: 0
LetterboxInBreaks: 0
WidescreenStoryboard: 1

[Editor]
Bookmarks: 10371,19371,28514,37657,56086,65300,74371,90228,92514,101800,103943,122371,126943,136086,145228,161086,163371,177228,179514,184086,193228,202371,204657,206371,218300,225086,234228,243371,252514
DistanceSpacing: 1.3
BeatDivisor: 4
GridSize: 32
TimelineZoom: 1.7

[Metadata]
Title:Shirayuki
TitleUnicode:白ゆき
Artist:nameless
ArtistUnicode:nameless
Creator:Milan-
Version:Hard
Source:
Tags:utaite n-buna nbuna snow white shira yuki japanese novelty cover
BeatmapID:1148379
BeatmapSetID:493305

[Difficulty]
HPDrainRate:5
CircleSize:3.5
OverallDifficulty:6
ApproachRate:8
SliderMultiplier:1.3
SliderTickRate:1

[Events]
//Background and Video events
0,0,"yuri.jpg",0,0
//Break Periods
2,122533,123975
2,180619,183261
2,193390,201546
//Storyboard Layer 0 (Background)
//Storyboard Layer 1 (Fail)
//Storyboard Layer 2 (Pass)
//Storyboard Layer 3 (Foreground)
//Storyboard Layer 4 (Overlay)
//Storyboard Sound Samples

[TimingPoints]
48,285.714285714286,4,2,1,65,1,0
37619,-125,4,2,1,50,0,0
56048,-166.666666666667,4,2,1,50,0,0
59762,-125,4,2,1,50,0,0
60619,-166.666666666667,4,2,1,50,0,0
64333,-125,4,2,1,50,0,0
65190,-125,4,2,1,60,0,0
68905,-111.111111111111,4,2,1,60,0,0
69762,-125,4,2,1,60,0,0
72048,-166.666666666667,4,2,1,60,0,0
74333,-100,4,2,1,75,0,1
77619,-90.9090909090909,4,2,1,75,0,1
77905,-100,4,2,1,75,0,1
86762,-90.9090909090909,4,2,1,75,0,1
87048,-100,4,2,1,75,0,1
92333,-100,4,2,1,75,0,0
92476,-100,4,2,1,75,0,1
101762,-100,4,2,1,50,0,0
102905,-125,4,2,1,50,0,0
103905,-125,4,2,1,50,0,0
124762,-166.666666666667,4,2,1,50,0,0
130619,-125,4,2,1,50,0,0
131476,-166.666666666667,4,2,1,50,0,0
135190,-125,4,2,1,50,0,0
136047,-125,4,2,1,60,0,0
136048,-125,4,2,1,60,0,0
139762,-111.111111111111,4,2,1,60,0,0
140333,-125,4,2,1,60,0,0
142905,-166.666666666667,4,2,1,60,0,0
145190,-100,4,2,1,80,0,1
145290,-100,4,2,1,80,0,1
148476,-90.9090909090909,4,2,1,80,0,1
148576,-100,4,2,1,80,0,1
149762,-100,4,2,1,80,0,1
157619,-90.9090909090909,4,2,1,80,0,1
157719,-100,4,2,1,80,0,1
159190,-100,4,2,1,80,0,1
163190,-100,4,2,1,80,0,0
163333,-100,4,2,1,80,0,1
177048,-100,4,2,1,60,0,0
177476,-125,4,2,1,60,0,0
183905,-125,4,2,1,50,0,0
184048,-200,4,2,1,50,0,0
202190,-125,4,2,1,50,0,0
202290,-200,4,2,1,50,0,0
203476,-142.857142857143,4,2,1,60,0,0
203762,-125,4,2,1,60,0,0
204405,-125,4,2,1,70,0,0
204476,-100,4,2,1,70,0,1
204905,-100,4,2,1,75,0,1
205619,-90.9090909090909,4,2,1,75,0,1
205719,-100,4,2,1,75,0,1
214762,-90.9090909090909,4,2,1,75,0,1
214862,-100,4,2,1,75,0,1
219333,-90.9090909090909,4,2,1,75,0,1
219405,-100,4,2,1,75,0,1
224905,-100,4,2,1,75,0,0
225048,-100,4,2,1,75,0,1
234048,-100,4,2,1,75,0,0
234190,-100,4,2,1,70,0,1
243333,-100,4,2,1,65,0,0

[Colours]
Combo1 : 168,196,159
Combo2 : 187,198,208
Combo3 : 226,215,173
Combo4 : 208,187,198

[HitObjects]
413,238,19333,6,0,P|357:268|298:248,1,130,4|4,0:1|0:3,0:0:0:0:
242,183,19762,2,0,L|252:110,1,65,8|0,0:0|0:0,0:0:0:0:
327,82,20048,2,0,L|318:17,2,65,4|4|8,0:3|0:3|0:0,0:0:0:0:
221,32,20476,6,0,P|161:11|106:42,1,130,4|4,0:0|0:3,0:0:0:0:
66,117,20905,2,0,L|86:254,1,130,12|14,0:0|0:0,0:0:0:0:
168,171,21333,1,10,0:0:0:0:
168,170,21619,6,0,P|231:174|270:223,1,130,4|4,0:0|0:3,0:0:0:0:
279,308,22048,2,0,P|332:336|401:305,1,130,8|4,0:0|0:3,0:0:0:0:
461,262,22476,2,0,L|454:188,1,65,8|0,0:0|0:0,0:0:0:0:
353,119,22762,6,0,L|342:248,1,130,4|4,0:0|0:3,0:0:0:0:
279,308,23190,2,0,P|231:324|192:307,1,65,12|0,0:0|0:0,0:0:0:0:
149,371,23476,2,0,P|103:348|88:308,1,65,14|0,0:0|0:0,0:0:0:0:
33,280,23762,1,10,0:0:0:0:
160,245,23905,6,0,L|146:90,1,130,4|4,0:0|0:3,0:0:0:0:
182,38,24333,2,0,P|223:68|239:105,1,65,10|0,0:0|0:0,0:0:0:0:
311,103,24619,2,0,P|314:75|302:38,2,65,4|4|8,0:3|0:3|0:0,0:0:0:0:
252,213,25048,6,0,P|308:183|368:203,1,130,4|4,0:0|0:3,0:0:0:0:
430,146,25476,2,0,L|404:299,1,130,12|14,0:0|0:0,0:0:0:0:
503,233,25904,1,10,0:0:0:0:
503,233,26190,6,0,L|477:386,1,130,4|4,0:0|0:3,0:0:0:0:
396,351,26619,2,0,L|418:223,1,130,8|4,0:0|0:3,0:0:0:0:
333,212,27048,2,0,L|316:305,1,65,8|2,0:0|0:0,0:0:0:0:
260,172,27333,6,0,P|224:141|142:144,1,130,4|4,0:0|0:3,0:0:0:0:
79,195,27762,2,0,P|31:211|-8:194,1,65,12|0,0:0|0:0,0:0:0:0:
6,124,28048,2,0,P|54:108|93:125,1,65,14|10,0:0|0:0,0:0:0:0:
375,201,28476,6,0,P|311:208|259:171,1,130,4|4,0:0|0:3,0:0:0:0:
186,128,28905,2,0,L|176:201,1,65,8|0,0:0|0:0,0:0:0:0:
95,217,29191,2,0,L|104:282,2,65,4|4|8,0:3|0:3|0:0,0:0:0:0:
193,284,29619,6,0,P|253:305|308:274,1,130,4|4,0:0|0:3,0:0:0:0:
391,259,30048,2,0,L|371:122,1,130,12|14,0:0|0:0,0:0:0:0:
465,181,30476,1,10,0:0:0:0:
465,181,30762,6,0,P|483:124|450:50,1,130,4|4,0:0|0:3,0:0:0:0:
386,18,31190,2,0,P|336:57|273:51,1,130,8|4,0:0|0:3,0:0:0:0:
189,35,31619,2,0,L|196:109,1,65,8|0,0:0|0:0,0:0:0:0:
97,157,31905,6,0,L|108:28,1,130,4|4,0:0|0:3,0:0:0:0:
26,49,32333,2,0,L|19:122,1,65,8|0,0:0|0:0,0:0:0:0:
97,157,32619,2,0,L|90:230,1,65,14|0,0:0|0:0,0:0:0:0:
164,268,32905,1,10,0:0:0:0:
104,354,33048,6,0,P|155:318|217:333,1,130,4|4,0:0|0:3,0:0:0:0:
292,370,33476,2,0,P|324:373|356:368,1,65,10|0,0:0|0:0,0:0:0:0:
407,299,33762,2,0,P|432:278|451:252,2,65,4|4|8,0:3|0:3|0:0,0:0:0:0:
312,244,34190,6,0,P|365:225|388:149,1,130,4|4,0:0|0:3,0:0:0:0:
452,102,34619,2,0,L|304:118,1,130,12|14,0:0|0:0,0:0:0:0:
238,125,35047,1,10,0:0:0:0:
238,125,35333,6,0,P|184:106|161:30,1,130,4|4,0:0|0:3,0:0:0:0:
80,9,35762,2,0,L|58:137,1,130,8|4,0:0|0:3,0:0:0:0:
133,177,36191,2,0,L|115:239,1,65,8|2,0:0|0:0,0:0:0:0:
169,353,36476,6,0,P|189:293|247:269,1,130,4|4,0:0|0:3,0:0:0:0:
331,252,36905,2,0,P|348:224|351:192,1,65,12|2,0:0|0:0,0:0:0:0:
420,143,37190,2,0,P|416:110|399:83,1,65,2|4,0:0|0:3,0:0:0:0:
422,1,37476,1,10,0:0:0:0:
311,83,37619,6,0,B|276:95|276:95|210:80,1,104,4|4,0:0|0:3,0:0:0:0:
150,22,38048,2,0,L|33:39,1,104,8|4,0:0|0:3,0:0:0:0:
27,117,38476,1,4,0:3:0:0:
97,161,38619,2,0,P|107:184|105:210,1,52,8|0,0:0|0:0,0:0:0:0:
58,293,38905,2,0,L|160:278,2,104,2|10|2,0:0|0:0|0:0,0:0:0:0:
3,230,39619,2,0,P|1:204|11:180,1,52,4|10,0:3|0:0,0:0:0:0:
79,131,39905,6,0,P|123:141|187:97,1,104,4|4,0:3|0:3,0:0:0:0:
236,60,40333,2,0,P|286:50|331:74,1,104,10|4,0:0|0:3,0:0:0:0:
371,148,40762,2,0,L|360:177,2,26,10|10|10,0:0|0:0|0:0,0:0:0:0:
477,121,41048,6,0,L|432:234,1,104,8|4,0:0|0:3,0:0:0:0:
315,270,41476,2,0,L|366:259,1,52,8|2,0:0|0:0,0:0:0:0:
488,312,41762,2,0,L|438:301,1,52,8|2,0:0|0:0,0:0:0:0:
365,342,42048,1,8,0:0:0:0:
437,216,42190,6,0,P|402:180|352:174,1,104,4|4,0:0|0:3,0:0:0:0:
270,199,42619,2,0,P|222:215|174:199,1,104,8|4,0:0|0:3,0:0:0:0:
108,146,43048,2,0,L|119:82,1,52,4|8,0:3|0:0,0:0:0:0:
25,120,43333,2,0,L|37:237,1,104,0|4,0:0|0:3,0:0:0:0:
32,307,43762,2,0,L|86:315,1,52,8|0,0:0|0:0,0:0:0:0:
161,223,44048,2,0,L|215:215,1,52,8|4,0:0|0:3,0:0:0:0:
212,215,44476,6,0,L|200:332,1,104,4|4,0:0|0:3,0:0:0:0:
315,360,44905,2,0,L|304:256,1,104,10|4,0:0|0:3,0:0:0:0:
212,215,45333,2,0,L|220:148,1,52,10|0,0:0|0:0,0:0:0:0:
300,74,45619,2,0,P|250:85|207:59,1,104,12|4,0:0|0:3,0:0:0:0:
94,17,46048,2,0,L|144:3,1,52,14|0,0:0|0:0,0:0:0:0:
138,117,46333,2,0,L|88:102,1,52,14|4,0:0|0:3,0:0:0:0:
88,102,46762,6,0,P|113:146|105:196,1,104,4|4,0:0|0:3,0:0:0:0:
58,265,47190,2,0,L|180:245,1,104,8|4,0:0|0:3,0:0:0:0:
229,201,47618,1,4,0:3:0:0:
295,250,47762,2,0,P|305:273|303:299,1,52,8|0,0:0|0:0,0:0:0:0:
366,355,48048,2,0,L|468:371,2,104,2|10|2,0:0|0:0|0:0,0:0:0:0:
303,299,48762,2,0,P|301:273|311:249,1,52,4|10,0:3|0:0,0:0:0:0:
369,187,49048,6,0,P|384:139|366:91,1,104,2|4,0:0|0:3,0:0:0:0:
298,43,49476,2,0,P|282:91|300:139,1,104,8|4,0:0|0:3,0:0:0:0:
284,222,49905,2,0,P|259:213|240:196,1,52,2|8,0:0|0:0,0:0:0:0:
369,187,50190,6,0,P|386:234|371:283,1,104,6|4,0:0|0:3,0:0:0:0:
304,377,50619,2,0,L|355:366,1,52,8|2,0:0|0:0,0:0:0:0:
270,302,50905,2,0,L|219:313,1,52,8|2,0:0|0:0,0:0:0:0:
139,338,51190,1,8,0:0:0:0:
219,230,51333,6,0,P|235:177|201:123,1,104,4|4,0:0|0:3,0:0:0:0:
138,100,51762,2,0,L|32:129,1,104,8|4,0:0|0:3,0:0:0:0:
84,194,52190,2,0,P|91:220|90:245,1,52,4|8,0:3|0:0,0:0:0:0:
49,319,52476,2,0,L|149:291,1,104,4|4,0:0|0:3,0:0:0:0:
229,266,52905,2,0,P|253:293|257:324,1,52,8|0,0:0|0:0,0:0:0:0:
340,305,53190,2,0,P|337:341|318:365,1,52,2|4,0:0|0:3,0:0:0:0:
410,377,53476,1,10,0:0:0:0:
478,328,53619,6,0,P|494:280|479:231,1,104,4|4,0:0|0:3,0:0:0:0:
395,185,54048,2,0,P|344:195|309:232,1,104,8|4,0:0|0:3,0:0:0:0:
312,328,54476,2,0,P|346:366|395:377,1,104,8|4,0:0|0:3,0:0:0:0:
492,332,54905,6,0,P|508:283|493:234,1,104,8|4,0:0|0:3,0:0:0:0:
389,175,55334,2,0,P|338:185|303:222,1,104,8|4,0:0|0:3,0:0:0:0:
306,343,55762,1,8,0:0:0:0:
306,343,56048,6,0,P|272:322|191:357,2,116.999996429443,4|4|4,0:0|0:0|0:0,0:0:0:0:
495,187,57333,1,4,0:3:0:0:
495,187,57476,2,0,L|374:170,1,116.999996429443,10|4,0:0|0:3,0:0:0:0:
297,158,58048,1,10,0:0:0:0:
198,27,58333,6,0,P|231:47|313:13,2,116.999996429443,4|4|4,0:0|0:0|0:0,0:0:0:0:
9,183,59618,1,4,0:3:0:0:
9,183,59762,2,0,L|76:193,1,52,10|0,0:0|0:0,0:0:0:0:
162,146,60048,2,0,L|202:200,1,52,10|0,0:0|0:0,0:0:0:0:
304,190,60333,2,0,L|294:257,1,52,2|0,0:0|0:0,0:0:0:0:
306,343,60619,6,0,P|272:322|191:357,2,116.999996429443,4|4|4,0:0|0:0|0:0,0:0:0:0:
495,187,61904,1,4,0:3:0:0:
495,187,62047,2,0,L|374:170,1,116.999996429443,10|4,0:0|0:3,0:0:0:0:
297,158,62619,1,10,0:0:0:0:
198,27,62904,6,0,P|231:47|313:13,1,116.999996429443,4|4,0:0|0:0,0:0:0:0:
383,13,63476,2,0,L|388:59,1,38.9999988098145,0|2,0:0|0:0,0:0:0:0:
390,61,63690,1,8,0:0:0:0:
393,70,63762,2,0,L|378:191,1,116.999996429443,12|4,0:0|0:3,0:0:0:0:
236,199,64333,6,0,L|284:180,1,52,10|0,0:0|0:0,0:0:0:0:
374,282,64619,2,0,L|325:263,1,52,10|4,0:0|0:3,0:0:0:0:
143,156,65048,5,8,0:0:0:0:
143,156,65190,2,0,P|130:191|152:264,1,104,4|8,0:0|0:0,0:0:0:0:
182,329,65619,2,0,L|294:305,1,104,4|4,0:0|0:3,0:0:0:0:
289,223,66048,2,0,L|401:247,1,104,12|4,0:0|0:3,0:0:0:0:
471,265,66476,1,4,0:3:0:0:
451,183,66619,2,0,P|445:164|445:118,1,52,10|0,0:0|0:0,0:0:0:0:
360,147,66905,2,0,P|359:127|371:82,1,52,2|0,0:0|0:0,0:0:0:0:
282,87,67190,2,0,P|286:67|309:27,1,52,10|0,0:0|0:0,0:0:0:0:
197,84,67476,6,0,P|166:89|98:55,1,104,4|8,0:0|0:0,0:0:0:0:
21,83,67905,2,0,L|34:188,1,104,4|8,0:3|0:0,0:0:0:0:
29,201,68262,1,8,0:0:0:0:
23,215,68333,2,0,P|62:242|124:225,1,104,8|4,0:0|0:3,0:0:0:0:
172,171,68762,1,4,0:3:0:0:
254,239,68905,6,0,L|197:251,1,58.4999982147217,8|8,0:0|0:0,0:0:0:0:
139,341,69190,2,0,L|81:329,2,58.4999982147217,8|2|0,0:0|0:0|0:0,0:0:0:0:
139,341,69762,6,0,P|181:313|231:323,1,104,4|8,0:0|0:0,0:0:0:0:
311,301,70190,2,0,P|360:311|403:283,1,104,4|0,0:0|0:0,0:0:0:0:
453,216,70619,2,0,L|445:157,1,52,12|0,0:0|0:0,0:0:0:0:
480,88,70905,6,0,P|437:115|387:105,1,104,4|8,0:3|0:0,0:0:0:0:
308,128,71333,2,0,P|258:117|215:145,1,104,4|4,0:0|0:3,0:0:0:0:
166,213,71762,2,0,L|174:272,1,52,12|4,0:0|0:3,0:0:0:0:
84,203,72048,5,4,0:0:0:0:
303,317,72476,1,4,0:3:0:0:
234,363,72619,2,0,L|177:357,2,38.9999988098145,8|8|8,0:0|0:0|0:0,0:0:0:0:
303,317,73048,2,0,L|392:325,1,77.999997619629,4|4,0:0|0:3,0:0:0:0:
482,253,73476,2,0,L|405:246,1,77.999997619629,10|4,0:0|0:0,0:0:0:0:
174,55,74333,6,0,P|194:80|205:111,1,65,4|0,0:1|0:0,0:0:0:0:
289,101,74619,2,0,P|286:133|272:162,1,65,12|0,0:0|0:0,0:0:0:0:
245,247,74905,2,0,P|284:198|347:201,1,130,4|8,0:3|0:0,0:0:0:0:
430,185,75333,1,0,0:0:0:0:
401,264,75476,6,0,L|417:332,1,65,4|4,0:3|0:3,0:0:0:0:
482,253,75762,1,8,0:0:0:0:
430,185,75905,2,0,L|400:58,1,130,4|2,0:3|0:0,0:0:0:0:
321,29,76333,1,10,0:0:0:0:
321,29,76405,1,8,0:0:0:0:
321,29,76476,1,10,0:0:0:0:
257,86,76619,6,0,P|225:87|194:80,1,65,4|4,0:0|0:3,0:0:0:0:
114,49,76905,2,0,P|146:102|124:161,1,130,8|4,0:0|0:3,0:0:0:0:
44,255,77333,2,0,P|75:247|107:249,1,65,8|2,0:0|0:0,0:0:0:0:
216,303,77619,6,0,P|194:238|237:185,1,143.000004364014,6|4,0:0|0:3,0:0:0:0:
321,201,78048,1,14,0:0:0:0:
179,108,78333,1,14,0:0:0:0:
331,34,78619,1,14,0:0:0:0:
321,201,78905,6,0,L|332:286,1,65,6|4,0:0|0:3,0:0:0:0:
413,334,79190,2,0,L|422:196,1,130,8|4,0:0|0:3,0:0:0:0:
447,123,79619,1,4,0:3:0:0:
363,137,79762,2,0,P|341:137|289:118,1,65,8|2,0:0|0:0,0:0:0:0:
237,67,80048,6,0,P|180:38|120:60,1,130,6|8,0:0|0:0,0:0:0:0:
40,85,80476,1,0,0:0:0:0:
100,143,80619,2,0,L|95:218,1,65,8|2,0:0|0:0,0:0:0:0:
179,191,80905,2,0,L|183:255,1,65,10|2,0:0|0:0,0:0:0:0:
194,352,81190,6,0,P|243:312|307:314,1,130,4|8,0:0|0:0,0:0:0:0:
403,237,81619,2,0,P|339:239|289:199,1,130,4|4,0:0|0:3,0:0:0:0:
364,158,82048,1,8,0:0:0:0:
235,123,82190,6,0,P|171:120|121:160,1,130,4|4,0:0|0:3,0:0:0:0:
46,236,82619,2,0,L|37:172,1,65,10|0,0:0|0:0,0:0:0:0:
134,244,82905,2,0,L|124:308,1,65,10|4,0:0|0:3,0:0:0:0:
221,269,83190,2,0,L|295:255,1,65,10|10,0:0|0:0,0:0:0:0:
386,189,83476,6,0,P|353:186|326:168,1,65,4|0,0:0|0:0,0:0:0:0:
241,175,83762,2,0,P|220:150|213:118,1,65,12|0,0:0|0:0,0:0:0:0:
130,99,84048,2,0,P|137:36|188:-1,1,130,4|8,0:3|0:0,0:0:0:0:
262,40,84476,1,2,0:0:0:0:
341,11,84619,6,0,L|405:4,1,65,6|4,0:0|0:3,0:0:0:0:
331,95,84905,1,8,0:0:0:0:
414,86,85048,2,0,P|454:137|451:200,1,130,2|2,0:0|0:0,0:0:0:0:
372,230,85476,1,10,0:0:0:0:
433,297,85619,6,0,L|304:276,1,130,6|4,0:0|0:3,0:0:0:0:
220,264,86048,2,0,P|197:205|229:151,1,130,8|4,0:0|0:3,0:0:0:0:
281,57,86476,2,0,L|216:61,1,65,8|2,0:0|0:0,0:0:0:0:
143,0,86762,6,0,P|165:65|122:118,1,143.000004364014,4|4,0:0|0:3,0:0:0:0:
36,118,87191,1,12,0:0:0:0:
193,177,87476,1,12,0:0:0:0:
63,285,87762,1,12,0:0:0:0:
193,176,88048,6,0,P|250:149|313:160,1,130,6|8,0:0|0:0,0:0:0:0:
379,214,88476,2,0,P|442:225|499:197,1,130,0|4,0:0|0:3,0:0:0:0:
505,112,88905,2,0,L|495:48,1,65,8|2,0:0|0:0,0:0:0:0:
395,0,89190,6,0,L|385:64,1,65,4|4,0:0|0:3,0:0:0:0:
303,38,89476,2,0,P|298:65|312:115,1,65,12|0,0:0|0:0,0:0:0:0:
327,183,89762,2,0,L|249:174,1,65,12|4,0:0|0:3,0:0:0:0:
197,120,90048,1,10,0:0:0:0:
191,225,90190,6,0,B|155:244|155:244|55:231,1,130,4|4,0:0|0:3,0:0:0:0:
1,329,90619,2,0,B|37:310|37:310|137:323,1,130,8|4,0:0|0:3,0:0:0:0:
231,371,91048,2,0,L|220:281,1,65,8|0,0:0|0:0,0:0:0:0:
328,223,91333,6,0,L|325:360,1,130,8|4,0:0|0:3,0:0:0:0:
412,282,91762,2,0,P|440:268|479:268,1,65,8|0,0:0|0:0,0:0:0:0:
511,180,92048,2,0,P|478:178|449:164,1,65,8|4,0:0|0:3,0:0:0:0:
261,22,92476,6,0,P|323:20|364:68,1,130,6|4,0:0|0:3,0:0:0:0:
361,153,92905,2,0,L|282:148,1,65,10|0,0:0|0:0,0:0:0:0:
224,103,93190,2,0,P|161:101|120:149,1,130,10|10,0:0|0:0,0:0:0:0:
179,210,93619,1,4,0:0:0:0:
124,298,93763,6,0,L|189:291,1,65,8|4,0:0|0:3,0:0:0:0:
261,194,94048,2,0,L|326:201,1,65,10|0,0:0|0:0,0:0:0:0:
330,318,94333,2,0,L|395:311,1,65,10|4,0:0|0:3,0:0:0:0:
411,227,94619,1,10,0:0:0:0:
325,200,94762,6,0,P|314:138|360:95,1,130,8|8,0:0|0:0,0:0:0:0:
428,44,95190,2,0,L|268:40,1,130,12|12,0:0|0:0,0:0:0:0:
219,7,95619,2,0,L|141:16,1,65,0|4,0:0|0:3,0:0:0:0:
36,0,95905,6,0,P|81:42|71:104,1,130,4|4,0:0|0:3,0:0:0:0:
26,176,96333,2,0,L|44:248,1,65,8|8,0:0|0:0,0:0:0:0:
41,257,96548,1,8,0:0:0:0:
39,273,96619,2,0,P|99:256|154:288,1,130,8|8,0:0|0:0,0:0:0:0:
228,203,97048,6,0,P|288:220|343:188,1,130,4|4,0:0|0:3,0:0:0:0:
415,144,97476,2,0,L|425:215,1,65,10|0,0:0|0:0,0:0:0:0:
503,238,97762,2,0,L|512:83,1,130,10|10,0:0|0:0,0:0:0:0:
438,62,98191,1,4,0:0:0:0:
349,133,98333,6,0,L|414:143,1,65,8|0,0:0|0:0,0:0:0:0:
349,45,98619,2,0,L|284:54,1,65,10|0,0:0|0:0,0:0:0:0:
204,125,98905,2,0,L|268:134,1,65,10|0,0:0|0:0,0:0:0:0:
199,43,99191,1,10,0:0:0:0:
129,90,99333,6,0,P|110:120|110:164,1,65,10|6,0:0|0:0,0:0:0:0:
49,211,99619,2,0,L|189:189,1,130,4|0,0:0|0:0,0:0:0:0:
162,274,100048,2,0,L|302:252,1,130,12|8,0:0|0:0,0:0:0:0:
389,311,100477,6,0,P|378:249|424:206,1,130,4|4,0:0|0:3,0:0:0:0:
499,167,100905,2,0,L|485:83,1,65,12|0,0:0|0:0,0:0:0:0:
404,113,101190,2,0,L|418:29,1,65,2|2,0:0|0:0,0:0:0:0:
329,59,101476,2,0,P|284:16|221:21,1,130,8|4,0:0|0:0,0:0:0:0:
194,237,102333,5,4,0:3:0:0:
0,117,102762,5,8,0:0:0:0:
0,117,102833,1,8,0:0:0:0:
0,117,102905,2,0,L|115:93,1,104,12|8,0:0|0:0,0:0:0:0:
207,45,103333,2,0,L|189:112,1,52,8|0,0:0|0:0,0:0:0:0:
99,182,103619,2,0,L|117:249,1,52,8|0,0:0|0:0,0:0:0:0:
201,301,103905,6,0,B|236:289|236:289|302:304,1,104,4|4,0:0|0:3,0:0:0:0:
362,362,104334,2,0,L|479:345,1,104,8|0,0:0|0:0,0:0:0:0:
485,267,104762,1,4,0:3:0:0:
415,223,104905,2,0,P|405:200|407:174,1,52,8|0,0:0|0:0,0:0:0:0:
454,91,105191,2,0,L|352:106,2,104,2|10|2,0:0|0:0|0:0,0:0:0:0:
509,154,105905,2,0,P|511:180|501:204,1,52,4|10,0:3|0:0,0:0:0:0:
433,253,106191,6,0,P|389:243|325:287,1,104,4|4,0:3|0:3,0:0:0:0:
276,324,106619,2,0,P|226:334|181:310,1,104,10|4,0:0|0:3,0:0:0:0:
141,236,107048,2,0,L|152:207,2,26,8|0|8,0:0|0:0|0:0,0:0:0:0:
35,263,107334,6,0,L|80:150,1,104,8|0,0:0|0:0,0:0:0:0:
197,114,107762,2,0,L|146:125,1,52,8|2,0:0|0:0,0:0:0:0:
24,72,108048,2,0,L|74:83,1,52,8|2,0:0|0:0,0:0:0:0:
147,42,108334,1,8,0:0:0:0:
75,168,108476,6,0,P|110:204|160:210,1,104,4|4,0:0|0:3,0:0:0:0:
242,185,108905,2,0,P|290:169|338:185,1,104,8|4,0:0|0:3,0:0:0:0:
404,238,109334,2,0,L|393:302,1,52,4|8,0:3|0:0,0:0:0:0:
487,264,109619,2,0,L|475:147,1,104,0|4,0:0|0:3,0:0:0:0:
480,77,110048,2,0,L|426:69,1,52,8|0,0:0|0:0,0:0:0:0:
351,161,110334,2,0,L|297:169,1,52,8|0,0:0|0:0,0:0:0:0:
300,169,110762,6,0,L|312:52,1,104,4|4,0:0|0:3,0:0:0:0:
197,24,111191,2,0,L|208:128,1,104,10|0,0:0|0:0,0:0:0:0:
300,169,111619,2,0,L|292:236,1,52,10|0,0:0|0:0,0:0:0:0:
212,310,111905,2,0,P|262:299|305:325,1,104,12|4,0:0|0:3,0:0:0:0:
418,367,112334,2,0,L|368:381,1,52,14|0,0:0|0:0,0:0:0:0:
374,267,112619,2,0,L|424:282,1,52,14|4,0:0|0:3,0:0:0:0:
424,282,113048,6,0,P|399:238|407:188,1,104,4|4,0:0|0:3,0:0:0:0:
454,119,113476,2,0,L|332:139,1,104,8|4,0:0|0:3,0:0:0:0:
283,183,113904,1,4,0:3:0:0:
217,134,114047,2,0,P|207:111|209:85,1,52,8|0,0:0|0:0,0:0:0:0:
146,29,114334,2,0,L|44:13,2,104,2|10|2,0:0|0:0|0:0,0:0:0:0:
209,85,115048,2,0,P|211:111|201:135,1,52,4|10,0:3|0:0,0:0:0:0:
143,197,115334,6,0,P|128:245|146:293,1,104,4|4,0:3|0:3,0:0:0:0:
214,341,115762,2,0,P|230:293|212:245,1,104,8|4,0:0|0:3,0:0:0:0:
228,162,116191,2,0,P|253:171|272:188,1,52,2|8,0:0|0:0,0:0:0:0:
143,197,116476,6,0,P|126:150|141:101,1,104,4|4,0:0|0:3,0:0:0:0:
208,7,116905,2,0,L|157:18,1,52,8|2,0:0|0:0,0:0:0:0:
242,82,117191,2,0,L|293:71,1,52,8|2,0:0|0:0,0:0:0:0:
373,46,117476,1,8,0:0:0:0:
293,154,117619,6,0,P|277:207|311:261,1,104,4|4,0:0|0:3,0:0:0:0:
374,284,118048,2,0,L|480:255,1,104,8|4,0:0|0:3,0:0:0:0:
428,190,118476,2,0,P|421:164|422:139,1,52,4|8,0:3|0:0,0:0:0:0:
463,65,118762,2,0,L|363:93,1,104,4|4,0:0|0:3,0:0:0:0:
283,118,119191,2,0,P|259:91|255:60,1,52,10|0,0:0|0:0,0:0:0:0:
172,79,119476,2,0,P|175:43|194:19,1,52,2|4,0:0|0:3,0:0:0:0:
102,7,119762,1,10,0:0:0:0:
34,56,119905,6,0,P|18:104|33:153,1,104,4|4,0:0|0:3,0:0:0:0:
117,199,120334,2,0,P|168:189|203:152,1,104,10|0,0:0|0:0,0:0:0:0:
200,56,120762,2,0,P|166:18|117:7,1,104,10|4,0:0|0:3,0:0:0:0:
20,52,121191,6,0,P|4:101|19:150,1,104,10|0,0:0|0:0,0:0:0:0:
123,209,121619,2,0,P|174:199|209:162,1,104,10|0,0:0|0:0,0:0:0:0:
221,48,122048,2,0,P|187:10|138:-1,1,104,10|12,0:0|0:3,0:0:0:0:
430,127,124762,5,4,0:3:0:0:
430,127,124905,2,0,L|338:123,1,77.999997619629,4|4,0:0|0:3,0:0:0:0:
378,204,125333,2,0,L|286:200,1,77.999997619629,4|4,0:0|0:3,0:0:0:0:
329,280,125762,2,0,L|284:278,1,38.9999988098145,8|0,0:0|0:0,0:0:0:0:
221,229,126048,2,0,P|188:182|194:125,1,116.999996429443,4|4,0:0|0:3,0:0:0:0:
206,41,126619,1,8,0:0:0:0:
206,41,126905,6,0,P|240:62|321:27,2,116.999996429443,4|4|4,0:0|0:0|0:0,0:0:0:0:
17,197,128190,1,4,0:3:0:0:
17,197,128333,2,0,L|138:214,1,116.999996429443,10|4,0:0|0:3,0:0:0:0:
215,226,128905,1,10,0:0:0:0:
314,357,129190,6,0,P|281:337|199:371,2,116.999996429443,4|4|4,0:0|0:0|0:0,0:0:0:0:
503,201,130475,1,4,0:3:0:0:
503,201,130619,2,0,L|436:191,1,52,10|0,0:0|0:0,0:0:0:0:
350,238,130905,2,0,L|310:184,1,52,10|0,0:0|0:0,0:0:0:0:
208,194,131190,2,0,L|218:127,1,52,2|0,0:0|0:0,0:0:0:0:
206,41,131476,6,0,P|240:62|321:27,2,116.999996429443,4|4|4,0:0|0:0|0:0,0:0:0:0:
17,197,132761,1,4,0:3:0:0:
17,197,132904,2,0,L|138:214,1,116.999996429443,10|4,0:0|0:3,0:0:0:0:
215,226,133476,1,10,0:0:0:0:
314,357,133761,6,0,P|281:337|199:371,1,116.999996429443,4|4,0:0|0:0,0:0:0:0:
129,371,134333,2,0,L|119:318,1,38.9999988098145,0|2,0:0|0:0,0:0:0:0:
120,323,134548,1,8,0:0:0:0:
119,314,134619,2,0,L|134:193,1,116.999996429443,12|4,0:0|0:3,0:0:0:0:
276,185,135190,6,0,L|228:204,1,52,10|0,0:0|0:0,0:0:0:0:
138,102,135476,2,0,L|187:121,1,52,10|4,0:0|0:3,0:0:0:0:
369,228,135905,5,8,0:0:0:0:
369,228,136047,2,0,P|382:193|360:120,1,104,4|8,0:0|0:0,0:0:0:0:
330,55,136476,2,0,L|218:79,1,104,4|4,0:0|0:3,0:0:0:0:
223,161,136905,2,0,L|111:137,1,104,12|4,0:0|0:3,0:0:0:0:
41,119,137333,1,4,0:3:0:0:
61,201,137476,2,0,P|67:220|67:266,1,52,10|0,0:0|0:0,0:0:0:0:
152,237,137762,2,0,P|153:257|141:302,1,52,2|4,0:0|0:3,0:0:0:0:
230,297,138047,2,0,P|226:317|203:357,1,52,10|0,0:0|0:0,0:0:0:0:
315,300,138333,6,0,P|346:295|414:329,1,104,4|8,0:0|0:0,0:0:0:0:
491,301,138762,2,0,L|478:196,1,104,4|8,0:3|0:0,0:0:0:0:
483,183,139119,1,8,0:0:0:0:
489,169,139190,2,0,P|450:142|388:159,1,104,8|4,0:0|0:3,0:0:0:0:
340,213,139619,1,4,0:3:0:0:
258,145,139762,6,0,L|315:133,1,58.4999982147217,8|8,0:0|0:0,0:0:0:0:
373,43,140047,2,0,L|431:55,2,58.4999982147217,8|2|4,0:0|0:0|0:3,0:0:0:0:
373,43,140619,6,0,P|331:71|281:61,1,104,4|8,0:0|0:0,0:0:0:0:
201,83,141047,2,0,P|152:73|109:101,1,104,4|4,0:0|0:3,0:0:0:0:
59,168,141476,2,0,L|67:227,1,52,12|0,0:0|0:0,0:0:0:0:
32,296,141762,6,0,P|75:269|125:279,1,104,4|8,0:3|0:0,0:0:0:0:
204,256,142190,2,0,P|254:267|297:239,1,104,4|4,0:0|0:3,0:0:0:0:
346,171,142619,2,0,L|338:112,1,52,12|4,0:0|0:3,0:0:0:0:
428,181,142905,5,4,0:0:0:0:
219,62,143333,1,4,0:3:0:0:
288,16,143476,2,0,L|345:22,2,38.9999988098145,8|8|8,0:0|0:0|0:0,0:0:0:0:
219,62,143905,2,0,L|130:54,1,77.999997619629,4|4,0:0|0:3,0:0:0:0:
40,126,144333,2,0,L|117:133,1,77.999997619629,10|4,0:0|0:0,0:0:0:0:
338,329,145190,6,0,P|318:304|307:273,1,65,4|0,0:0|0:0,0:0:0:0:
223,283,145476,2,0,P|226:251|240:222,1,65,12|0,0:0|0:0,0:0:0:0:
267,137,145762,2,0,P|228:186|165:183,1,130,4|8,0:3|0:0,0:0:0:0:
82,199,146190,1,2,0:0:0:0:
111,120,146333,6,0,L|95:52,1,65,2|4,0:0|0:3,0:0:0:0:
30,131,146619,1,8,0:0:0:0:
82,199,146762,2,0,L|112:326,1,130,4|0,0:3|0:0,0:0:0:0:
191,355,147190,1,8,0:0:0:0:
191,355,147262,1,8,0:0:0:0:
191,355,147333,1,8,0:0:0:0:
255,298,147476,6,0,P|287:297|318:304,1,65,4|4,0:0|0:3,0:0:0:0:
398,335,147762,2,0,P|366:282|388:223,1,130,8|4,0:0|0:3,0:0:0:0:
468,129,148190,2,0,P|437:137|405:135,1,65,8|2,0:0|0:0,0:0:0:0:
296,81,148476,6,0,P|318:146|275:199,1,143.000004364014,6|4,0:0|0:3,0:0:0:0:
191,183,148905,1,12,0:0:0:0:
333,276,149190,1,12,0:0:0:0:
181,350,149476,1,12,0:0:0:0:
191,183,149762,6,0,L|180:98,1,65,6|4,0:0|0:3,0:0:0:0:
99,50,150047,2,0,L|90:188,1,130,8|4,0:0|0:3,0:0:0:0:
65,261,150476,1,4,0:3:0:0:
149,247,150619,2,0,P|171:247|223:266,1,65,8|2,0:0|0:0,0:0:0:0:
275,317,150905,6,0,P|332:346|392:324,1,130,6|8,0:0|0:0,0:0:0:0:
472,299,151333,1,0,0:0:0:0:
412,241,151476,2,0,L|417:166,1,65,8|2,0:0|0:0,0:0:0:0:
333,193,151762,2,0,L|329:129,1,65,10|2,0:0|0:0,0:0:0:0:
318,32,152047,6,0,P|269:72|205:70,1,130,4|8,0:0|0:0,0:0:0:0:
109,147,152476,2,0,P|173:145|223:185,1,130,4|4,0:0|0:3,0:0:0:0:
148,226,152905,1,8,0:0:0:0:
277,261,153047,6,0,P|341:264|391:224,1,130,4|4,0:0|0:3,0:0:0:0:
466,148,153476,2,0,L|475:212,1,65,10|0,0:0|0:0,0:0:0:0:
378,140,153762,2,0,L|388:76,1,65,10|4,0:0|0:3,0:0:0:0:
291,115,154047,2,0,L|217:129,1,65,10|8,0:0|0:0,0:0:0:0:
126,195,154333,6,0,P|159:198|186:216,1,65,4|0,0:0|0:0,0:0:0:0:
271,209,154619,2,0,P|292:234|299:266,1,65,12|0,0:0|0:0,0:0:0:0:
382,285,154905,2,0,P|375:348|324:385,1,130,4|8,0:3|0:0,0:0:0:0:
250,344,155333,1,2,0:0:0:0:
171,373,155476,6,0,L|107:380,1,65,6|4,0:0|0:3,0:0:0:0:
181,289,155762,1,8,0:0:0:0:
98,298,155905,2,0,P|58:247|61:184,1,130,2|2,0:0|0:0,0:0:0:0:
140,154,156333,1,10,0:0:0:0:
79,87,156476,6,0,L|208:108,1,130,6|4,0:0|0:3,0:0:0:0:
292,120,156905,2,0,P|315:179|283:233,1,130,8|4,0:0|0:3,0:0:0:0:
231,327,157333,2,0,L|296:323,1,65,8|2,0:0|0:0,0:0:0:0:
369,384,157619,6,0,P|347:319|390:266,1,143.000004364014,4|4,0:0|0:3,0:0:0:0:
476,266,158048,1,12,0:0:0:0:
319,207,158333,1,12,0:0:0:0:
449,99,158619,1,12,0:0:0:0:
319,208,158905,6,0,P|262:235|199:224,1,130,6|8,0:0|0:0,0:0:0:0:
133,170,159333,2,0,P|70:159|13:187,1,130,0|4,0:0|0:3,0:0:0:0:
7,272,159762,2,0,L|17:336,1,65,8|2,0:0|0:0,0:0:0:0:
117,384,160047,6,0,L|127:320,1,65,4|0,0:0|0:0,0:0:0:0:
209,346,160333,2,0,P|214:319|200:269,1,65,4|0,0:0|0:0,0:0:0:0:
185,201,160619,2,0,L|263:210,1,65,12|4,0:0|0:3,0:0:0:0:
315,264,160905,1,10,0:0:0:0:
321,159,161047,6,0,B|357:140|357:140|457:153,1,130,4|4,0:0|0:3,0:0:0:0:
511,55,161476,2,0,B|475:74|475:74|375:61,1,130,8|4,0:0|0:3,0:0:0:0:
281,13,161905,2,0,L|292:103,1,65,8|0,0:0|0:0,0:0:0:0:
184,161,162190,6,0,L|187:24,1,130,8|4,0:0|0:3,0:0:0:0:
100,102,162619,2,0,P|72:116|33:116,1,65,8|0,0:0|0:0,0:0:0:0:
1,204,162905,2,0,P|34:206|63:220,1,65,8|4,0:0|0:3,0:0:0:0:
251,362,163333,6,0,P|189:364|148:316,1,130,6|4,0:0|0:3,0:0:0:0:
159,231,163762,2,0,L|229:222,1,65,8|0,0:0|0:0,0:0:0:0:
246,140,164048,2,0,L|315:149,1,65,8|0,0:0|0:0,0:0:0:0:
355,76,164333,2,0,L|420:103,1,65,8|4,0:0|0:0,0:0:0:0:
500,97,164619,6,0,P|522:156|504:218,2,130,8|8|8,0:0|0:0|0:0,0:0:0:0:
414,101,165333,1,4,0:3:0:0:
337,62,165476,2,0,P|329:31|331:0,1,65,8|8,0:0|0:0,0:0:0:0:
269,110,165762,6,0,L|185:92,1,65,4|8,0:0|0:0,0:0:0:0:
120,99,166048,2,0,P|102:129|102:184,1,65,0|0,0:0|0:0,0:0:0:0:
138,232,166333,2,0,L|74:245,1,65,8|8,0:0|0:0,0:0:0:0:
14,185,166619,1,8,0:0:0:0:
93,259,166762,6,0,L|241:226,1,130,4|4,0:0|0:3,0:0:0:0:
301,208,167190,2,0,P|354:246|354:328,1,130,8|2,0:0|0:0,0:0:0:0:
428,360,167619,2,0,P|448:322|448:281,1,65,8|8,0:0|0:0,0:0:0:0:
474,218,167905,6,0,P|443:163|454:100,1,130,4|4,0:0|0:3,0:0:0:0:
412,26,168333,2,0,L|336:54,1,65,8|0,0:0|0:0,0:0:0:0:
299,116,168619,2,0,L|223:88,1,65,8|0,0:0|0:0,0:0:0:0:
187,25,168905,2,0,L|111:53,1,65,8|4,0:0|0:0,0:0:0:0:
69,110,169190,6,0,P|49:93|31:-13,2,130,8|8|8,0:0|0:0|0:0,0:0:0:0:
151,130,169905,1,4,0:3:0:0:
89,188,170048,2,0,P|76:220|80:258,1,65,8|10,0:0|0:0,0:0:0:0:
161,232,170333,1,6,0:0:0:0:
161,232,170476,6,0,L|317:205,1,130,12|2,0:0|0:0,0:0:0:0:
334,282,170905,2,0,L|205:304,1,130,12|8,0:0|0:0,0:0:0:0:
252,374,171333,6,0,L|408:347,1,130,4|4,0:0|0:3,0:0:0:0:
461,326,171762,2,0,P|494:279|471:202,1,130,8|0,0:0|0:0,0:0:0:0:
401,179,172190,2,0,P|382:151|375:118,1,65,8|4,0:0|0:3,0:0:0:0:
423,30,172476,6,0,P|374:71|312:62,1,130,4|4,0:0|0:3,0:0:0:0:
233,30,172905,2,0,P|186:49|165:77,1,65,8|0,0:0|0:0,0:0:0:0:
112,3,173190,2,0,P|92:49|97:84,1,65,8|0,0:0|0:0,0:0:0:0:
7,72,173476,2,0,P|26:119|53:140,1,65,8|4,0:0|0:0,0:0:0:0:
114,159,173762,6,0,P|136:218|117:279,2,130,8|8|8,0:0|0:0|0:0,0:0:0:0:
184,112,174476,1,4,0:3:0:0:
253,160,174619,2,0,P|290:167|326:157,1,65,8|8,0:0|0:0,0:0:0:0:
225,239,174905,6,0,L|231:306,1,65,4|8,0:0|0:0,0:0:0:0:
305,343,175190,2,0,L|310:278,1,65,4|0,0:3|0:0,0:0:0:0:
324,194,175476,2,0,P|359:157|445:162,1,130,8|4,0:0|0:3,0:0:0:0:
501,103,175905,6,0,P|437:106|390:64,1,130,4|4,0:0|0:3,0:0:0:0:
321,15,176333,2,0,L|174:30,1,130,8|2,0:0|0:0,0:0:0:0:
106,30,176762,2,0,L|95:-4,2,32.5,8|8|8,0:0|0:0|0:0,0:0:0:0:
144,105,177048,6,0,P|139:168|91:209,1,130,4|4,0:0|0:3,0:0:0:0:
45,300,177476,2,0,L|114:295,1,52,10|0,0:0|0:0,0:0:0:0:
180,287,177762,2,0,L|249:282,1,52,10|0,0:0|0:0,0:0:0:0:
315,273,178048,6,0,L|384:268,1,52,10|0,0:0|0:0,0:0:0:0:
439,228,178333,2,0,P|368:204|357:161,2,104,10|10|10,0:0|0:0|0:0,0:0:0:0:
434,144,179048,1,0,0:0:0:0:
365,96,179190,2,0,P|327:87|297:93,1,52,10|10,0:0|0:0,0:0:0:0:
360,238,184048,6,0,L|290:225,2,65,2|0|0,1:2|0:0|1:3,0:0:0:0:
174,148,185190,6,0,L|244:135,2,65,2|0|0,1:2|0:0|1:0,0:0:0:0:
415,150,186333,6,0,L|345:137,2,65,2|0|0,1:2|0:0|1:0,0:0:0:0:
229,60,187333,1,6,0:0:0:0:
229,60,187476,6,0,L|299:47,2,65,2|0|0,1:2|0:0|1:0,0:0:0:0:
55,176,188619,6,0,P|36:213|38:240,2,65,2|0|0,1:2|0:0|1:0,0:0:0:0:
188,314,189762,6,0,P|186:281|169:254,2,65,2|0|0,1:2|0:0|1:0,0:0:0:0:
142,118,190905,5,2,1:2:0:0:
98,360,191476,5,2,1:2:0:0:
253,147,192048,2,0,L|329:140,1,65,2|2,1:2|0:0,0:0:0:0:
64,257,192619,2,0,L|-12:250,2,65,2|2|0,1:2|0:0|0:0,0:0:0:0:
373,86,202333,6,0,L|364:157,1,65,2|0,1:2|0:0,0:0:0:0:
247,26,202905,2,0,L|238:97,1,65,0|0,1:0|0:0,0:0:0:0:
492,207,203476,6,0,L|505:109,1,90.9999972229005,8|8,1:2|0:0,0:0:0:0:
349,325,204476,6,0,P|359:306|365:246,2,65,2|12|8,0:0|0:0|0:0,0:0:0:0:
269,294,204905,2,0,P|239:269|146:283,1,130,4|4,0:0|0:3,0:0:0:0:
70,294,205333,2,0,P|60:275|54:215,1,65,8|2,0:0|0:0,0:0:0:0:
0,143,205619,6,0,P|61:158|125:103,1,143.000004364014,4|4,0:0|0:3,0:0:0:0:
164,40,206048,1,12,0:0:0:0:
320,102,206333,1,12,0:0:0:0:
475,168,206619,1,12,0:0:0:0:
340,270,206905,6,0,P|330:240|331:205,1,65,6|4,0:0|0:3,0:0:0:0:
410,235,207190,2,0,P|419:285|357:350,1,130,8|4,0:0|0:3,0:0:0:0:
288,337,207619,1,4,0:3:0:0:
218,288,207762,2,0,L|223:216,1,65,8|2,0:0|0:0,0:0:0:0:
222,137,208048,6,0,P|165:108|105:130,1,130,6|8,0:0|0:0,0:0:0:0:
43,185,208476,1,0,0:0:0:0:
24,102,208619,2,0,P|23:65|12:24,1,65,8|2,0:0|0:0,0:0:0:0:
97,8,208905,2,0,P|123:33|160:54,1,65,10|2,0:0|0:0,0:0:0:0:
222,137,209190,6,0,P|272:99|335:106,1,130,4|8,0:0|0:0,0:0:0:0:
452,163,209619,2,0,P|389:172|350:222,1,130,4|4,0:0|0:3,0:0:0:0:
266,236,210048,1,8,0:0:0:0:
217,339,210190,6,0,P|154:329|115:279,1,130,4|4,0:0|0:3,0:0:0:0:
49,225,210619,2,0,L|40:161,1,65,10|0,0:0|0:0,0:0:0:0:
123,175,210905,2,0,L|133:111,1,65,10|4,0:0|0:3,0:0:0:0:
208,151,211190,2,0,L|234:91,1,65,10|10,0:0|0:0,0:0:0:0:
292,186,211476,6,0,P|310:227|308:271,1,65,4|0,0:0|0:0,0:0:0:0:
287,328,211762,2,0,L|376:320,1,65,12|0,0:0|0:0,0:0:0:0:
428,359,212048,2,0,P|470:313|458:221,1,130,4|8,0:3|0:0,0:0:0:0:
427,176,212476,1,2,0:0:0:0:
467,102,212619,6,0,P|412:141|350:121,1,130,6|8,0:0|0:0,0:0:0:0:
291,70,213048,1,2,0:0:0:0:
225,122,213190,2,0,L|234:194,1,65,8|2,0:0|0:0,0:0:0:0:
142,102,213476,1,10,0:0:0:0:
150,186,213619,6,0,P|94:147|32:166,1,130,6|4,0:0|0:3,0:0:0:0:
20,245,214048,2,0,P|75:283|137:264,1,130,8|4,0:0|0:3,0:0:0:0:
214,248,214476,2,0,P|245:243|277:250,1,65,8|2,0:0|0:0,0:0:0:0:
375,308,214762,6,0,P|352:243|396:189,1,143.000004364014,4|4,0:0|0:3,0:0:0:0:
478,166,215191,1,12,0:0:0:0:
317,114,215476,1,12,0:0:0:0:
154,66,215762,1,12,0:0:0:0:
189,231,216048,6,0,P|231:183|216:112,1,130,6|8,0:0|0:0,0:0:0:0:
154,66,216476,2,0,L|5:79,1,130,0|4,0:0|0:3,0:0:0:0:
4,160,216905,2,0,L|82:150,1,65,8|2,0:0|0:0,0:0:0:0:
150,158,217190,6,0,P|192:205|185:268,2,130,4|12|0,0:0|0:0|0:0,0:0:0:0:
108,232,217905,2,0,P|100:263|103:295,1,65,4|10,0:3|0:0,0:0:0:0:
47,371,218190,6,0,P|101:337|163:348,1,130,4|4,0:0|0:3,0:0:0:0:
244,320,218619,1,8,0:0:0:0:
325,352,218762,2,0,P|387:362|441:329,1,130,4|4,0:0|0:0,0:0:0:0:
456,246,219190,1,8,0:0:0:0:
372,276,219333,6,0,B|354:238|354:238|381:119,1,143.000004364014,4|4,0:0|0:3,0:0:0:0:
400,57,219762,1,8,0:0:0:0:
262,155,220048,1,8,0:0:0:0:
132,47,220333,1,10,0:0:0:0:
262,155,220619,6,0,P|273:185|275:217,1,65,4|4,0:0|0:3,0:0:0:0:
221,282,220905,2,0,P|285:260|351:292,1,130,8|4,0:0|0:3,0:0:0:0:
416,319,221333,2,0,P|455:318|489:291,1,65,4|8,0:3|0:0,0:0:0:0:
340,281,221619,6,0,P|318:217|350:151,1,130,4|4,0:0|0:3,0:0:0:0:
414,120,222048,2,0,L|485:108,1,65,12|0,0:0|0:0,0:0:0:0:
460,26,222333,2,0,L|395:36,1,65,12|4,0:0|0:3,0:0:0:0:
313,57,222619,1,8,0:0:0:0:
256,120,222762,6,0,L|121:95,1,130,4|4,0:0|0:3,0:0:0:0:
55,52,223190,2,0,P|84:119|47:173,1,130,8|0,0:0|0:0,0:0:0:0:
4,230,223619,2,0,L|21:302,1,65,8|0,0:0|0:0,0:0:0:0:
90,247,223905,6,0,L|225:222,1,130,12|4,0:0|0:3,0:0:0:0:
300,207,224333,2,0,P|326:235|333:276,1,65,12|0,0:0|0:0,0:0:0:0:
401,310,224619,2,0,P|375:338|368:379,1,65,12|4,0:0|0:3,0:0:0:0:
217,223,225048,6,0,P|213:147|254:97,1,130,6|4,0:0|0:3,0:0:0:0:
289,176,225477,2,0,L|368:181,1,65,8|0,0:0|0:0,0:0:0:0:
431,145,225762,2,0,P|435:69|394:19,1,130,8|8,0:0|0:0,0:0:0:0:
322,7,226191,1,4,0:0:0:0:
352,98,226333,6,0,L|287:105,1,65,8|4,0:0|0:3,0:0:0:0:
222,200,226620,2,0,L|157:193,1,65,8|0,0:0|0:0,0:0:0:0:
153,76,226905,2,0,L|88:83,1,65,8|4,0:0|0:3,0:0:0:0:
76,167,227191,1,8,0:0:0:0:
157,193,227334,6,0,P|168:255|122:298,1,130,8|8,0:0|0:0,0:0:0:0:
56,349,227762,2,0,L|216:353,1,130,12|12,0:0|0:0,0:0:0:0:
268,373,228191,2,0,L|346:364,1,65,0|8,0:0|0:0,0:0:0:0:
448,378,228477,6,0,P|403:336|413:274,1,130,4|4,0:0|0:0,0:0:0:0:
496,259,228905,2,0,L|478:187,1,65,4|8,0:0|0:0,0:0:0:0:
473,111,229191,2,0,P|413:128|358:96,1,130,8|8,0:0|0:0,0:0:0:0:
284,181,229620,6,0,P|224:164|169:196,1,130,4|4,0:0|0:3,0:0:0:0:
97,240,230048,2,0,L|87:169,1,65,8|4,0:0|0:3,0:0:0:0:
9,146,230334,2,0,L|0:301,1,130,8|8,0:0|0:0,0:0:0:0:
74,322,230763,1,4,0:0:0:0:
163,251,230905,6,0,L|98:241,1,65,8|4,0:0|0:3,0:0:0:0:
163,339,231191,2,0,L|228:330,1,65,8|0,0:0|0:0,0:0:0:0:
308,259,231477,2,0,L|244:250,1,65,8|4,0:0|0:3,0:0:0:0:
313,341,231763,1,8,0:0:0:0:
383,294,231905,6,0,P|402:264|402:220,1,65,10|6,0:0|0:0,0:0:0:0:
463,173,232191,2,0,L|323:195,1,130,8|0,0:0|0:0,0:0:0:0:
350,110,232620,2,0,L|210:132,1,130,12|8,0:0|0:0,0:0:0:0:
123,73,233049,6,0,P|134:135|88:178,1,130,4|4,0:0|0:0,0:0:0:0:
13,217,233477,2,0,L|27:301,1,65,12|8,0:0|0:0,0:0:0:0:
108,271,233762,2,0,L|94:355,2,65,10|2|8,0:0|0:0|0:0,0:0:0:0:
186,322,234190,6,0,P|243:332|303:275,1,130,4|4,0:0|0:3,0:0:0:0:
367,242,234619,2,0,L|355:168,1,65,8|0,0:0|0:0,0:0:0:0:
311,105,234905,2,0,P|359:64|422:73,1,130,4|8,0:3|0:0,0:0:0:0:
479,135,235333,6,0,L|458:269,1,130,4|4,0:0|0:0,0:0:0:0:
413,335,235762,2,0,L|345:319,1,65,8|0,0:0|0:0,0:0:0:0:
299,251,236048,2,0,L|153:283,1,130,8|2,0:0|0:0,0:0:0:0:
104,329,236476,6,0,P|53:338|-11:279,1,130,6|4,0:0|0:3,0:0:0:0:
4,208,236905,2,0,P|51:165|114:172,1,130,12|4,0:0|0:3,0:0:0:0:
184,219,237333,2,0,P|245:209|267:191,1,65,12|0,0:0|0:0,0:0:0:0:
322,141,237619,6,0,P|298:190|340:258,1,130,4|4,0:0|0:3,0:0:0:0:
414,266,238048,2,0,L|488:253,1,65,8|0,0:0|0:0,0:0:0:0:
501,335,238333,2,0,L|364:358,1,130,8|8,0:0|0:0,0:0:0:0:
277,384,238762,6,0,P|301:335|259:267,1,130,4|4,0:0|0:3,0:0:0:0:
184,261,239190,2,0,L|112:266,1,65,8|0,0:0|0:0,0:0:0:0:
37,288,239476,2,0,P|13:239|55:171,1,130,4|8,0:3|0:0,0:0:0:0:
121,137,239905,6,0,L|258:125,1,130,4|4,0:0|0:0,0:0:0:0:
332,106,240333,2,0,P|369:140|381:168,1,65,8|0,0:0|0:0,0:0:0:0:
418,226,240619,2,0,P|421:163|471:125,1,130,8|2,0:0|0:0,0:0:0:0:
485,41,241048,6,0,L|334:18,1,130,6|4,0:0|0:3,0:0:0:0:
273,2,241476,2,0,L|202:11,2,65,8|2|2,0:0|0:0|0:0,0:0:0:0:
295,84,241905,2,0,P|300:120|286:167,1,65,8|0,0:0|0:0,0:0:0:0:
211,211,242190,6,0,P|269:190|326:220,1,130,4|4,0:0|0:3,0:0:0:0:
385,281,242619,2,0,L|365:357,1,65,12|0,0:0|0:0,0:0:0:0:
281,384,242905,2,0,L|264:321,1,65,12|4,0:0|0:3,0:0:0:0:
193,127,243333,6,0,P|135:148|78:118,1,130,6|4,0:0|0:3,0:0:0:0:
38,193,243762,2,0,L|28:266,1,65,8|0,0:0|0:0,0:0:0:0:
113,272,244048,2,0,L|122:337,2,65,4|4|8,0:3|0:3|0:0,0:0:0:0:
190,238,244476,6,0,P|249:217|305:247,1,130,4|4,0:0|0:3,0:0:0:0:
383,280,244905,2,0,L|414:150,1,130,12|12,0:0|0:0,0:0:0:0:
352,94,245333,1,8,0:0:0:0:
352,94,245619,6,0,P|293:117|236:88,1,130,4|4,0:0|0:3,0:0:0:0:
177,27,246048,2,0,P|124:-1|55:30,1,130,8|4,0:0|0:3,0:0:0:0:
66,106,246476,2,0,L|73:180,1,65,10|2,0:0|0:0,0:0:0:0:
161,237,246762,6,0,L|172:108,1,130,4|4,0:0|0:3,0:0:0:0:
248,71,247190,2,0,P|296:55|335:72,1,65,12|0,0:0|0:0,0:0:0:0:
379,9,247476,2,0,P|425:32|440:72,1,65,12|0,0:0|0:0,0:0:0:0:
482,110,247762,1,12,0:0:0:0:
371,125,247905,6,0,L|385:280,1,130,4|4,0:0|0:3,0:0:0:0:
359,335,248333,2,0,P|318:305|302:268,1,65,8|0,0:0|0:0,0:0:0:0:
228,270,248619,2,0,P|225:298|237:335,2,65,2|2|10,0:0|0:0|0:0,0:0:0:0:
260,171,249048,6,0,P|204:201|144:181,1,130,4|4,0:0|0:3,0:0:0:0:
82,238,249476,2,0,L|108:85,1,130,12|14,0:0|0:0,0:0:0:0:
9,151,249904,1,2,0:0:0:0:
9,151,250190,6,0,L|35:-2,1,130,4|4,0:0|0:3,0:0:0:0:
116,33,250619,2,0,L|94:161,1,130,8|2,0:0|0:0,0:0:0:0:
179,172,251048,2,0,L|196:79,1,65,10|2,0:0|0:0,0:0:0:0:
252,212,251333,6,0,P|288:243|370:240,1,130,4|4,0:0|0:3,0:0:0:0:
433,189,251762,2,0,P|481:173|520:190,1,65,10|2,0:0|0:0,0:0:0:0:
506,260,252048,2,0,P|458:276|419:259,1,65,2|4,0:0|0:3,0:0:0:0:
367,241,252333,2,0,L|325:242,2,32.5,10|2|4,0:0|0:0|0:0,0:0:0:0:
